Ошибка

(SID-Metal / Power Metal / Modern Metal) Machinae Supremacy - Дискография - 2002-2010, FLAC (image+.cue), lossless

Ответить на тему
 
Автор Сообщение

Хомяк 2.0

Стаж: 7 лет 7 месяцев

Сообщений: 1635

Рейтинг

post 10-Ноя-2010 00:24 0[+]

[Цитировать] 

Machinae Supremacy - Дискография

Жанр: SID-Metal / Power Metal / Modern Metal
Происхождение исполнителя: Sweden
Год: 2002-2010
Тип релиза: image+.cue
Аудио кодек: FLAC
Битрейт аудио: lossless
Продолжительность: 8:58:20 + 3:03:09 (промо)

Machinae Supremacy — группа из шведского города Лулео, совмещающая современный метал и альтернативный рок с чиптюнами, музыкой, где все звуки генерируются с помощью звуковых микросхем игровых приставок или компьютера. Группа определяет свой стиль как SID metal, так как во многих треках использует электронный музыкальный инструмент SidStation, основанный на чипе звукогенератора SID (Sound Interface Device) из Commodore 64. Значительное количество треков было размещено для бесплатного скачивания на сайте группы — 32 оригинальные композиции, которые были скачаны более 3 миллионов раз только за 2006 год.
Продолжительность: 48:36
Издатель (лейбл): не издавалось (интернет релиз)
Полиграфия: не существует
Источник: оффициальный сайт группы
Треклист:
01. Hero (4:26)
02. Nemesis (4:57)
03. I Turn to You (5:22)
04. Winterstorm (4:07)
05. The Wired (4:44)
06. Origin v2 (4:39)
07. Fighters from Ninne v2 (3:13)
08. Earthbound (4:53)
09. Anthem Apocalyptica (3:25)
10. Masquerade (4:54)
11. Hybrid (3:57)

Код:

REM GENRE SID Metal
PERFORMER "Machinae Supremacy"
TITLE "Origin [Compilation]"
FILE "Machinae Supremacy - Origin [Compilation].flac" WAVE
  TRACK 01 AUDIO
    TITLE "Hero"
    INDEX 01 00:00:00
  TRACK 02 AUDIO
    TITLE "Nemesis"
    INDEX 01 04:26:23
  TRACK 03 AUDIO
    TITLE "I Turn to You"
    INDEX 01 09:23:23
  TRACK 04 AUDIO
    TITLE "Winterstorm"
    INDEX 01 14:44:73
  TRACK 05 AUDIO
    TITLE "The Wired"
    INDEX 01 18:52:01
  TRACK 06 AUDIO
    TITLE "Origin v2"
    INDEX 01 23:35:70
  TRACK 07 AUDIO
    TITLE "Fighters from Ninne v2"
    INDEX 01 28:14:70
  TRACK 08 AUDIO
    TITLE "Earthbound"
    INDEX 01 31:28:20
  TRACK 09 AUDIO
    TITLE "Anthem Apocalyptica"
    INDEX 01 36:20:62
  TRACK 10 AUDIO
    TITLE "Masquerade"
    INDEX 01 39:45:68
  TRACK 11 AUDIO
    TITLE "Hybrid"
    INDEX 01 44:39:66
Продолжительность: 43:52
Издатель (лейбл): не издавалось (интернет релиз)
Полиграфия: не существует
Источник: оффициальный сайт группы
Треклист:
01. Gianna Sisters (4:35)
02. Kings of the Scene (3:29)
03. Timeline (4:40)
04. Follower (3:20)
05. Missing Link (4:34)
06. Arcade (5:52)
07. Sidstyler (3:17)
08. March of the Undead 2 (4:30)
09. Attack Music (3:46)
10. Cryosleep (5:50)

Код:

REM GENRE SID Metal
PERFORMER "Machinae Supremacy"
TITLE "Arcade [Compilation]"
FILE "Machinae Supremacy - Arcade [Compilation].flac" WAVE
  TRACK 01 AUDIO
    TITLE "Gianna Sisters"
    INDEX 01 00:00:00
  TRACK 02 AUDIO
    TITLE "Kings of the Scene"
    INDEX 01 04:34:45
  TRACK 03 AUDIO
    TITLE "Timeline"
    INDEX 01 08:03:49
  TRACK 04 AUDIO
    TITLE "Follower"
    INDEX 01 12:43:36
  TRACK 05 AUDIO
    TITLE "Missing Link"
    INDEX 01 16:03:30
  TRACK 06 AUDIO
    TITLE "Arcade"
    INDEX 01 20:37:50
  TRACK 07 AUDIO
    TITLE "Sidstyler"
    INDEX 01 26:29:60
  TRACK 08 AUDIO
    TITLE "March of the Undead 2"
    INDEX 01 29:47:12
  TRACK 09 AUDIO
    TITLE "Attack Music"
    INDEX 01 34:17:27
  TRACK 10 AUDIO
    TITLE "Cryosleep"
    INDEX 01 38:03:09
Продолжительность: 1:12:39
Издатель (лейбл): MBD Records
Номер по каталогу: MBD0008MS
Полиграфия: присутсвует (PNG ~6000x3000)
Источник: Valet2 @ ru.org
Треклист:
01. Insidious (5:36)
02. Super Steve (5:39)
03. Dreadnaught (4:06)
04. Flagcarrier (6:03)
05. Return to Snake Mountain (5:19)
06. Player One (5:43)
07. Deus Ex Machinae (4:45)
08. Attack Music (3:35)
09. Ninja (5:24)
10. Throttle and Mask (3:59)
11. Killer Instinct (3:54)
12. Tempus Fugit (4:59)
13. Blind Dog Pride (6:25)
14. Machinae Prime (7:12)

Код:

Exact Audio Copy V0.99 prebeta 5 from 4. May 2009

EAC extraction logfile from 23. September 2010, 12:17

Machinae Supremacy / Deus Ex Machinae

Used drive  : PLEXTOR DVDR   PX-820SA   Adapter: 2  ID: 0

Read mode               : Secure
Utilize accurate stream : Yes
Defeat audio cache      : Yes
Make use of C2 pointers : No

Read offset correction                      : 48
Overread into Lead-In and Lead-Out          : No
Fill up missing offset samples with silence : Yes
Delete leading and trailing silent blocks   : No
Null samples used in CRC calculations       : Yes
Used interface                              : Native Win32 interface for Win NT & 2000
Gap handling                                : Appended to previous track

Used output format              : User Defined Encoder
Selected bitrate                : 128 kBit/s
Quality                         : High
Add ID3 tag                     : No
Command line compressor         : C:\Program Files\Exact Audio Copy\Flac\flac.exe
Additional command line options : -8 -V -T "ARTIST=%a" -T "TITLE=%t" -T "ALBUM=%g" -T "DATE=%y" -T "TRACKNUMBER=%n" -T "GENRE=%m" -T "COMMENT=EAC FLAC -8" %s

TOC of the extracted CD

     Track |   Start  |  Length  | Start sector | End sector
    ---------------------------------------------------------
        1  |  0:00.00 |  5:36.26 |         0    |    25225   
        2  |  5:36.26 |  5:39.33 |     25226    |    50683   
        3  | 11:15.59 |  4:05.58 |     50684    |    69116   
        4  | 15:21.42 |  6:02.47 |     69117    |    96313   
        5  | 21:24.14 |  5:18.54 |     96314    |   120217   
        6  | 26:42.68 |  5:43.27 |    120218    |   145969   
        7  | 32:26.20 |  4:44.62 |    145970    |   167331   
        8  | 37:11.07 |  3:35.02 |    167332    |   183458   
        9  | 40:46.09 |  5:23.67 |    183459    |   207750   
       10  | 46:10.01 |  3:59.11 |    207751    |   225686   
       11  | 50:09.12 |  3:53.42 |    225687    |   243203   
       12  | 54:02.54 |  4:58.74 |    243204    |   265627   
       13  | 59:01.53 |  6:25.36 |    265628    |   294538   
       14  | 65:27.14 |  7:12.35 |    294539    |   326973   

Track  1

     Filename C:\_extract\01 - Insidious.wav

     Pre-gap length  0:00:02.00

     Peak level 98.9 %
     Track quality 99.9 %
     Test CRC A4134B78
     Copy CRC A4134B78
     Accurately ripped (confidence 5)  [440079B1]
     Copy OK

Track  2

     Filename C:\_extract\02 - Super Steve.wav

     Peak level 98.9 %
     Track quality 100.0 %
     Test CRC 13973197
     Copy CRC 13973197
     Accurately ripped (confidence 5)  [FFB4E46F]
     Copy OK

Track  3

     Filename C:\_extract\03 - Dreadnaught.wav

     Peak level 98.9 %
     Track quality 100.0 %
     Test CRC D289D049
     Copy CRC D289D049
     Accurately ripped (confidence 5)  [3C510AF4]
     Copy OK

Track  4

     Filename C:\_extract\04 - Flagcarrier.wav

     Peak level 98.9 %
     Track quality 99.9 %
     Test CRC 5F91DAE4
     Copy CRC 5F91DAE4
     Accurately ripped (confidence 5)  [8F0D7919]
     Copy OK

Track  5

     Filename C:\_extract\05 - Return to Snake Mountain.wav

     Peak level 98.9 %
     Track quality 100.0 %
     Test CRC C106A83D
     Copy CRC C106A83D
     Accurately ripped (confidence 5)  [3ECE019B]
     Copy OK

Track  6

     Filename C:\_extract\06 - Player One.wav

     Peak level 98.9 %
     Track quality 99.9 %
     Test CRC A7117FEC
     Copy CRC A7117FEC
     Accurately ripped (confidence 5)  [F69F145B]
     Copy OK

Track  7

     Filename C:\_extract\07 - Deus Ex Machinae.wav

     Peak level 98.9 %
     Track quality 100.0 %
     Test CRC 5836BA0E
     Copy CRC 5836BA0E
     Accurately ripped (confidence 5)  [9B8D2211]
     Copy OK

Track  8

     Filename C:\_extract\08 - Attack Music.wav

     Peak level 98.9 %
     Track quality 100.0 %
     Test CRC 92BDB8BA
     Copy CRC 92BDB8BA
     Accurately ripped (confidence 5)  [85156BAA]
     Copy OK

Track  9

     Filename C:\_extract\09 - Ninja.wav

     Peak level 98.9 %
     Track quality 100.0 %
     Test CRC 76024209
     Copy CRC 76024209
     Accurately ripped (confidence 5)  [AB9A5C16]
     Copy OK

Track 10

     Filename C:\_extract\10 - Throttle and Mask.wav

     Peak level 98.9 %
     Track quality 100.0 %
     Test CRC 0E6A65DA
     Copy CRC 0E6A65DA
     Accurately ripped (confidence 5)  [16414032]
     Copy OK

Track 11

     Filename C:\_extract\11 - Killer Instinct.wav

     Peak level 98.9 %
     Track quality 100.0 %
     Test CRC 47926170
     Copy CRC 47926170
     Accurately ripped (confidence 5)  [11B910C5]
     Copy OK

Track 12

     Filename C:\_extract\12 - Tempus Fugit.wav

     Peak level 98.9 %
     Track quality 100.0 %
     Test CRC 03A6717B
     Copy CRC 03A6717B
     Accurately ripped (confidence 5)  [252101D0]
     Copy OK

Track 13

     Filename C:\_extract\13 - Blind Dog Pride.wav

     Pre-gap length  0:00:05.00

     Peak level 98.9 %
     Track quality 99.5 %
     Test CRC 4F7EE4C1
     Copy CRC C0D77ADF
     Cannot be verified as accurate (confidence 5)  [90E43E0A], AccurateRip returned [58E24C2C]
     Copy OK

Track 14

     Filename C:\_extract\14 - Machinae Prime.wav

     Pre-gap length  0:00:05.00

     Peak level 98.9 %
     Track quality 100.0 %
     Test CRC F99F904D
     Copy CRC F99F904D
     Accurately ripped (confidence 5)  [833395B9]
     Copy OK

13 track(s) accurately ripped
 1 track(s) could not be verified as accurate

Some tracks could not be verified as accurate

No errors occurred

End of status report

Код:

REM GENRE "SID Metal"
REM DATE 2004
REM DISCID CA11070E
REM COMMENT "ExactAudioCopy v0.99pb5"
PERFORMER "Machinae Supremacy"
TITLE "Deus Ex Machinae"
FILE "Machinae Supremacy - Deus Ex Machinae.flac" WAVE
  TRACK 01 AUDIO
    TITLE "Insidious"
    INDEX 01 00:00:00
  TRACK 02 AUDIO
    TITLE "Super Steve"
    INDEX 01 05:36:26
  TRACK 03 AUDIO
    TITLE "Dreadnaught"
    INDEX 01 11:15:59
  TRACK 04 AUDIO
    TITLE "Flagcarrier"
    INDEX 01 15:21:42
  TRACK 05 AUDIO
    TITLE "Return to Snake Mountain"
    INDEX 01 21:24:14
  TRACK 06 AUDIO
    TITLE "Player One"
    INDEX 01 26:42:68
  TRACK 07 AUDIO
    TITLE "Deus Ex Machinae"
    INDEX 01 32:26:20
  TRACK 08 AUDIO
    TITLE "Attack Music"
    INDEX 01 37:11:07
  TRACK 09 AUDIO
    TITLE "Ninja"
    INDEX 01 40:46:09
  TRACK 10 AUDIO
    TITLE "Throttle and Mask"
    INDEX 01 46:10:01
  TRACK 11 AUDIO
    TITLE "Killer Instinct"
    INDEX 01 50:09:12
  TRACK 12 AUDIO
    TITLE "Tempus Fugit"
    INDEX 01 54:02:54
  TRACK 13 AUDIO
    TITLE "Blind Dog Pride"
    INDEX 01 59:01:53
  TRACK 14 AUDIO
    TITLE "Machinae Prime"
    INDEX 01 65:27:14
Продолжительность: 1:18:11
Издатель (лейбл): MBD Records
Номер по каталогу: MBD0008MS
Полиграфия: присутсвует (PNG ~6000x3000)
Источник: Valet2 @ ru.org
Треклист:
01. Insidious (5:33)
02. Super Steve (5:37)
03. Dreadnaught (4:04)
04. Flagcarrier (5:58)
05. Return to Snake Mountain (5:20)
06. Player One (5:40)
07. Deus Ex Machinae (4:44)
08. Attack Music (3:34)
09. Ninja (5:24)
10. Throttle and Mask (4:01)
11. Killer Instinct (3:53)
12. Tempus Fugit (4:54)
13. Blind Dog Pride (6:27)
14. Machinae Prime (7:03)
15. Soundtrack to The Rebellion (bonus) (6:00)

Код:

Exact Audio Copy V0.99 prebeta 5 from 4. May 2009

EAC extraction logfile from 6. November 2010, 19:41

Machinae Supremacy / Deus Ex Machinae 2.0

Used drive  : PLEXTOR DVDR   PX-716A   Adapter: 0  ID: 1

Read mode               : Secure
Utilize accurate stream : Yes
Defeat audio cache      : Yes
Make use of C2 pointers : No

Read offset correction                      : 30
Overread into Lead-In and Lead-Out          : No
Fill up missing offset samples with silence : Yes
Delete leading and trailing silent blocks   : No
Null samples used in CRC calculations       : Yes
Used interface                              : Native Win32 interface for Win NT & 2000
Gap handling                                : Appended to previous track

Used output format              : User Defined Encoder
Selected bitrate                : 128 kBit/s
Quality                         : High
Add ID3 tag                     : No
Command line compressor         : C:\Program Files (x86)\Exact Audio Copy\Flac\flac.exe
Additional command line options : -8 -V -T "ARTIST=%a" -T "TITLE=%t" -T "ALBUM=%g" -T "DATE=%y" -T "TRACKNUMBER=%n" -T "GENRE=%m" -T "COMMENT=EAC FLAC -8" %s

TOC of the extracted CD

     Track |   Start  |  Length  | Start sector | End sector
    ---------------------------------------------------------
        1  |  0:00.00 |  5:33.13 |         0    |    24987   
        2  |  5:33.13 |  5:37.11 |     24988    |    50273   
        3  | 11:10.24 |  4:03.65 |     50274    |    68563   
        4  | 15:14.14 |  5:57.54 |     68564    |    95392   
        5  | 21:11.68 |  5:20.01 |     95393    |   119393   
        6  | 26:31.69 |  5:39.58 |    119394    |   144876   
        7  | 32:11.52 |  4:43.63 |    144877    |   166164   
        8  | 36:55.40 |  3:33.51 |    166165    |   182190   
        9  | 40:29.16 |  5:23.47 |    182191    |   206462   
       10  | 45:52.63 |  4:01.00 |    206463    |   224537   
       11  | 49:53.63 |  3:52.63 |    224538    |   242000   
       12  | 53:46.51 |  4:53.55 |    242001    |   264030   
       13  | 58:40.31 |  6:26.74 |    264031    |   293054   
       14  | 65:07.30 |  7:03.35 |    293055    |   324814   
       15  | 72:10.65 |  6:00.19 |    324815    |   351833   

Track  1

     Filename C:\_extract\01 - Insidious.wav

     Pre-gap length  0:00:02.00

     Peak level 97.7 %
     Track quality 100.0 %
     Test CRC 269A817C
     Copy CRC 269A817C
     Accurately ripped (confidence 1)  [A9B538DC]
     Copy OK

Track  2

     Filename C:\_extract\02 - Super Steve.wav

     Peak level 97.7 %
     Track quality 100.0 %
     Test CRC D0B56CC6
     Copy CRC D0B56CC6
     Accurately ripped (confidence 1)  [1CD220F6]
     Copy OK

Track  3

     Filename C:\_extract\03 - Dreadnaught.wav

     Peak level 97.7 %
     Track quality 100.0 %
     Test CRC 68014D2C
     Copy CRC 68014D2C
     Accurately ripped (confidence 1)  [71A675BC]
     Copy OK

Track  4

     Filename C:\_extract\04 - Flagcarrier.wav

     Peak level 97.7 %
     Track quality 100.0 %
     Test CRC D7FB0AEF
     Copy CRC D7FB0AEF
     Accurately ripped (confidence 1)  [3414E561]
     Copy OK

Track  5

     Filename C:\_extract\05 - Return to Snake Mountain.wav

     Peak level 97.7 %
     Track quality 100.0 %
     Test CRC C4222713
     Copy CRC C4222713
     Accurately ripped (confidence 1)  [56EF5D50]
     Copy OK

Track  6

     Filename C:\_extract\06 - Player One.wav

     Peak level 97.7 %
     Track quality 100.0 %
     Test CRC 40C04A33
     Copy CRC 40C04A33
     Accurately ripped (confidence 1)  [42DB79CF]
     Copy OK

Track  7

     Filename C:\_extract\07 - Deus Ex Machinae.wav

     Peak level 97.7 %
     Track quality 100.0 %
     Test CRC D41C80B5
     Copy CRC D41C80B5
     Accurately ripped (confidence 1)  [487BC151]
     Copy OK

Track  8

     Filename C:\_extract\08 - Attack Music.wav

     Peak level 97.6 %
     Track quality 100.0 %
     Test CRC AD11348C
     Copy CRC AD11348C
     Accurately ripped (confidence 1)  [BE3C0F6D]
     Copy OK

Track  9

     Filename C:\_extract\09 - Ninja.wav

     Peak level 97.7 %
     Track quality 100.0 %
     Test CRC 59F0097C
     Copy CRC 59F0097C
     Accurately ripped (confidence 1)  [21D08996]
     Copy OK

Track 10

     Filename C:\_extract\10 - Throttle and Mask.wav

     Peak level 97.7 %
     Track quality 100.0 %
     Test CRC D4A9E1DE
     Copy CRC D4A9E1DE
     Accurately ripped (confidence 1)  [EA11AAEC]
     Copy OK

Track 11

     Filename C:\_extract\11 - Killer Instinct.wav

     Peak level 97.7 %
     Track quality 100.0 %
     Test CRC 602ED4FF
     Copy CRC 602ED4FF
     Accurately ripped (confidence 1)  [B69A0423]
     Copy OK

Track 12

     Filename C:\_extract\12 - Tempus Fugit.wav

     Peak level 97.7 %
     Track quality 100.0 %
     Test CRC F718593C
     Copy CRC F718593C
     Accurately ripped (confidence 1)  [E1044345]
     Copy OK

Track 13

     Filename C:\_extract\13 - Blind Dog Pride.wav

     Pre-gap length  0:00:02.00

     Peak level 97.7 %
     Track quality 100.0 %
     Test CRC 5AD17A3B
     Copy CRC 5AD17A3B
     Accurately ripped (confidence 1)  [7BF9AAF3]
     Copy OK

Track 14

     Filename C:\_extract\14 - Machinae Prime.wav

     Pre-gap length  0:00:02.00

     Peak level 97.6 %
     Track quality 100.0 %
     Test CRC B0BD8B46
     Copy CRC B0BD8B46
     Accurately ripped (confidence 1)  [C97C9F51]
     Copy OK

Track 15

     Filename C:\_extract\15 - Soundtrack to The Rebellion.wav

     Pre-gap length  0:00:02.00

     Peak level 97.7 %
     Track quality 100.0 %
     Test CRC 369F3234
     Copy CRC 369F3234
     Accurately ripped (confidence 1)  [D142F027]
     Copy OK

All tracks accurately ripped

No errors occurred

End of status report

Код:

REM GENRE SID Metal
REM DATE 2005
REM COMMENT EAC FLAC -8
PERFORMER "Machinae Supremacy"
TITLE "Deus Ex Machinae 2.0"
FILE "Machinae Supremacy - Deus Ex Machinae 2.0.flac" WAVE
  TRACK 01 AUDIO
    TITLE "Insidious"
    INDEX 01 00:00:00
  TRACK 02 AUDIO
    TITLE "Super Steve"
    INDEX 01 05:33:13
  TRACK 03 AUDIO
    TITLE "Dreadnaught"
    INDEX 01 11:10:24
  TRACK 04 AUDIO
    TITLE "Flagcarrier"
    INDEX 01 15:14:14
  TRACK 05 AUDIO
    TITLE "Return to Snake Mountain"
    INDEX 01 21:11:68
  TRACK 06 AUDIO
    TITLE "Player One"
    INDEX 01 26:31:69
  TRACK 07 AUDIO
    TITLE "Deus Ex Machinae"
    INDEX 01 32:11:52
  TRACK 08 AUDIO
    TITLE "Attack Music"
    INDEX 01 36:55:40
  TRACK 09 AUDIO
    TITLE "Ninja"
    INDEX 01 40:29:16
  TRACK 10 AUDIO
    TITLE "Throttle and Mask"
    INDEX 01 45:52:63
  TRACK 11 AUDIO
    TITLE "Killer Instinct"
    INDEX 01 49:53:63
  TRACK 12 AUDIO
    TITLE "Tempus Fugit"
    INDEX 01 53:46:51
  TRACK 13 AUDIO
    TITLE "Blind Dog Pride"
    INDEX 00 58:38:31
    INDEX 01 58:40:31
  TRACK 14 AUDIO
    TITLE "Machinae Prime"
    INDEX 00 65:05:30
    INDEX 01 65:07:30
  TRACK 15 AUDIO
    TITLE "Soundtrack to The Rebellion (bonus)"
  INDEX 00 72:08:65
    INDEX 01 72:10:65
Продолжительность: 1:18:05
Издатель (лейбл): Hubnester Industries
Номер по каталогу: HUB002
Полиграфия: присутствует (JPG ~6000x3000)
Источник: MeTaLMaDNeSS.TeaM
Треклист:
01. Insidious (5:33)
02. Super Steve (5:37)
03. Dreadnaught (4:04)
04. Flagcarrier (5:58)
05. Return to Snake Mountain (5:20)
06. Player One (5:40)
07. Deus Ex Machinae (4:44)
08. Attack Music (3:34)
09. Ninja (5:24)
10. Throttle and Mask (4:01)
11. Killer Instinct (3:53)
12. Tempus Fugit (4:52)
13. Blind Dog Pride (6:25)
14. Machinae Prime (7:02)
15. Soundtrack to the Rebellion (bonus) (6:00)

Код:

EAC extraction logfile from 7. August 2006, 17:56 for CD
Machinae Supremacy / Deus Ex Machinae [Remastered]

Used drive  : _NEC    DVD_RW ND-3550A   Adapter: 1  ID: 0
Read mode   : Secure with NO C2, accurate stream, disable cache
Read offset correction : 48
Overread into Lead-In and Lead-Out : No

Used output format : C:\Program Files\Exact Audio Copy\FLAC.EXE   (User Defined Encoder)
                     32 kBit/s
                     Additional command line options : -6 -V -T "artist=%a" -T "title=%t" -T "album=%g" -T "date=%y" -T "tracknumber=%n" -T "genre=%m" -T "comment=EAC 0.9beta4 / FLAC 1.1.0 q6" %s

Other options      :
    Fill up missing offset samples with silence : Yes
    Delete leading and trailing silent blocks : No
    Installed external ASPI interface

Range status and errors
Selected range
   Filename E:\CD Rips\Machinae Supremacy - Deus Ex Machinae [Remastered].wav

   Peak level 97.7 %
   Range quality 100.0 %
   CRC C76475B9
   Copy OK

No errors occured

End of status report

Код:

REM GENRE SID Metal
REM DATE 2005
REM COMMENT EAC 0.9beta4 / FLAC 1.1.0 q6
PERFORMER "Machinae Supremacy"
TITLE "Deus Ex Machinae [Remastered]"
FILE "Machinae Supremacy - Deus Ex Machinae [Remastered].flac" WAVE
  TRACK 01 AUDIO
    TITLE "Insidious"
    INDEX 01 00:00:00
  TRACK 02 AUDIO
    TITLE "Super Steve"
    INDEX 01 05:33:07
  TRACK 03 AUDIO
    TITLE "Dreadnaught"
    INDEX 01 11:10:09
  TRACK 04 AUDIO
    TITLE "Flagcarrier"
    INDEX 01 15:14:09
  TRACK 05 AUDIO
    TITLE "Return to Snake Mountain"
    INDEX 01 21:11:60
  TRACK 06 AUDIO
    TITLE "Player One"
    INDEX 01 26:31:65
  TRACK 07 AUDIO
    TITLE "Deus Ex Machinae"
    INDEX 01 32:11:49
  TRACK 08 AUDIO
    TITLE "Attack Music"
    INDEX 01 36:55:33
  TRACK 09 AUDIO
    TITLE "Ninja"
    INDEX 01 40:29:02
  TRACK 10 AUDIO
    TITLE "Throttle and Mask"
    INDEX 01 45:52:54
  TRACK 11 AUDIO
    TITLE "Killer Instinct"
    INDEX 01 49:53:49
  TRACK 12 AUDIO
    TITLE "Tempus Fugit"
    INDEX 01 53:46:48
  TRACK 13 AUDIO
    TITLE "Blind Dog Pride"
    INDEX 01 58:38:21
  TRACK 14 AUDIO
    TITLE "Machinae Prime"
    INDEX 01 65:02:69
  TRACK 15 AUDIO
    TITLE "Soundtrack to the Rebellion (bonus)"
    INDEX 01 72:04:71
Продолжительность: 1:02:04
Издатель (лейбл): не издавалось (интернет релиз)
Полиграфия: не существует
Источник: оффициальный сайт группы
Треклист:
01. Bouff (3:17)
02. Soundtrack to the Rebellion (6:00)
03. Legion of Stoopid (4:53)
04. Multiball (6:46)
05. Hubnester Inferno (4:15)
06. Loot Burn Rape Kill Repeat (2:41)
07. Fury (5:10)
08. Steves Quest (3:22)
09. Sidology 1: Sid Evolution (5:49)
10. Sidology 2: Trinity (12:51)
11. Sidology 3: Apex Ultima (7:00)

Код:

REM GENRE SID Metal
PERFORMER "Machinae Supremacy"
TITLE "Fury [Compilation]"
FILE "Machinae Supremacy - Fury [Compilation].flac" WAVE
  TRACK 01 AUDIO
    TITLE "Bouff"
    INDEX 01 00:00:00
  TRACK 02 AUDIO
    TITLE "Soundtrack to the Rebellion"
    INDEX 01 03:16:50
  TRACK 03 AUDIO
    TITLE "Legion of Stoopid"
    INDEX 01 09:16:69
  TRACK 04 AUDIO
    TITLE "Multiball"
    INDEX 01 14:10:28
  TRACK 05 AUDIO
    TITLE "Hubnester Inferno"
    INDEX 01 20:56:21
  TRACK 06 AUDIO
    TITLE "Loot Burn Rape Kill Repeat"
    INDEX 01 25:11:57
  TRACK 07 AUDIO
    TITLE "Fury"
    INDEX 01 27:52:63
  TRACK 08 AUDIO
    TITLE "Steves Quest"
    INDEX 01 33:03:11
  TRACK 09 AUDIO
    TITLE "Sidology 1: Sid Evolution"
    INDEX 01 36:24:64
  TRACK 10 AUDIO
    TITLE "Sidology 2: Trinity"
    INDEX 01 42:13:44
  TRACK 11 AUDIO
    TITLE "Sidology 3: Apex Ultima"
    INDEX 01 55:04:21
Продолжительность: 1:05:58
Издатель (лейбл): Hubnester Industries
Номер по каталогу: HUB001
Полиграфия: присутствует (JPG ~6000x3000)
Источник: MeTaLMaDNeSS.TeaM
Треклист:
01. Elite (4:25)
02. Rise (5:31)
03. Fury (5:07)
04. Ronin (5:12)
05. Kaori Stomp (4:18)
06. Hate (4:13)
07. I Know the Reaper (4:36)
08. Seventeen (3:46)
09. The Cavern of Lost Time (0:34)
10. Rogue World Asylum (4:14)
11. Through the Looking Glass (5:09)
12. Oki Kumas Adventure (5:22)
13. Reanimator (March of the Undead III) (5:01)
14. Prelude to Empire (1:37)
15. Empire (6:53)

Код:

EAC extraction logfile from 10. April 2006, 15:37 for CD
Machinae Supremacy / Redeemer

Used drive  : LITE-ON DVDRW LDW-411S   Adapter: 1  ID: 0
Read mode   : Secure with NO C2, accurate stream, disable cache
Read offset correction : 12
Overread into Lead-In and Lead-Out : No

Used output format : C:\Program Files\Exact Audio Copy\FLAC.EXE   (User Defined Encoder)
                     32 kBit/s
                     Additional command line options : -6 -V -T "artist=%a" -T "title=%t" -T "album=%g" -T "date=%y" -T "tracknumber=%n" -T "genre=%m" -T "comment=EAC 0.9beta4 / FLAC 1.1.0 q6" %s

Other options      :
    Fill up missing offset samples with silence : Yes
    Delete leading and trailing silent blocks : No
    Native Win32 interface for Win NT & 2000

Range status and errors
Selected range
   Filename E:\MACHINAE.SUPREMACY.[2006].[CD].REDEEMER.[EAC-FLAC]\Machinae Supremacy - Redeemer.wav

   Peak level 96.5 %
   Range quality 100.0 %
   CRC 5739E476
   Copy OK

No errors occured

End of status report

Код:

REM GENRE SID Metal
REM DATE 2006
REM COMMENT EAC 0.9beta4 / FLAC 1.1.0 q6
PERFORMER "Machinae Supremacy"
TITLE "Redeemer [Undeground Edition]"
FILE "Machinae Supremacy - Redeemer [Undeground Edition].flac" WAVE
  TRACK 01 AUDIO
    TITLE "Elite"
    INDEX 01 00:00:00
  TRACK 02 AUDIO
    TITLE "Rise"
    INDEX 00 04:23:74
    INDEX 01 04:24:48
  TRACK 03 AUDIO
    TITLE "Fury"
    INDEX 00 09:55:51
    INDEX 01 09:55:65
  TRACK 04 AUDIO
    TITLE "Ronin"
    INDEX 00 15:02:46
    INDEX 01 15:02:55
  TRACK 05 AUDIO
    TITLE "Kaori Stomp"
    INDEX 00 20:14:45
    INDEX 01 20:14:64
  TRACK 06 AUDIO
    TITLE "Hate"
    INDEX 00 24:32:36
    INDEX 01 24:32:52
  TRACK 07 AUDIO
    TITLE "I Know the Reaper"
    INDEX 00 28:45:41
    INDEX 01 28:45:47
  TRACK 08 AUDIO
    TITLE "Seventeen"
    INDEX 00 33:21:15
    INDEX 01 33:21:41
  TRACK 09 AUDIO
    TITLE "The Cavern of Lost Time"
    INDEX 00 37:07:26
    INDEX 01 37:07:41
  TRACK 10 AUDIO
    TITLE "Rogue World Asylum"
    INDEX 01 37:41:74
  TRACK 11 AUDIO
    TITLE "Through the Looking Glass"
    INDEX 00 41:55:07
    INDEX 01 41:55:51
  TRACK 12 AUDIO
    TITLE "Oki Kumas Adventure"
    INDEX 00 47:04:58
    INDEX 01 47:05:11
  TRACK 13 AUDIO
    TITLE "Reanimator (March of the Undead III)"
    INDEX 00 52:26:64
    INDEX 01 52:26:70
  TRACK 14 AUDIO
    TITLE "Prelude to Empire"
    INDEX 00 57:27:71
    INDEX 01 57:28:19
  TRACK 15 AUDIO
    TITLE "Empire"
    INDEX 01 59:05:34
Продолжительность: 52:31
Издатель (лейбл): Spinefarm Records
Номер по каталогу: SPI280CD, 171238-3
Полиграфия: присутсвует (PNG ~3000x3000)
Источник: Valet2 @ ru.org
Треклист:
01. Elite (4:24)
02. Through The Looking Glass (5:07)
03. Rogue World Asylum (4:10)
04. Rise (5:30)
05. I Know The Reaper (4:34)
06. Hate (4:13)
07. Ghost (Beneath The Surface) (5:11)
08. Seventeen (3:42)
09. Ronin (5:14)
10. Oki Kumas Adventure (5:23)
11. Reanimator (March Of The Undead III) (5:03)

Код:

Exact Audio Copy V0.99 prebeta 5 from 4. May 2009

EAC extraction logfile from 11. August 2010, 14:35

Machinae Supremacy / Redeemer (promo)

Used drive  : PLEXTOR DVDR   PX-820SA   Adapter: 2  ID: 0

Read mode               : Secure
Utilize accurate stream : Yes
Defeat audio cache      : Yes
Make use of C2 pointers : No

Read offset correction                      : 48
Overread into Lead-In and Lead-Out          : No
Fill up missing offset samples with silence : Yes
Delete leading and trailing silent blocks   : No
Null samples used in CRC calculations       : Yes
Used interface                              : Native Win32 interface for Win NT & 2000
Gap handling                                : Appended to previous track

Used output format              : User Defined Encoder
Selected bitrate                : 128 kBit/s
Quality                         : High
Add ID3 tag                     : No
Command line compressor         : C:\Program Files\Exact Audio Copy\Flac\flac.exe
Additional command line options : -8 -V -T "ARTIST=%a" -T "TITLE=%t" -T "ALBUM=%g" -T "DATE=%y" -T "TRACKNUMBER=%n" -T "GENRE=%m" -T "COMMENT=EAC FLAC -8" %s

TOC of the extracted CD

     Track |   Start  |  Length  | Start sector | End sector
    ---------------------------------------------------------
        1  |  0:00.00 |  4:23.57 |         0    |    19781   
        2  |  4:23.57 |  5:07.11 |     19782    |    42817   
        3  |  9:30.68 |  4:10.04 |     42818    |    61571   
        4  | 13:40.72 |  5:30.17 |     61572    |    86338   
        5  | 19:11.14 |  4:34.31 |     86339    |   106919   
        6  | 23:45.45 |  4:13.22 |    106920    |   125916   
        7  | 27:58.67 |  5:11.07 |    125917    |   149248   
        8  | 33:09.74 |  3:42.20 |    149249    |   165918   
        9  | 36:52.19 |  5:13.51 |    165919    |   189444   
       10  | 42:05.70 |  5:22.67 |    189445    |   213661   
       11  | 47:28.62 |  5:02.60 |    213662    |   236371   

Track  1

     Filename C:\_extract\01 - Elite.wav

     Pre-gap length  0:00:02.00

     Peak level 98.8 %
     Track quality 100.0 %
     Test CRC 8CCD68D4
     Copy CRC 8CCD68D4
     Accurately ripped (confidence 11)  [30DAADD4]
     Copy OK

Track  2

     Filename C:\_extract\02 - Through The Looking Glass.wav

     Peak level 98.9 %
     Track quality 99.9 %
     Test CRC E4D1A634
     Copy CRC E4D1A634
     Accurately ripped (confidence 11)  [07FB1FF5]
     Copy OK

Track  3

     Filename C:\_extract\03 - Rogue World Asylum.wav

     Peak level 98.9 %
     Track quality 99.9 %
     Test CRC EE942F61
     Copy CRC EE942F61
     Accurately ripped (confidence 11)  [E1EE6BE4]
     Copy OK

Track  4

     Filename C:\_extract\04 - Rise.wav

     Peak level 98.9 %
     Track quality 100.0 %
     Test CRC 74DE4DC7
     Copy CRC 74DE4DC7
     Accurately ripped (confidence 11)  [4499EA5C]
     Copy OK

Track  5

     Filename C:\_extract\05 - I Know The Reaper.wav

     Peak level 98.9 %
     Track quality 100.0 %
     Test CRC 09185B81
     Copy CRC 09185B81
     Accurately ripped (confidence 11)  [8C1F0A6B]
     Copy OK

Track  6

     Filename C:\_extract\06 - Hate.wav

     Peak level 98.8 %
     Track quality 100.0 %
     Test CRC 284FAD4B
     Copy CRC 284FAD4B
     Accurately ripped (confidence 11)  [194550FB]
     Copy OK

Track  7

     Filename C:\_extract\07 - Ghost (Beneath The Surface).wav

     Peak level 98.6 %
     Track quality 100.0 %
     Test CRC 113B7B97
     Copy CRC 113B7B97
     Accurately ripped (confidence 11)  [B16BEA56]
     Copy OK

Track  8

     Filename C:\_extract\08 - Seventeen.wav

     Peak level 98.9 %
     Track quality 100.0 %
     Test CRC 6200EC98
     Copy CRC 6200EC98
     Accurately ripped (confidence 11)  [B7F4919A]
     Copy OK

Track  9

     Filename C:\_extract\09 - Ronin.wav

     Peak level 98.9 %
     Track quality 100.0 %
     Test CRC 7453E169
     Copy CRC 7453E169
     Accurately ripped (confidence 11)  [84CDBF8A]
     Copy OK

Track 10

     Filename C:\_extract\10 - Oki Kumas Adventure.wav

     Peak level 98.9 %
     Track quality 100.0 %
     Test CRC 8B8C8F71
     Copy CRC 8B8C8F71
     Accurately ripped (confidence 11)  [9F06695D]
     Copy OK

Track 11

     Filename C:\_extract\11 - Reanimator (March Of The Undead III).wav

     Peak level 98.5 %
     Track quality 100.0 %
     Test CRC FDAFB3DC
     Copy CRC FDAFB3DC
     Accurately ripped (confidence 11)  [AD981F47]
     Copy OK

All tracks accurately ripped

No errors occurred

End of status report

Код:

REM GENRE SID Metal
REM DATE 2006
REM DISCID 8C0C4F0B
REM COMMENT ExactAudioCopy v0.99pb5
PERFORMER "Machinae Supremacy"
TITLE "Redeemer [Promo]"
FILE "Machinae Supremacy - Redeemer [Promo].flac" WAVE
  TRACK 01 AUDIO
    TITLE "Elite"
    INDEX 01 00:00:00
  TRACK 02 AUDIO
    TITLE "Through The Looking Glass"
    INDEX 01 04:23:57
  TRACK 03 AUDIO
    TITLE "Rogue World Asylum"
    INDEX 01 09:30:68
  TRACK 04 AUDIO
    TITLE "Rise"
    INDEX 01 13:40:72
  TRACK 05 AUDIO
    TITLE "I Know The Reaper"
    INDEX 01 19:11:14
  TRACK 06 AUDIO
    TITLE "Hate"
    INDEX 01 23:45:45
  TRACK 07 AUDIO
    TITLE "Ghost (Beneath The Surface)"
    INDEX 01 27:58:67
  TRACK 08 AUDIO
    TITLE "Seventeen"
    INDEX 01 33:09:74
  TRACK 09 AUDIO
    TITLE "Ronin"
    INDEX 01 36:52:19
  TRACK 10 AUDIO
    TITLE "Oki Kumas Adventure"
    INDEX 01 42:05:70
  TRACK 11 AUDIO
    TITLE "Reanimator (March Of The Undead III)"
    INDEX 01 47:28:62
Продолжительность: 52:31
Издатель (лейбл): Spinefarm Records
Номер по каталогу: SPI280CD
Полиграфия: присутствует (JPG ~3000x1500)
Источник: carpinter @ ru.org
Треклист:
01. Elite (4:24)
02. Through The Looking Glass (5:07)
03. Rogue World Asylum (4:10)
04. Rise (5:30)
05. I Know The Reaper (4:34)
06. Hate (4:13)
07. Ghost (Beneath The Surface) (5:11)
08. Seventeen (3:42)
09. Ronin (5:14)
10. Oki Kumas Adventure (5:23)
11. Reanimator (March Of The Undead III) (5:03)

Код:

Exact Audio Copy V0.99 prebeta 5 from 4. May 2009

EAC extraction logfile from 22. March 2010, 6:58

Machinae Supremacy / Redeemer

Used drive  : _NEC    DVD_RW ND-3540A   Adapter: 0  ID: 0

Read mode               : Secure
Utilize accurate stream : Yes
Defeat audio cache      : Yes
Make use of C2 pointers : No

Read offset correction                      : 48
Overread into Lead-In and Lead-Out          : No
Fill up missing offset samples with silence : Yes
Delete leading and trailing silent blocks   : No
Null samples used in CRC calculations       : Yes
Used interface                              : Native Win32 interface for Win NT & 2000

Used output format              : User Defined Encoder
Selected bitrate                : 128 kBit/s
Quality                         : High
Add ID3 tag                     : No
Command line compressor         : C:\Program Files\Exact Audio Copy\Flac\flac.exe
Additional command line options : -8 -V %s

TOC of the extracted CD

     Track |   Start  |  Length  | Start sector | End sector
    ---------------------------------------------------------
        1  |  0:00.00 |  4:23.57 |         0    |    19781   
        2  |  4:23.57 |  5:07.11 |     19782    |    42817   
        3  |  9:30.68 |  4:10.04 |     42818    |    61571   
        4  | 13:40.72 |  5:30.17 |     61572    |    86338   
        5  | 19:11.14 |  4:34.31 |     86339    |   106919   
        6  | 23:45.45 |  4:13.22 |    106920    |   125916   
        7  | 27:58.67 |  5:11.07 |    125917    |   149248   
        8  | 33:09.74 |  3:42.20 |    149249    |   165918   
        9  | 36:52.19 |  5:13.51 |    165919    |   189444   
       10  | 42:05.70 |  5:22.67 |    189445    |   213661   
       11  | 47:28.62 |  5:02.60 |    213662    |   236371   

Range status and errors

Selected range

     Filename C:\Documents and Settings\Лёхвин\Мои документы\Machinae Supremacy - Redeemer.wav

     Peak level 98.9 %
     Range quality 99.9 %
     Copy CRC FEEA399D
     Copy OK

No errors occurred

 
AccurateRip summary
 
Track  1  accurately ripped (confidence 8)  [30DAADD4]
Track  2  accurately ripped (confidence 8)  [07FB1FF5]
Track  3  accurately ripped (confidence 8)  [E1EE6BE4]
Track  4  accurately ripped (confidence 8)  [4499EA5C]
Track  5  accurately ripped (confidence 8)  [8C1F0A6B]
Track  6  accurately ripped (confidence 8)  [194550FB]
Track  7  accurately ripped (confidence 8)  [B16BEA56]
Track  8  accurately ripped (confidence 8)  [B7F4919A]
Track  9  accurately ripped (confidence 8)  [84CDBF8A]
Track 10  accurately ripped (confidence 8)  [9F06695D]
Track 11  accurately ripped (confidence 8)  [AD981F47]
 
All tracks accurately ripped

End of status report

Код:

REM GENRE SID Metal
REM DATE 2006
REM DISCID 8C0C4F0B
REM COMMENT ExactAudioCopy v0.99pb5
PERFORMER "Machinae Supremacy"
TITLE "Redeemer"
FILE "Machinae Supremacy - Redeemer.flac" WAVE
  TRACK 01 AUDIO
    TITLE "Elite"
    INDEX 01 00:00:00
  TRACK 02 AUDIO
    TITLE "Through The Looking Glass"
    INDEX 01 04:23:57
  TRACK 03 AUDIO
    TITLE "Rogue World Asylum"
    INDEX 01 09:30:68
  TRACK 04 AUDIO
    TITLE "Rise"
    INDEX 01 13:40:72
  TRACK 05 AUDIO
    TITLE "I Know The Reaper"
    INDEX 01 19:11:14
  TRACK 06 AUDIO
    TITLE "Hate"
    INDEX 01 23:45:45
  TRACK 07 AUDIO
    TITLE "Ghost (Beneath The Surface)"
    INDEX 01 27:58:67
  TRACK 08 AUDIO
    TITLE "Seventeen"
    INDEX 01 33:09:74
  TRACK 09 AUDIO
    TITLE "Ronin"
    INDEX 01 36:52:19
  TRACK 10 AUDIO
    TITLE "Oki Kumas Adventure"
    INDEX 01 42:05:70
  TRACK 11 AUDIO
    TITLE "Reanimator (March Of The Undead III)"
    INDEX 01 47:28:62
Продолжительность: 52:26
Издатель (лейбл): Spinefarm Records
Номер по каталогу: SPI328CD, 176153-1
Полиграфия: присутсвует (PNG ~3000x3000)
Источник: Valet2 @ ru.org
Треклист:
01. Overworld (4:22)
02. Need for Steve (4:11)
03. Edge and Pearl (4:00)
04. Radio Future (4:40)
05. Skin (5:24)
06. Truth of Tomorrow (4:36)
07. Dark City (5:57)
08. Conveyer (3:52)
09. Gimme More (3:33)
10. Violator (3:05)
11. Sid Icarus (3:58)
12. Stand (4:47)

Код:

Exact Audio Copy V0.99 prebeta 5 from 4. May 2009

EAC extraction logfile from 17. May 2010, 12:02

Machinae Supremacy / Overworld (promo)

Used drive  : PLEXTOR DVDR   PX-820A   Adapter: 0  ID: 0

Read mode               : Secure
Utilize accurate stream : Yes
Defeat audio cache      : Yes
Make use of C2 pointers : No

Read offset correction                      : 48
Overread into Lead-In and Lead-Out          : No
Fill up missing offset samples with silence : Yes
Delete leading and trailing silent blocks   : No
Null samples used in CRC calculations       : Yes
Used interface                              : Native Win32 interface for Win NT & 2000
Gap handling                                : Appended to previous track

Used output format              : User Defined Encoder
Selected bitrate                : 128 kBit/s
Quality                         : High
Add ID3 tag                     : No
Command line compressor         : C:\Program Files (x86)\Exact Audio Copy\Flac\flac.exe
Additional command line options : -8 -V -T "ARTIST=%a" -T "TITLE=%t" -T "ALBUM=%g" -T "DATE=%y" -T "TRACKNUMBER=%n" -T "GENRE=%m" -T "COMMENT=EAC FLAC -8" %s

TOC of the extracted CD

     Track |   Start  |  Length  | Start sector | End sector
    ---------------------------------------------------------
        1  |  0:00.00 |  4:21.56 |         0    |    19630   
        2  |  4:21.56 |  4:11.31 |     19631    |    38486   
        3  |  8:33.12 |  4:00.37 |     38487    |    56523   
        4  | 12:33.49 |  4:40.24 |     56524    |    77547   
        5  | 17:13.73 |  5:24.30 |     77548    |   101877   
        6  | 22:38.28 |  4:35.63 |    101878    |   122565   
        7  | 27:14.16 |  5:56.53 |    122566    |   149318   
        8  | 33:10.69 |  3:51.52 |    149319    |   166695   
        9  | 37:02.46 |  3:32.64 |    166696    |   182659   
       10  | 40:35.35 |  3:04.68 |    182660    |   196527   
       11  | 43:40.28 |  3:58.35 |    196528    |   214412   
       12  | 47:38.63 |  4:47.33 |    214413    |   235970   

Track  1

     Filename C:\_extract\01 – Overworld.wav

     Pre-gap length  0:00:02.00

     Peak level 100.0 %
     Track quality 100.0 %
     Test CRC 24B3DC37
     Copy CRC 24B3DC37
     Cannot be verified as accurate (confidence 12)  [C2AE8CC7], AccurateRip returned [5099D5D7]
     Copy OK

Track  2

     Filename C:\_extract\02 – Need for Steve.wav

     Peak level 100.0 %
     Track quality 100.0 %
     Test CRC 52F89A30
     Copy CRC 52F89A30
     Cannot be verified as accurate (confidence 12)  [4C8D4889], AccurateRip returned [73734231]
     Copy OK

Track  3

     Filename C:\_extract\03 – Edge and Pearl.wav

     Peak level 100.0 %
     Track quality 100.0 %
     Test CRC A731409A
     Copy CRC A731409A
     Cannot be verified as accurate (confidence 12)  [DC80DF6D], AccurateRip returned [1E58ECB5]
     Copy OK

Track  4

     Filename C:\_extract\04 – Radio Future.wav

     Peak level 100.0 %
     Track quality 100.0 %
     Test CRC 92676F67
     Copy CRC 92676F67
     Cannot be verified as accurate (confidence 12)  [E624DF24], AccurateRip returned [8C82BC48]
     Copy OK

Track  5

     Filename C:\_extract\05 – Skin.wav

     Peak level 100.0 %
     Track quality 99.9 %
     Test CRC 599345D5
     Copy CRC 599345D5
     Cannot be verified as accurate (confidence 12)  [E1F73A1B], AccurateRip returned [C0067DB7]
     Copy OK

Track  6

     Filename C:\_extract\06 – Truth of Tomorrow.wav

     Peak level 100.0 %
     Track quality 100.0 %
     Test CRC F52C88A5
     Copy CRC F52C88A5
     Cannot be verified as accurate (confidence 12)  [213A90CA], AccurateRip returned [36DD6EA2]
     Copy OK

Track  7

     Filename C:\_extract\07 – Dark City.wav

     Peak level 100.0 %
     Track quality 100.0 %
     Test CRC 18390098
     Copy CRC 18390098
     Cannot be verified as accurate (confidence 12)  [62897C5A], AccurateRip returned [D65E8E5A]
     Copy OK

Track  8

     Filename C:\_extract\08 – Conveyer.wav

     Peak level 100.0 %
     Track quality 100.0 %
     Test CRC A5CD6F2C
     Copy CRC A5CD6F2C
     Cannot be verified as accurate (confidence 12)  [F09FA8A8], AccurateRip returned [2B580D0C]
     Copy OK

Track  9

     Filename C:\_extract\09 – Gimme More.wav

     Peak level 100.0 %
     Track quality 99.9 %
     Test CRC 8826E6C9
     Copy CRC 8826E6C9
     Cannot be verified as accurate (confidence 12)  [673967DE], AccurateRip returned [2859AD3A]
     Copy OK

Track 10

     Filename C:\_extract\10 – Violator.wav

     Peak level 100.0 %
     Track quality 100.0 %
     Test CRC 14F93CBE
     Copy CRC 14F93CBE
     Cannot be verified as accurate (confidence 12)  [53F94B2D], AccurateRip returned [1F3B1F5D]
     Copy OK

Track 11

     Filename C:\_extract\11 – Sid Icarus.wav

     Peak level 100.0 %
     Track quality 100.0 %
     Test CRC B2CB0F80
     Copy CRC B2CB0F80
     Cannot be verified as accurate (confidence 12)  [BB3A3BAA], AccurateRip returned [C457E19A]
     Copy OK

Track 12

     Filename C:\_extract\12 – Stand.wav

     Peak level 100.0 %
     Track quality 100.0 %
     Test CRC 44D2DF84
     Copy CRC 44D2DF84
     Cannot be verified as accurate (confidence 12)  [2E3880A7], AccurateRip returned [AD9C40D2]
     Copy OK

No tracks could be verified as accurate
You may have a different pressing from the one(s) in the database

No errors occurred

End of status report

Код:

REM GENRE SID Metal
REM DATE 2008
REM DISCID 970C4A0C
REM COMMENT ExactAudioCopy v0.99pb5
PERFORMER "Machinae Supremacy"
TITLE "Overworld [Promo]"
FILE "Machinae Supremacy - Overworld [Promo].flac" WAVE
  TRACK 01 AUDIO
    TITLE "Overworld"
    INDEX 01 00:00:00
  TRACK 02 AUDIO
    TITLE "Need for Steve"
    INDEX 01 04:21:56
  TRACK 03 AUDIO
    TITLE "Edge and Pearl"
    INDEX 01 08:33:12
  TRACK 04 AUDIO
    TITLE "Radio Future"
    INDEX 01 12:33:49
  TRACK 05 AUDIO
    TITLE "Skin"
    INDEX 01 17:13:73
  TRACK 06 AUDIO
    TITLE "Truth of Tomorrow"
    INDEX 01 22:38:28
  TRACK 07 AUDIO
    TITLE "Dark City"
    INDEX 01 27:14:16
  TRACK 08 AUDIO
    TITLE "Conveyer"
    INDEX 01 33:10:69
  TRACK 09 AUDIO
    TITLE "Gimme More"
    INDEX 01 37:02:46
  TRACK 10 AUDIO
    TITLE "Violator"
    INDEX 01 40:35:35
  TRACK 11 AUDIO
    TITLE "Sid Icarus"
    INDEX 01 43:40:28
  TRACK 12 AUDIO
    TITLE "Stand"
    INDEX 01 47:38:63
Продолжительность: 52:26
Издатель (лейбл): Spinefarm Records
Номер по каталогу: SPI328CD
Полиграфия: присутствует (JPG ~6000x3000)
Источник: C96 Bolo @ ru.org
Треклист:
01. Overworld (4:22)
02. Need for Steve (4:11)
03. Edge and Pearl (4:00)
04. Radio Future (4:40)
05. Skin (5:24)
06. Truth of Tomorrow (4:36)
07. Dark City (5:57)
08. Conveyer (3:52)
09. Gimme More (3:33)
10. Violator (3:05)
11. Sid icarus (3:58)
12. Stand (4:47)

Код:

EAC extraction logfile from 16. February 2008, 21:39 for CD
Machinae Supremacy / Overworld

Used drive  : TSSTcorpCD/DVDW SH-S183L   Adapter: 0  ID: 0
Read mode   : Secure with NO C2, accurate stream, disable cache
Read offset correction : 6
Overread into Lead-In and Lead-Out : No

Used output format : C:\Program Files\Exact Audio Copy\flac.exe   (User Defined Encoder)
                     32 kBit/s
                     Additional command line options : -6 -V -T "artist=%a" -T "title=%t" -T "album=%g" -T "date=%y" -T "tracknumber=%n" -T "genre=%m" -T "comment=EAC 0.9 beta4 / FLAC 1.2.1 q6" %s

Other options      :
    Fill up missing offset samples with silence : Yes
    Delete leading and trailing silent blocks : No
    Installed external ASPI interface

Range status and errors
Selected range
   Filename C:\Documents and Settings\Nicolae\My Documents\CDImage.wav

   Peak level 100.0 %
   Range quality 99.9 %
   CRC 023D9827
   Copy OK

No errors occured

End of status report

Код:

REM GENRE SID Metal
REM DATE 2008
REM COMMENT EAC 0.9 beta4 / FLAC 1.2.1 q6
PERFORMER "Machinae Supremacy"
TITLE "Overworld"
FILE "Machinae Supremacy - Overworld.flac" WAVE
  TRACK 01 AUDIO
    TITLE "Overworld"
    INDEX 01 00:00:00
  TRACK 02 AUDIO
    TITLE "Need for Steve"
    INDEX 01 04:21:56
  TRACK 03 AUDIO
    TITLE "Edge and Pearl"
    INDEX 01 08:33:12
  TRACK 04 AUDIO
    TITLE "Radio Future"
    INDEX 01 12:33:49
  TRACK 05 AUDIO
    TITLE "Skin"
    INDEX 01 17:13:73
  TRACK 06 AUDIO
    TITLE "Truth of Tomorrow"
    INDEX 01 22:38:28
  TRACK 07 AUDIO
    TITLE "Dark City"
    INDEX 01 27:14:16
  TRACK 08 AUDIO
    TITLE "Conveyer"
    INDEX 01 33:10:69
  TRACK 09 AUDIO
    TITLE "Gimme More"
    INDEX 01 37:02:46
  TRACK 10 AUDIO
    TITLE "Violator"
    INDEX 01 40:35:35
  TRACK 11 AUDIO
    TITLE "Sid icarus"
    INDEX 01 43:40:28
  TRACK 12 AUDIO
    TITLE "Stand"
    INDEX 01 47:38:63
Продолжительность: 1:02:05
Издатель (лейбл): Spinefarm Records
Номер по каталогу: SPI379CD
Полиграфия: отсутсвует
Источник: What.CD
Треклист:
01. A View From The End Of The World (3:53)
02. Force Feedback (5:35)
03. Rocket Dragon (4:53)
04. Persona (5:18)
05. Nova Prospekt (5:14)
06. World Of Light (1:15)
07. Shinigami (4:09)
08. Cybergenesis (5:45)
09. Action Girl (4:13)
10. Crouching Camper Hidden Sniper (4:00)
11. Indiscriminate Murder Is Conter-Productive (4:07)
12. One Day In The World (4:17)
13. The Greatest Show On Earth (3:32)
14. Remnant (March Of The Undead IV) (5:56)

Код:

Exact Audio Copy V0.99 prebeta 5 from 4. May 2009

EAC extraction logfile from 2. November 2010, 11:54

Machinae Supremacy / A View From The End Of The World

Used drive  : HL-DT-STDVDRAM GT20N   Adapter: 1  ID: 0

Read mode               : Secure
Utilize accurate stream : Yes
Defeat audio cache      : Yes
Make use of C2 pointers : No

Read offset correction                      : 667
Overread into Lead-In and Lead-Out          : No
Fill up missing offset samples with silence : Yes
Delete leading and trailing silent blocks   : No
Null samples used in CRC calculations       : Yes
Used interface                              : Native Win32 interface for Win NT & 2000
Gap handling                                : Appended to previous track

Used output format              : User Defined Encoder
Selected bitrate                : 768 kBit/s
Quality                         : High
Add ID3 tag                     : No
Command line compressor         : C:\Program Files\Exact Audio Copy\FLAC\FLAC.EXE
Additional command line options : -6 -V -T "ARTIST=%a" -T "TITLE=%t" -T "ALBUM=%g" -T "DATE=%y" -T "TRACKNUMBER=%n" -T "GENRE=%m" -T "COMMENT=%e" %s -o %d

TOC of the extracted CD

     Track |   Start  |  Length  | Start sector | End sector
    ---------------------------------------------------------
        1  |  0:00.00 |  3:53.09 |         0    |    17483   
        2  |  3:53.09 |  5:35.01 |     17484    |    42609   
        3  |  9:28.10 |  4:52.57 |     42610    |    64566   
        4  | 14:20.67 |  5:18.27 |     64567    |    88443   
        5  | 19:39.19 |  5:14.03 |     88444    |   111996   
        6  | 24:53.22 |  1:14.42 |    111997    |   117588   
        7  | 26:07.64 |  4:09.00 |    117589    |   136263   
        8  | 30:16.64 |  5:44.51 |    136264    |   162114   
        9  | 36:01.40 |  4:13.03 |    162115    |   181092   
       10  | 40:14.43 |  3:59.39 |    181093    |   199056   
       11  | 44:14.07 |  4:06.42 |    199057    |   217548   
       12  | 48:20.49 |  4:16.51 |    217549    |   236799   
       13  | 52:37.25 |  3:32.00 |    236800    |   252699   
       14  | 56:09.25 |  5:55.51 |    252700    |   279375   

Track  1

     Filename C:\Users\Mikko\Desktop\Filut\Musat\What.cdt\whatcd omat\Machinae Supremacy\Machinae Supremacy - A View From The End Of The World (2010)\01 A View From The End Of The World.wav

     Pre-gap length  0:00:02.00

     Peak level 99.8 %
     Track quality 99.9 %
     Test CRC E17D0B9B
     Copy CRC E17D0B9B
     Track not present in AccurateRip database
     Copy OK

Track  2

     Filename C:\Users\Mikko\Desktop\Filut\Musat\What.cdt\whatcd omat\Machinae Supremacy\Machinae Supremacy - A View From The End Of The World (2010)\02 Force Feedback.wav

     Peak level 100.0 %
     Track quality 100.0 %
     Test CRC B4EC540A
     Copy CRC B4EC540A
     Track not present in AccurateRip database
     Copy OK

Track  3

     Filename C:\Users\Mikko\Desktop\Filut\Musat\What.cdt\whatcd omat\Machinae Supremacy\Machinae Supremacy - A View From The End Of The World (2010)\03 Rocket Dragon.wav

     Peak level 98.5 %
     Track quality 100.0 %
     Test CRC 289234F9
     Copy CRC 289234F9
     Track not present in AccurateRip database
     Copy OK

Track  4

     Filename C:\Users\Mikko\Desktop\Filut\Musat\What.cdt\whatcd omat\Machinae Supremacy\Machinae Supremacy - A View From The End Of The World (2010)\04 Persona.wav

     Peak level 99.3 %
     Track quality 100.0 %
     Test CRC CCF70F43
     Copy CRC CCF70F43
     Track not present in AccurateRip database
     Copy OK

Track  5

     Filename C:\Users\Mikko\Desktop\Filut\Musat\What.cdt\whatcd omat\Machinae Supremacy\Machinae Supremacy - A View From The End Of The World (2010)\05 Nova Prospekt.wav

     Peak level 100.0 %
     Track quality 100.0 %
     Test CRC 0141B8B9
     Copy CRC 0141B8B9
     Track not present in AccurateRip database
     Copy OK

Track  6

     Filename C:\Users\Mikko\Desktop\Filut\Musat\What.cdt\whatcd omat\Machinae Supremacy\Machinae Supremacy - A View From The End Of The World (2010)\06 World Of Light.wav

     Peak level 53.0 %
     Track quality 100.0 %
     Test CRC 331389F5
     Copy CRC 331389F5
     Track not present in AccurateRip database
     Copy OK

Track  7

     Filename C:\Users\Mikko\Desktop\Filut\Musat\What.cdt\whatcd omat\Machinae Supremacy\Machinae Supremacy - A View From The End Of The World (2010)\07 Shinigami.wav

     Peak level 99.4 %
     Track quality 100.0 %
     Test CRC CC3307C7
     Copy CRC CC3307C7
     Track not present in AccurateRip database
     Copy OK

Track  8

     Filename C:\Users\Mikko\Desktop\Filut\Musat\What.cdt\whatcd omat\Machinae Supremacy\Machinae Supremacy - A View From The End Of The World (2010)\08 Cybergenesis.wav

     Peak level 99.0 %
     Track quality 99.9 %
     Test CRC 763E5125
     Copy CRC 763E5125
     Track not present in AccurateRip database
     Copy OK

Track  9

     Filename C:\Users\Mikko\Desktop\Filut\Musat\What.cdt\whatcd omat\Machinae Supremacy\Machinae Supremacy - A View From The End Of The World (2010)\09 Action Girl.wav

     Peak level 99.8 %
     Track quality 99.9 %
     Test CRC 374964DB
     Copy CRC 374964DB
     Track not present in AccurateRip database
     Copy OK

Track 10

     Filename C:\Users\Mikko\Desktop\Filut\Musat\What.cdt\whatcd omat\Machinae Supremacy\Machinae Supremacy - A View From The End Of The World (2010)\10 Crouching Camper Hidden Sniper.wav

     Peak level 99.0 %
     Track quality 100.0 %
     Test CRC F6C0210E
     Copy CRC F6C0210E
     Track not present in AccurateRip database
     Copy OK

Track 11

     Filename C:\Users\Mikko\Desktop\Filut\Musat\What.cdt\whatcd omat\Machinae Supremacy\Machinae Supremacy - A View From The End Of The World (2010)\11 Indiscriminate Murder Is Conter-Productive.wav

     Peak level 99.2 %
     Track quality 100.0 %
     Test CRC 117B88C8
     Copy CRC 117B88C8
     Track not present in AccurateRip database
     Copy OK

Track 12

     Filename C:\Users\Mikko\Desktop\Filut\Musat\What.cdt\whatcd omat\Machinae Supremacy\Machinae Supremacy - A View From The End Of The World (2010)\12 One Day In The World.wav

     Peak level 98.8 %
     Track quality 99.9 %
     Test CRC 042CCB1B
     Copy CRC 042CCB1B
     Track not present in AccurateRip database
     Copy OK

Track 13

     Filename C:\Users\Mikko\Desktop\Filut\Musat\What.cdt\whatcd omat\Machinae Supremacy\Machinae Supremacy - A View From The End Of The World (2010)\13 The Greatest Show On Earth.wav

     Peak level 96.2 %
     Track quality 100.0 %
     Test CRC A5CA1B59
     Copy CRC A5CA1B59
     Track not present in AccurateRip database
     Copy OK

Track 14

     Filename C:\Users\Mikko\Desktop\Filut\Musat\What.cdt\whatcd omat\Machinae Supremacy\Machinae Supremacy - A View From The End Of The World (2010)\14 Remnant (March Of The Undead IV).wav

     Peak level 99.1 %
     Track quality 99.9 %
     Test CRC 6B1D4A1E
     Copy CRC 6B1D4A1E
     Track not present in AccurateRip database
     Copy OK

None of the tracks are present in the AccurateRip database

No errors occurred

End of status report

Код:

REM GENRE SID Metal
REM DATE 2010
REM DISCID C60E8D0E
REM COMMENT ExactAudioCopy v0.99pb5
CATALOG 0602527547930
PERFORMER "Machinae Supremacy"
TITLE "A View From The End Of The World"
FILE "Machinae Supremacy - A View From The End Of The World.flac" WAVE
  TRACK 01 AUDIO
    TITLE "A View From The End Of The World"
    ISRC FIUM71001642
    INDEX 01 00:00:00
  TRACK 02 AUDIO
    TITLE "Force Feedback"
    ISRC FIUM71001643
    INDEX 01 03:53:09
  TRACK 03 AUDIO
    TITLE "Rocket Dragon"
    ISRC FIUM71001644
    INDEX 01 09:28:10
  TRACK 04 AUDIO
    TITLE "Persona"
    ISRC FIUM71001645
    INDEX 01 14:20:67
  TRACK 05 AUDIO
    TITLE "Nova Prospekt"
    ISRC FIUM71001646
    INDEX 01 19:39:19
  TRACK 06 AUDIO
    TITLE "World Of Light"
    ISRC FIUM71001647
    INDEX 01 24:53:22
  TRACK 07 AUDIO
    TITLE "Shinigami"
    ISRC FIUM71001648
    INDEX 01 26:07:64
  TRACK 08 AUDIO
    TITLE "Cybergenesis"
    ISRC FIUM71001649
    INDEX 01 30:16:64
  TRACK 09 AUDIO
    TITLE "Action Girl"
    ISRC FIUM71001650
    INDEX 01 36:01:40
  TRACK 10 AUDIO
    TITLE "Crouching Camper Hidden Sniper"
    ISRC FIUM71001651
    INDEX 01 40:14:43
  TRACK 11 AUDIO
    TITLE "Indiscriminate Murder Is Conter-Productive"
    ISRC FIUM71001652
    INDEX 01 44:14:07
  TRACK 12 AUDIO
    TITLE "One Day In The Universe"
    ISRC FIUM71001653
    INDEX 01 48:20:49
  TRACK 13 AUDIO
    TITLE "The Greatest Show On Earth"
    ISRC FIUM71001654
    INDEX 01 52:37:25
  TRACK 14 AUDIO
    TITLE "Remnant (March Of The Undead IV)"
    ISRC FIUM71001655
    INDEX 01 56:09:25
info [Профиль]  [ЛС] 

TheMrMafiozi

Пол: Пол:Муж

Стаж: 6 лет 9 месяцев

Сообщений: 859

СССР
Рейтинг

post 10-Ноя-2010 13:01 (спустя 12 часов) [-]0[+]

[Цитировать] 

Хомяк 2.0
В альбомах где нет лога извлечения, сделай логи с помощью этой проги: http://tapochek.net/viewtopic.php?t=21881

_________________
観自在菩薩行深般若波羅蜜多時、照見五蘊皆空、度一切苦厄。舎利子
も自由にお使いく
言語の科
info [Профиль]  [ЛС] 

Хомяк 2.0

Стаж: 7 лет 7 месяцев

Сообщений: 1635

Рейтинг

post 10-Ноя-2010 18:50 (спустя 5 часов) [-]0[+]

[Цитировать] 

TheMrMafiozi писал(а):

В альбомах где нет лога извлечения, сделай логи с помощью Audiochecker
Нипанятна, какой смысл делать проверку еще и аудиочекером, когда уже сделана проверка Tau Analyzer, они же работают по одному и тому же алгоритму (auCDtect)... Думаю

добавлено спустя 41 минута 3 секунды:

Хм, там даже в "о программе" ссылка на сайт Tau Analyzer, так как алгоритм оттуда взят.

Но всё равно, вот результаты проверки:

Код:

Начато: среда, 10. 11. 2010. - 17:19.00
Найдено файлов: 1

1 -===- E:\My Documents\Моя музыка\Metal\Machinae Supremacy\2002 - Origin [Compilation]\Machinae Supremacy - Origin [Compilation].flac
  Извлечение успешно выполнено
  Заключение: этот трек - CDDA с вероятностью 100%
  Временный файл удалён.

Завершено: среда, 10. 11. 2010. - 17:23.03 (Время операции: 0:04.03)

Код:

Начато: среда, 10. 11. 2010. - 17:38.55
Найдено файлов: 1

1 -===- E:\My Documents\Моя музыка\Metal\Machinae Supremacy\2004 - Arcade [Compilation]\Machinae Supremacy - Arcade [Compilation].flac
  Извлечение успешно выполнено
  Заключение: этот трек - CDDA с вероятностью 100%
  Временный файл удалён.

Завершено: среда, 10. 11. 2010. - 17:42.03 (Время операции: 0:03.07)

Код:

Начато: среда, 10. 11. 2010. - 17:42.47
Найдено файлов: 1

1 -===- E:\My Documents\Моя музыка\Metal\Machinae Supremacy\2006 - Fury [Compilation]\Machinae Supremacy - Fury [Compilation].flac
  Извлечение успешно выполнено
  Заключение: этот трек - MPEG с вероятностью 95%
  Временный файл удалён.

Завершено: среда, 10. 11. 2010. - 17:47.31 (Время операции: 0:04.43)
Хотя смысла в этих проверках не особо, в лучшем качестве эти треки не могут существовать, ибо выложены самой группой Думаю

_________________
Ушёл в реал на неопределённый срок. =(
info [Профиль]  [ЛС] 

Shamik

Пол: Пол:Муж

Стаж: 7 лет 7 месяцев

Сообщений: 488

Кокосовые острова
Рейтинг

post 11-Ноя-2010 21:03 (спустя 1 день 2 часа) [-]0[+]

[Цитировать] 

2002 - Origin (Compilation) - интернет релиз
2004 - Arcade (Compilation) - интернет релиз
2004 - Deus Ex Machinae - возможно неточный рип
2005 - Deus Ex Machinae 2.0 - точный рип
2005 - Deus Ex Machinae (Remastered) - точный рип
2006 - Fury (Compilation) - интернет релиз
2006 - Redeemer (Undeground Edition) - точный
2006 - Redeemer (Promo) - точный рип
2006 - Redeemer - идеальный
2008 - Overworld (Promo) - идеальный
2008 - Overworld - точный
2010 - A View From The End Of The World - идеальный

_________________
info [Профиль]  [ЛС] 

Algoritm

Стаж: 7 лет 7 месяцев

Сообщений: 33

Рейтинг

post 12-Ноя-2010 18:02 (спустя 20 часов) [-]0[+]

[Цитировать] 

о боже, новый альбом любимой группы @_@ благодарю великодушно
info [Профиль]  [ЛС] 

Dragonudzee

Пол: Пол:Муж

Стаж: 6 лет 2 месяца

Сообщений: 7

Рейтинг

post 12-Ноя-2010 20:53 (спустя 2 часа 51 минута) [-]0[+]

[Цитировать] 

Домо аригато за новый альбом!!!
info [Профиль]  [ЛС] 

Skromnjaga

Пол: Пол:Муж

Стаж: 6 лет 8 месяцев

Сообщений: 198

Украина
Рейтинг

post 24-Ноя-2010 23:29 (спустя 12 дней) [-]0[+]

[Цитировать] 

Станьте плиз на роздачу, а то скорость максимум 10-20 кБ/сек...

_________________
МАГМА ТЕЧЁТ В НАШИХ ВЕНАХ, РАСКАЛЯЯ СЕРДЦА!
info [Профиль]  [ЛС] 

Алмаз

Пол: Пол:Муж

Стаж: 6 лет 4 месяца

Сообщений: 1836

Россия
Рейтинг

post 05-Фев-2011 20:57 (спустя 2 месяца 10 дней) [-]0[+]

[Цитировать] 

Авось со скоростью в 5 кбайт/с я скачаю к следующему году =_=

_________________
Паранойя - чрезвычайно утешительное состояние ума. Если вам кажется, что против вас что-то замышляют - значит вы что-то да стоите! (с) Гильбран Трус (Митчелл Сэнди - Игра предателя)
info [Профиль]  [ЛС] 

jetcom

Пол: Пол:Муж

Стаж: 6 лет 9 месяцев

Сообщений: 6

Россия
Рейтинг

post 26-Окт-2011 13:53 (спустя 8 месяцев 20 дней) [-]0[+]

[Цитировать] 

Дайте скорости, я с такой скоростью год качать буду...

добавлено спустя 8 часов 47 минут 55 секунд:

Мда... скачало 18 человек, а на раздаче стоит один... Ребята - помогите скачать!!!

_________________
info [Профиль]  [ЛС] 

Skromnjaga

Пол: Пол:Муж

Стаж: 6 лет 8 месяцев

Сообщений: 198

Украина
Рейтинг

post 27-Окт-2011 02:44 (спустя 12 часов) [-]0[+]

[Цитировать] 

jetcom писал(а):

Дайте скорости, я с такой скоростью год качать буду...

добавлено спустя 8 часов 47 минут 55 секунд:

Мда... скачало 18 человек, а на раздаче стоит один... Ребята - помогите скачать!!!
Кажысь, это я один стою на раздаче.. Ограничение не стоит, больше ничего не раздается.
Если это твой IP 95.52.20.94:47233 (Мурманск), то у меня туда аплоад 1МБ.
Раздаю практически круглосуточно.

_________________
МАГМА ТЕЧЁТ В НАШИХ ВЕНАХ, РАСКАЛЯЯ СЕРДЦА!
info [Профиль]  [ЛС] 

jetcom

Пол: Пол:Муж

Стаж: 6 лет 9 месяцев

Сообщений: 6

Россия
Рейтинг

post 27-Окт-2011 08:45 (спустя 6 часов) [-]0[+]

[Цитировать] 

У меня средняя скорость приёма 26.4 kB/с. А если быть точным, то 0.0 kB/с (средняя 26.4 kB/с)

_________________
info [Профиль]  [ЛС] 
Показать сообщения:    
Ответить на тему

Текущее время: 08-Дек 14:01

Часовой пояс: GMT + 4



Вы не можете начинать темы
Вы не можете отвечать на сообщения
Вы не можете редактировать свои сообщения
Вы не можете удалять свои сообщения
Вы не можете голосовать в опросах
Вы не можете прикреплять файлы к сообщениям
Вы не можете скачивать файлы