Ошибка

(Downtempo, Electro, Experimental) Röyksopp - Senior - 2010, FLAC (tracks+.cue), lossless

Ответить на тему
 
Автор Сообщение

SkyLeR

Пол: Пол:Муж

Стаж: 11 лет

Сообщений: 1152

Россия
Рейтинг

post 03-Окт-2010 21:06 0[+]

[Цитировать] 

Röyksopp - Senior

Жанр: Downtempo, Electro, Experimental
Год издания данного носителя: 2010
Страна-производитель носителя: Europe
Тип релиза: tracks+.cue
Аудио кодек: FLAC
Битрейт аудио: lossless
Продолжительность: 00:55:51
Тип рипа: tracks+.cue
Треклист:
01. ...And The Forest Began To Sing (1:50)
02. Tricky Two (7:51)
03. The Alcoholic (5:11)
04. Senior Living (5:10)
05. The Drug (5:58)
06. Forsaken Cowboy (5:28)
07. The Fear (7:02)
08. Coming Home (5:05)
09. A Long, Long Way (12:16)
1.09. A Long, Long Way (4:02)
2.09. The Final Day (Hidden Track) (6:43)
TITLE "Senior"
PERFORMER "Röyksopp"
REM GENRE "Electronica"
REM DATE 2010
REM DISCID 690D1709
FILE "01 - ...And TheForest Began To Sing.wav" WAVE
TRACK 01 AUDIO
TITLE "...And TheForest Began To Sing"
ISRC GBG4U1000001
INDEX 01 00:00:00
FILE "02 - Tricky Two.wav" WAVE
TRACK 02 AUDIO
TITLE "Tricky Two"
ISRC GBG4U1000002
INDEX 01 00:00:00
TRACK 03 AUDIO
TITLE "The Alcoholic"
ISRC GBG4U1000003
INDEX 00 07:48:59
FILE "03 - The Alcoholic.wav" WAVE
INDEX 01 00:00:00
TRACK 04 AUDIO
TITLE "Senior Living"
ISRC GBG4U1000004
INDEX 00 05:10:31
FILE "04 - Senior Living.wav" WAVE
INDEX 01 00:00:00
FILE "05 - The Drug.wav" WAVE
TRACK 05 AUDIO
TITLE "The Drug"
ISRC GBG4U1000005
INDEX 01 00:00:00
FILE "06 - Forsaken Cowboy.wav" WAVE
TRACK 06 AUDIO
TITLE "Forsaken Cowboy"
ISRC GBG4U1000006
INDEX 01 00:00:00
FILE "07 - The Fear.wav" WAVE
TRACK 07 AUDIO
TITLE "The Fear"
ISRC GBG4U1000007
INDEX 01 00:00:00
FILE "08 - Coming Home.wav" WAVE
TRACK 08 AUDIO
TITLE "Coming Home"
ISRC GBG4U1000008
INDEX 01 00:00:00
TRACK 09 AUDIO
TITLE "A Long,Long Way"
ISRC GBG4U1000009
INDEX 00 05:03:72
FILE "09 - A Long,Long Way.wav" WAVE
INDEX 01 00:00:00
X Lossless Decoder version 20100908 (121.2)

XLD extraction logfile from 2010-09-10 09:55:58 +0200

Röyksopp / Senior

Used drive : HL-DT-ST DVD-RAM GSA-E60N (revision 1.00)

Use cdparanoia mode : YES (CDParanoia III 10.2 engine)
Disable audio cache : OK for the drive with cache less than 2750KB
Make use of C2 pointers : NO
Read offset correction : 102
Max retry count : 20
Gap status : Analyzed, Appended (except HTOA)

TOC of the extracted CD
Track | Start | Length | Start sector | End sector
---------------------------------------------------------
1 | 00:00:00 | 01:50:13 | 0 | 8262
2 | 01:50:13 | 07:51:30 | 8263 | 43617
3 | 09:41:43 | 05:10:57 | 43618 | 66924
4 | 14:52:25 | 05:09:58 | 66925 | 90157
5 | 20:02:08 | 05:58:02 | 90158 | 117009
6 | 26:00:10 | 05:28:09 | 117010 | 141618
7 | 31:28:19 | 07:01:46 | 141619 | 173239
8 | 38:29:65 | 05:05:21 | 173240 | 196135
9 | 43:35:11 | 12:15:66 | 196136 | 251326

All Tracks
Album gain : -4.57 dB
Peak : 1.000000

Track 01
Filename : /Volumes/iMac HDD/Music/FLACs/RoМ?yksopp - Senior/01 - ...And TheForest Began To Sing.flac
Pre-gap length : 00:02:00

Track gain : -5.06 dB
Peak : 1.000000
CRC32 hash (test run) : D77E5B8F
CRC32 hash : D77E5B8F
CRC32 hash (skip zero) : 63D82480
AccurateRip signature : B80C0172
->Track not present in AccurateRip database.
Statistics
Read error : 0
Skipped (treated as error) : 0
Edge jitter error (maybe fixed) : 0
Atom jitter error (maybe fixed) : 0
Drift error (maybe fixed) : 0
Dropped bytes error (maybe fixed) : 0
Duplicated bytes error (maybe fixed) : 0
Inconsistency in error sectors : 0

Track 02
Filename : /Volumes/iMac HDD/Music/FLACs/RoМ?yksopp - Senior/02 - Tricky Two.flac

Track gain : -4.34 dB
Peak : 1.000000
CRC32 hash (test run) : CB933C5D
CRC32 hash : CB933C5D
CRC32 hash (skip zero) : A0F8B0C9
AccurateRip signature : C59792C4
->Track not present in AccurateRip database.
Statistics
Read error : 0
Skipped (treated as error) : 0
Edge jitter error (maybe fixed) : 0
Atom jitter error (maybe fixed) : 0
Drift error (maybe fixed) : 0
Dropped bytes error (maybe fixed) : 0
Duplicated bytes error (maybe fixed) : 0
Inconsistency in error sectors : 0

Track 03
Filename : /Volumes/iMac HDD/Music/FLACs/RoМ?yksopp - Senior/03 - The Alcoholic.flac
Pre-gap length : 00:02:46

Track gain : -4.77 dB
Peak : 1.000000
CRC32 hash (test run) : C4DD7BAE
CRC32 hash : C4DD7BAE
CRC32 hash (skip zero) : A249AB81
AccurateRip signature : D19A1C63
->Track not present in AccurateRip database.
Statistics
Read error : 0
Skipped (treated as error) : 0
Edge jitter error (maybe fixed) : 0
Atom jitter error (maybe fixed) : 0
Drift error (maybe fixed) : 0
Dropped bytes error (maybe fixed) : 0
Duplicated bytes error (maybe fixed) : 0
Inconsistency in error sectors : 0

Track 04
Filename : /Volumes/iMac HDD/Music/FLACs/RoМ?yksopp - Senior/04 - Senior Living.flac
Pre-gap length : 00:00:26

Track gain : -4.18 dB
Peak : 1.000000
CRC32 hash (test run) : CF0DB5CB
CRC32 hash : CF0DB5CB
CRC32 hash (skip zero) : 713FDD6B
AccurateRip signature : 72EDD79E
->Track not present in AccurateRip database.
Statistics
Read error : 0
Skipped (treated as error) : 0
Edge jitter error (maybe fixed) : 0
Atom jitter error (maybe fixed) : 0
Drift error (maybe fixed) : 0
Dropped bytes error (maybe fixed) : 0
Duplicated bytes error (maybe fixed) : 0
Inconsistency in error sectors : 0

Track 05
Filename : /Volumes/iMac HDD/Music/FLACs/RoМ?yksopp - Senior/05 - The Drug.flac

Track gain : -3.37 dB
Peak : 1.000000
CRC32 hash (test run) : 4D186772
CRC32 hash : 4D186772
CRC32 hash (skip zero) : E86C53D7
AccurateRip signature : 2579BAA0
->Track not present in AccurateRip database.
Statistics
Read error : 0
Skipped (treated as error) : 0
Edge jitter error (maybe fixed) : 0
Atom jitter error (maybe fixed) : 0
Drift error (maybe fixed) : 0
Dropped bytes error (maybe fixed) : 0
Duplicated bytes error (maybe fixed) : 0
Inconsistency in error sectors : 0

Track 06
Filename : /Volumes/iMac HDD/Music/FLACs/RoМ?yksopp - Senior/06 - Forsaken Cowboy.flac

Track gain : -4.01 dB
Peak : 1.000000
CRC32 hash (test run) : 10B03192
CRC32 hash : 10B03192
CRC32 hash (skip zero) : 95575F06
AccurateRip signature : 0035EDF9
->Track not present in AccurateRip database.
Statistics
Read error : 0
Skipped (treated as error) : 0
Edge jitter error (maybe fixed) : 0
Atom jitter error (maybe fixed) : 0
Drift error (maybe fixed) : 0
Dropped bytes error (maybe fixed) : 0
Duplicated bytes error (maybe fixed) : 0
Inconsistency in error sectors : 0

Track 07
Filename : /Volumes/iMac HDD/Music/FLACs/RoМ?yksopp - Senior/07 - The Fear.flac

Track gain : -6.45 dB
Peak : 1.000000
CRC32 hash (test run) : 54A7AEAE
CRC32 hash : 54A7AEAE
CRC32 hash (skip zero) : F7D43525
AccurateRip signature : E0351C2D
->Track not present in AccurateRip database.
Statistics
Read error : 0
Skipped (treated as error) : 0
Edge jitter error (maybe fixed) : 0
Atom jitter error (maybe fixed) : 0
Drift error (maybe fixed) : 0
Dropped bytes error (maybe fixed) : 0
Duplicated bytes error (maybe fixed) : 0
Inconsistency in error sectors : 0

Track 08
Filename : /Volumes/iMac HDD/Music/FLACs/RoМ?yksopp - Senior/08 - Coming Home.flac

Track gain : -3.48 dB
Peak : 0.864380
CRC32 hash (test run) : F686CEFA
CRC32 hash : F686CEFA
CRC32 hash (skip zero) : 4AB08CD0
AccurateRip signature : 1CDB4E80
->Track not present in AccurateRip database.
Statistics
Read error : 0
Skipped (treated as error) : 0
Edge jitter error (maybe fixed) : 0
Atom jitter error (maybe fixed) : 0
Drift error (maybe fixed) : 0
Dropped bytes error (maybe fixed) : 0
Duplicated bytes error (maybe fixed) : 0
Inconsistency in error sectors : 0

Track 09
Filename : /Volumes/iMac HDD/Music/FLACs/RoМ?yksopp - Senior/09 - A Long,Long Way.flac
Pre-gap length : 00:01:24

Track gain : -4.12 dB
Peak : 1.000000
CRC32 hash (test run) : 9FA04676
CRC32 hash : 9FA04676
CRC32 hash (skip zero) : 81D56D50
AccurateRip signature : 788B694F
->Track not present in AccurateRip database.
Statistics
Read error : 0
Skipped (treated as error) : 0
Edge jitter error (maybe fixed) : 0
Atom jitter error (maybe fixed) : 0
Drift error (maybe fixed) : 0
Dropped bytes error (maybe fixed) : 0
Duplicated bytes error (maybe fixed) : 0
Inconsistency in error sectors : 0

No errors occurred

End of status report
-----------------------

DON'T MODIFY THIS FILE

-----------------------

PERFORMER: auCDtect Task Manager, ver. 1.5.1RC3 build 1.5.1.4
Copyright (c) 2008-2010 y-soft. All rights reserved
http://y-soft.org

ANALYZER: auCDtect: CD records authenticity detector, version 0.8.2
Copyright (c) 2004 Oleg Berngardt. All rights reserved.
Copyright (c) 2004 Alexander Djourik. All rights reserved.

FILE: 09 - A Long,Long Way.flac
Size: 43469105 Hash: C9728B0402E7E1D142D9E818E8C4094C Accuracy: -m0
Conclusion: CDDA 43%
Signature: A554F54C44D65D5A9DC588BD98DB3E9E2D7BFBEB
FILE: 08 - Coming Home.flac
Size: 28637870 Hash: 47142308F730C393500C6ACC9D9D7CF9 Accuracy: -m0
Conclusion: CDDA 100%
Signature: 1B5E363F290AF0AC87F2DFF277B4EDBF70F38190
FILE: 07 - The Fear.flac
Size: 42788092 Hash: B233C52BA7437877C90E2654F3F5CF25 Accuracy: -m0
Conclusion: CDDA 100%
Signature: 25EE71E4C201FB253E81A381BC12B94FD3CC3F86
FILE: 06 - Forsaken Cowboy.flac
Size: 31061327 Hash: 8697FA8C73BED81FED32CEE25A8FE319 Accuracy: -m0
Conclusion: CDDA 100%
Signature: 8620B8F3690F48CFA57EF3CBC2CD635BD87C7D06
FILE: 05 - The Drug.flac
Size: 30448770 Hash: A1C8F8291431337F926747EF1704113C Accuracy: -m0
Conclusion: CDDA 100%
Signature: C21765CD8194B191056C133BA45F4D7E2B270271
FILE: 04 - Senior Living.flac
Size: 28330215 Hash: 4E8284D9EBB3B1FF18843D61D7D67890 Accuracy: -m0
Conclusion: CDDA 100%
Signature: C2C6B71F180B71277876C221A2AEC4FAD898569E
FILE: 03 - The Alcoholic.flac
Size: 33610127 Hash: 820E140C17431BFAB27740EC15E1C5F0 Accuracy: -m0
Conclusion: CDDA 100%
Signature: A81BA436A787E0DE5B813A6764AC9D7E85BB5BE8
FILE: 02 - Tricky Two.flac
Size: 46967229 Hash: 581087CBE97D08561BE044ED07E98B8D Accuracy: -m0
Conclusion: CDDA 99%
Signature: B019C758A084E5C8380CE8A6C5794977D089435C
FILE: 01 - ...And TheForest Began To Sing.flac
Size: 10912850 Hash: 4E71298C5A3839971050CC0467A8D83B Accuracy: -m0
Conclusion: CDDA 99%
Signature: 7947F53F2AAD0818C451370064012CC17BDA0276
info [Профиль]  [ЛС] 

TheMrMafiozi

Пол: Пол:Муж

Стаж: 10 лет

Сообщений: 859

СССР
Рейтинг

post 04-Окт-2010 07:39 (спустя 10 часов) [-]0[+]

[Цитировать] 

SkyL3R
Содержание спойлера "Лог создания рипа" не соответствует тому, что должно быть.
Должен быть отчёт, а у вас CUE

_________________
観自在菩薩行深般若波羅蜜多時、照見五蘊皆空、度一切苦厄。舎利子
も自由にお使いく
言語の科
info [Профиль]  [ЛС] 

SkyLeR

Пол: Пол:Муж

Стаж: 11 лет

Сообщений: 1152

Россия
Рейтинг

post 04-Окт-2010 12:06 (спустя 4 часа) [-]0[+]

[Цитировать] 

Mafiozi
Исправил
info [Профиль]  [ЛС] 
Показать сообщения:    
Ответить на тему

Текущее время: 19-Янв 22:37

Часовой пояс: GMT + 4



Вы не можете начинать темы
Вы не можете отвечать на сообщения
Вы не можете редактировать свои сообщения
Вы не можете удалять свои сообщения
Вы не можете голосовать в опросах
Вы не можете прикреплять файлы к сообщениям
Вы не можете скачивать файлы