Ошибка

Девочка, покорившая время / Toki wo Kakeru Shoujo / The Girl Who Leapt Through Time [Movie][романтика, драма][Blu-Ray Disc][1080p][Дублированный(JAP+SUB)]

Ответить на тему
 
Автор Сообщение

ANtreides

Пол: Пол:Муж

Стаж: 7 лет 4 месяца

Сообщений: 1014

Рейтинг

post 30-Авг-2010 20:46 0[+]

[Цитировать] 

Девочка, покорившая время
The Girl Who Leapt Through Time | 時をかける少女 | Toki wo Kakeru Shoujo

Премьера
: 15.07.2006
Страна: Япония
Жанр: приключения, фантастика, романтика, драма
Тип: полнометражный фильм
Продолжительность: 100 мин
Перевод:
  • Озвучено:
    • Полное профессиональное дублирование - Reanimedia
  • Субтитры:
    • Профессиональный перевод - Reanimedia

Источник:
Студия:
Режиссёр: Хосода Мамору
Сценарий: Цуцуй Ясутака
Средний балл: 8.9 из 10 (2528 гол.)
Описание:
У старшеклассницы Макото не задался день: контрольная написана скверно, на уроке домоводства сгорела темпура, на перемене ее сшибли с ног; после уроков она относила анкеты и растянулась в лаборатории. И, в качестве эффектного завершения дня, у Макото отказал тормоз на велосипеде, причем выяснилось это как раз на железнодорожном переезде, когда поезд уже подходил... Если бы этот день пошел как-то иначе! Если бы можно было хоть что-то переиграть!..

...а, как известно, девочки в этом возрасте часто прыгают во времени...
© Анастасия Розанова, World Art

Качество: Blu-Ray | Хардсаб: Отсутствует | Формат: BDMV
Видео: MPEG-4 AVC Video / High Profile 4.1 / ~36000 kbps / 1920x1080 / 16:9 / 23,976 fps
Аудио:
1. Японский - DTS-HD 5.1 48 kHz ~2000 kbps 16-bit (DTS Core 5.1 1536 kbps)
2. Японский - TrueHD 5.1 48 kHz ~2000 kbps 16-bit (AC3 Core 5.1 640 kbps)
3. Русский - AC3 5.1 48 kHz 448 kbps
4. Японский - LPCM 2.0 48 kHz 1536 kbps 16-bit
Диск пересобран из оригинального Blu-ray диска. Используемые программы: BD Reauthor от DVDLogic Software (http://www.dvd-logic.com) и Sonic Scenarist BD.
 
Disc Title: The Girl Who Leapt Through Time
Disc Size: 37 152 306 484 bytes
Protection: AACS
BD-Java: No
BDInfo: 0.5.5

Notes:

BDINFO HOME:
Cinema Squid
http://www.cinemasquid.com/blu-ray/tools/bdinfo

INCLUDES FORUMS REPORT FOR:
AVS Forum Blu-ray Audio and Video Specifications Thread
http://www.avsforum.com/avs-vb/showthread.php?t=1155731

********************
PLAYLIST: 00000.MPLS
********************

<--- BEGIN FORUMS PASTE --->

Код:

                                                                                                                Total   Video                                             
Title                                                           Codec   Length  Movie Size      Disc Size       Bitrate Bitrate Main Audio Track                          Secondary Audio Track
-----                                                           ------  ------- --------------  --------------  ------- ------- ------------------                        ---------------------
00000.MPLS                                                      AVC     1:38:19 34 191 593 472  37 152 306 484  46,37   36,07   DTS-HD Master 5.1 1957Kbps (48kHz/16-bit) Dolby TrueHD 5.1 1970Kbps (48kHz/16-bit)


Код:



DISC INFO:

Disc Title:     The Girl Who Leapt Through Time
Disc Size:      37 152 306 484 bytes
Protection:     AACS
BD-Java:        No
BDInfo:         0.5.5

PLAYLIST REPORT:

Name:                   00000.MPLS
Length:                 1:38:19 (h:m:s)
Size:                   34 191 593 472 bytes
Total Bitrate:          46,37 Mbps

VIDEO:

Codec                   Bitrate             Description     
-----                   -------             -----------     
MPEG-4 AVC Video        36073 kbps          1080p / 23,976 fps / 16:9 / High Profile 4.1

AUDIO:

Codec                           Language        Bitrate         Description     
-----                           --------        -------         -----------     
DTS-HD Master Audio             Japanese        1957 kbps       5.1 / 48 kHz / 1957 kbps / 16-bit (DTS Core: 5.1 / 48 kHz / 1509 kbps / 16-bit)
Dolby TrueHD Audio              Japanese        1970 kbps       5.1 / 48 kHz / 1970 kbps / 16-bit (AC3 Embedded: 5.1 / 48 kHz / 640 kbps / DN -4dB)
Dolby Digital Audio             Russian         448 kbps        5.1 / 48 kHz / 448 kbps
LPCM Audio                      Japanese        1536 kbps       2.0 / 48 kHz / 1536 kbps / 16-bit

SUBTITLES:

Codec                           Language        Bitrate         Description     
-----                           --------        -------         -----------     
Presentation Graphics           Russian         22,366 kbps                     

FILES:

Name            Time In         Length          Size            Total Bitrate   
----            -------         ------          ----            -------------   
00000.M2TS      0:00:00.000     1:38:19.393     34 191 593 472  46 366         

CHAPTERS:

Number          Time In         Length          Avg Video Rate  Max 1-Sec Rate  Max 1-Sec Time  Max 5-Sec Rate  Max 5-Sec Time  Max 10Sec Rate  Max 10Sec Time  Avg Frame Size  Max Frame Size  Max Frame Time 
------          -------         ------          --------------  --------------  --------------  --------------  --------------  --------------  --------------  --------------  --------------  -------------- 
1               0:00:00.000     0:06:24.217     32 847 kbps     43 383 kbps     00:01:55.365    38 219 kbps     00:03:53.983    37 927 kbps     00:03:48.978    171 230 bytes   595 361 bytes   00:03:05.435   
2               0:06:24.217     0:05:04.971     36 674 kbps     42 024 kbps     00:09:41.247    38 046 kbps     00:10:52.651    37 858 kbps     00:08:43.105    191 201 bytes   517 975 bytes   00:10:57.656   
3               0:11:29.188     0:03:59.239     37 148 kbps     40 446 kbps     00:13:55.417    38 154 kbps     00:13:38.943    37 924 kbps     00:13:40.027    193 673 bytes   582 178 bytes   00:13:49.161   
4               0:15:28.427     0:02:10.129     37 148 kbps     39 876 kbps     00:17:21.707    38 083 kbps     00:17:17.703    37 855 kbps     00:17:12.698    193 671 bytes   478 919 bytes   00:17:38.557   
5               0:17:38.557     0:05:44.510     36 389 kbps     40 402 kbps     00:17:59.369    38 040 kbps     00:21:11.186    37 838 kbps     00:19:11.066    189 714 bytes   540 686 bytes   00:17:59.703   
6               0:23:23.068     0:04:52.959     37 341 kbps     40 610 kbps     00:24:02.941    38 132 kbps     00:24:03.275    37 957 kbps     00:23:58.228    194 680 bytes   584 412 bytes   00:24:03.733   
7               0:28:16.027     0:02:43.997     37 060 kbps     41 789 kbps     00:28:43.847    38 186 kbps     00:30:54.477    37 861 kbps     00:30:49.472    193 215 bytes   560 573 bytes   00:30:59.482   
8               0:31:00.024     0:04:56.129     36 754 kbps     39 511 kbps     00:33:33.136    37 992 kbps     00:33:33.094    37 808 kbps     00:33:36.973    191 620 bytes   473 826 bytes   00:33:35.096   
9               0:35:56.154     0:04:17.423     37 251 kbps     41 825 kbps     00:38:29.098    38 250 kbps     00:38:25.094    37 833 kbps     00:36:15.506    194 209 bytes   662 093 bytes   00:39:17.146   
10              0:40:13.577     0:06:00.193     36 937 kbps     43 221 kbps     00:40:31.137    38 157 kbps     00:44:26.955    37 870 kbps     00:41:09.717    192 573 bytes   654 370 bytes   00:44:27.247   
11              0:46:13.771     0:03:26.372     36 939 kbps     39 645 kbps     00:46:29.328    38 027 kbps     00:46:25.282    37 779 kbps     00:48:43.128    192 582 bytes   503 059 bytes   00:46:26.366   
12              0:49:40.143     0:06:22.882     37 181 kbps     40 522 kbps     00:54:35.772    38 081 kbps     00:54:50.370    37 802 kbps     00:55:49.888    193 846 bytes   569 408 bytes   00:54:36.690   
13              0:56:03.026     0:05:25.158     37 041 kbps     41 033 kbps     00:59:57.343    38 302 kbps     00:59:53.298    37 927 kbps     00:59:51.129    193 115 bytes   607 191 bytes   00:59:59.262   
14              1:01:28.184     0:05:17.483     34 835 kbps     40 805 kbps     01:05:00.229    38 316 kbps     01:04:56.142    37 895 kbps     01:04:51.220    181 616 bytes   583 769 bytes   01:05:01.105   
15              1:06:45.668     0:06:58.751     36 393 kbps     40 105 kbps     01:08:15.466    38 032 kbps     01:08:18.177    37 736 kbps     01:11:09.556    189 739 bytes   666 800 bytes   01:11:01.048   
16              1:13:44.420     0:04:08.581     37 081 kbps     43 788 kbps     01:17:27.768    38 101 kbps     01:17:23.764    37 820 kbps     01:14:25.294    193 325 bytes   513 804 bytes   01:14:53.322   
17              1:17:53.001     0:03:35.381     36 492 kbps     51 451 kbps     01:20:05.258    40 182 kbps     01:20:01.254    38 695 kbps     01:19:56.249    190 251 bytes   590 319 bytes   01:20:50.303   
18              1:21:28.383     0:03:10.190     36 621 kbps     40 352 kbps     01:22:49.089    38 147 kbps     01:22:48.964    37 889 kbps     01:22:48.964    190 925 bytes   573 957 bytes   01:22:55.970   
19              1:24:38.573     0:06:43.903     36 469 kbps     42 681 kbps     01:25:39.926    38 086 kbps     01:26:20.216    37 851 kbps     01:26:21.718    190 134 bytes   484 193 bytes   01:26:22.760   
20              1:31:22.477     0:02:19.139     34 278 kbps     39 302 kbps     01:32:00.681    37 944 kbps     01:31:56.636    37 776 kbps     01:31:51.631    178 708 bytes   498 627 bytes   01:31:57.929   
21              1:33:41.616     0:04:37.777     29 535 kbps     40 268 kbps     01:36:27.490    37 809 kbps     01:35:14.834    37 694 kbps     01:35:08.411    154 003 bytes   652 908 bytes   01:34:27.953   

STREAM DIAGNOSTICS:

File            PID             Type            Codec           Language                Seconds                 Bitrate                 Bytes           Packets         
----            ---             ----            -----           --------                --------------          --------------          -------------   -----           
00000.M2TS      4113 (0x1011)   0x1B            AVC                                     5899,227                36 074                  26 600 762 401  144 652 105     
00000.M2TS      4352 (0x1100)   0x83            TrueHD          jpn (Japanese)          5899,227                2 610                   1 924 781 412   15 448 114     
00000.M2TS      4353 (0x1101)   0x86            DTS-HD MA       jpn (Japanese)          5899,227                1 957                   1 443 357 312   8 753 547       
00000.M2TS      4354 (0x1102)   0x80            LPCM            jpn (Japanese)          5899,227                1 544                   1 138 368 320   7 085 280       
00000.M2TS      4355 (0x1103)   0x81            AC3             rus (Russian)           5899,227                448                     330 647 296     1 845 130       
00000.M2TS      4608 (0x1200)   0x90            PGS             rus (Russian)           5899,227                22                      16 492 973      99 221         

<---- END FORUMS PASTE ---->

QUICK SUMMARY:

Disc Title: The Girl Who Leapt Through Time
Disc Size: 37 152 306 484 bytes
Protection: AACS
BD-Java: No
Playlist: 00000.MPLS
Size: 34 191 593 472 bytes
Length: 1:38:19
Total Bitrate: 46,37 Mbps
Video: MPEG-4 AVC Video / 36073 kbps / 1080p / 23,976 fps / 16:9 / High Profile 4.1
Audio: Japanese / DTS-HD Master Audio / 5.1 / 48 kHz / 1957 kbps / 16-bit (DTS Core: 5.1 / 48 kHz / 1509 kbps / 16-bit)
Audio: Japanese / Dolby TrueHD Audio / 5.1 / 48 kHz / 1970 kbps / 16-bit (AC3 Embedded: 5.1 / 48 kHz / 640 kbps / DN -4dB)
Audio: Russian / Dolby Digital Audio / 5.1 / 48 kHz / 448 kbps
Audio: Japanese / LPCM Audio / 2.0 / 48 kHz / 1536 kbps / 16-bit
Subtitle: Russian / 22,366 kbps

********************
PLAYLIST: 00002.MPLS
********************

<--- BEGIN FORUMS PASTE --->

Код:

                                                                                                                Total   Video                                             
Title                                                           Codec   Length  Movie Size      Disc Size       Bitrate Bitrate Main Audio Track                          Secondary Audio Track
-----                                                           ------  ------- --------------  --------------  ------- ------- ------------------                        ---------------------
00002.MPLS                                                      AVC     0:13:47 1 487 960 064   37 152 306 484  14,38   11,86   DD AC3 2.0 448Kbps                       


Код:



DISC INFO:

Disc Title:     The Girl Who Leapt Through Time
Disc Size:      37 152 306 484 bytes
Protection:     AACS
BD-Java:        No
BDInfo:         0.5.5

PLAYLIST REPORT:

Name:                   00002.MPLS
Length:                 0:13:47 (h:m:s)
Size:                   1 487 960 064 bytes
Total Bitrate:          14,38 Mbps

VIDEO:

Codec                   Bitrate             Description     
-----                   -------             -----------     
MPEG-4 AVC Video        11858 kbps          480i / 29,970 fps / 4:3 / High Profile 3.2

AUDIO:

Codec                           Language        Bitrate         Description     
-----                           --------        -------         -----------     
Dolby Digital Audio             Japanese        448 kbps        2.0 / 48 kHz / 448 kbps / DN -4dB
Dolby Digital Audio             Japanese        448 kbps        2.0 / 48 kHz / 448 kbps / DN -4dB
Dolby Digital Audio             Japanese        448 kbps        2.0 / 48 kHz / 448 kbps / DN -4dB
Dolby Digital Audio             Japanese        448 kbps        2.0 / 48 kHz / 448 kbps / DN -4dB

SUBTITLES:

Codec                           Language        Bitrate         Description     
-----                           --------        -------         -----------     
Presentation Graphics           Japanese        0,036 kbps                     

FILES:

Name            Time In         Length          Size            Total Bitrate   
----            -------         ------          ----            -------------   
00002.M2TS      0:00:00.000     0:13:47.827     1 487 960 064   14 379         

CHAPTERS:

Number          Time In         Length          Avg Video Rate  Max 1-Sec Rate  Max 1-Sec Time  Max 5-Sec Rate  Max 5-Sec Time  Max 10Sec Rate  Max 10Sec Time  Avg Frame Size  Max Frame Size  Max Frame Time 
------          -------         ------          --------------  --------------  --------------  --------------  --------------  --------------  --------------  --------------  --------------  -------------- 
1               0:00:00.000     0:13:46.826     11 869 kbps     13 157 kbps     00:13:43.155    12 182 kbps     00:13:38.951    12 031 kbps     00:11:31.991    49 503 bytes    121 265 bytes   00:13:33.546   
2               0:13:46.826     0:00:01.000     2 627 kbps      0 kbps          00:00:00.000    0 kbps          00:00:00.000    0 kbps          00:00:00.000    11 334 bytes    47 151 bytes    00:13:47.793   

STREAM DIAGNOSTICS:

File            PID             Type            Codec           Language                Seconds                 Bitrate                 Bytes           Packets         
----            ---             ----            -----           --------                --------------          --------------          -------------   -----           
00002.M2TS      4113 (0x1011)   0x1B            AVC                                     827,694                 11 860                  1 227 063 746   6 683 314       
00002.M2TS      4352 (0x1100)   0x81            AC3             jpn (Japanese)          827,694                 450                     46 527 488      259 640         
00002.M2TS      4353 (0x1101)   0x81            AC3             jpn (Japanese)          827,694                 450                     46 527 488      259 640         
00002.M2TS      4354 (0x1102)   0x81            AC3             jpn (Japanese)          827,694                 450                     46 527 488      259 640         
00002.M2TS      4355 (0x1103)   0x81            AC3             jpn (Japanese)          827,694                 450                     46 527 488      259 640         
00002.M2TS      4608 (0x1200)   0x90            PGS             jpn (Japanese)          827,694                 0                       3 762           28             

<---- END FORUMS PASTE ---->

QUICK SUMMARY:

Disc Title: The Girl Who Leapt Through Time
Disc Size: 37 152 306 484 bytes
Protection: AACS
BD-Java: No
Playlist: 00002.MPLS
Size: 1 487 960 064 bytes
Length: 0:13:47
Total Bitrate: 14,38 Mbps
Video: MPEG-4 AVC Video / 11858 kbps / 480i / 29,970 fps / 4:3 / High Profile 3.2
Audio: Japanese / Dolby Digital Audio / 2.0 / 48 kHz / 448 kbps / DN -4dB
Audio: Japanese / Dolby Digital Audio / 2.0 / 48 kHz / 448 kbps / DN -4dB
Audio: Japanese / Dolby Digital Audio / 2.0 / 48 kHz / 448 kbps / DN -4dB
Audio: Japanese / Dolby Digital Audio / 2.0 / 48 kHz / 448 kbps / DN -4dB
Subtitle: Japanese / 0,036 kbps

********************
PLAYLIST: 00004.MPLS
********************

<--- BEGIN FORUMS PASTE --->

Код:

                                                                                                                Total   Video                                             
Title                                                           Codec   Length  Movie Size      Disc Size       Bitrate Bitrate Main Audio Track                          Secondary Audio Track
-----                                                           ------  ------- --------------  --------------  ------- ------- ------------------                        ---------------------
00004.MPLS                                                      AVC     0:05:20 573 272 064     37 152 306 484  14,32   11,79   DD AC3 2.0 448Kbps                       


Код:



DISC INFO:

Disc Title:     The Girl Who Leapt Through Time
Disc Size:      37 152 306 484 bytes
Protection:     AACS
BD-Java:        No
BDInfo:         0.5.5

PLAYLIST REPORT:

Name:                   00004.MPLS
Length:                 0:05:20 (h:m:s)
Size:                   573 272 064 bytes
Total Bitrate:          14,32 Mbps

VIDEO:

Codec                   Bitrate             Description     
-----                   -------             -----------     
MPEG-4 AVC Video        11788 kbps          480i / 29,970 fps / 4:3 / High Profile 3.2

AUDIO:

Codec                           Language        Bitrate         Description     
-----                           --------        -------         -----------     
Dolby Digital Audio             Japanese        448 kbps        2.0 / 48 kHz / 448 kbps / DN -4dB
Dolby Digital Audio             Japanese        448 kbps        2.0 / 48 kHz / 448 kbps / DN -4dB
Dolby Digital Audio             Japanese        448 kbps        2.0 / 48 kHz / 448 kbps / DN -4dB
Dolby Digital Audio             Japanese        448 kbps        2.0 / 48 kHz / 448 kbps / DN -4dB

SUBTITLES:

Codec                           Language        Bitrate         Description     
-----                           --------        -------         -----------     
Presentation Graphics           Japanese        0,094 kbps                     

FILES:

Name            Time In         Length          Size            Total Bitrate   
----            -------         ------          ----            -------------   
00004.M2TS      0:00:00.000     0:05:20.320     573 272 064     14 317         

CHAPTERS:

Number          Time In         Length          Avg Video Rate  Max 1-Sec Rate  Max 1-Sec Time  Max 5-Sec Rate  Max 5-Sec Time  Max 10Sec Rate  Max 10Sec Time  Avg Frame Size  Max Frame Size  Max Frame Time 
------          -------         ------          --------------  --------------  --------------  --------------  --------------  --------------  --------------  --------------  --------------  -------------- 
1               0:00:00.000     0:05:19.318     11 817 kbps     13 147 kbps     00:01:11.771    12 160 kbps     00:00:33.233    12 037 kbps     00:05:07.240    49 280 bytes    135 844 bytes   00:01:13.573   
2               0:05:19.318     0:00:01.001     2 627 kbps      0 kbps          00:00:00.000    0 kbps          00:00:00.000    0 kbps          00:00:00.000    11 334 bytes    47 151 bytes    00:05:20.286   

STREAM DIAGNOSTICS:

File            PID             Type            Codec           Language                Seconds                 Bitrate                 Bytes           Packets         
----            ---             ----            -----           --------                --------------          --------------          -------------   -----           
00004.M2TS      4113 (0x1011)   0x1B            AVC                                     320,187                 11 793                  471 984 032     2 570 691       
00004.M2TS      4352 (0x1100)   0x81            AC3             jpn (Japanese)          320,187                 452                     18 106 368      101 040         
00004.M2TS      4353 (0x1101)   0x81            AC3             jpn (Japanese)          320,187                 452                     18 106 368      101 040         
00004.M2TS      4354 (0x1102)   0x81            AC3             jpn (Japanese)          320,187                 452                     18 106 368      101 040         
00004.M2TS      4355 (0x1103)   0x81            AC3             jpn (Japanese)          320,187                 452                     18 106 368      101 040         
00004.M2TS      4608 (0x1200)   0x90            PGS             jpn (Japanese)          320,187                 0                       3 762           28             

<---- END FORUMS PASTE ---->

QUICK SUMMARY:

Disc Title: The Girl Who Leapt Through Time
Disc Size: 37 152 306 484 bytes
Protection: AACS
BD-Java: No
Playlist: 00004.MPLS
Size: 573 272 064 bytes
Length: 0:05:20
Total Bitrate: 14,32 Mbps
Video: MPEG-4 AVC Video / 11788 kbps / 480i / 29,970 fps / 4:3 / High Profile 3.2
Audio: Japanese / Dolby Digital Audio / 2.0 / 48 kHz / 448 kbps / DN -4dB
Audio: Japanese / Dolby Digital Audio / 2.0 / 48 kHz / 448 kbps / DN -4dB
Audio: Japanese / Dolby Digital Audio / 2.0 / 48 kHz / 448 kbps / DN -4dB
Audio: Japanese / Dolby Digital Audio / 2.0 / 48 kHz / 448 kbps / DN -4dB
Subtitle: Japanese / 0,094 kbps

********************
PLAYLIST: 00001.MPLS
********************

<--- BEGIN FORUMS PASTE --->

Код:

                                                                                                                Total   Video                                             
Title                                                           Codec   Length  Movie Size      Disc Size       Bitrate Bitrate Main Audio Track                          Secondary Audio Track
-----                                                           ------  ------- --------------  --------------  ------- ------- ------------------                        ---------------------
00001.MPLS                                                      AVC     0:02:54 385 425 408     37 152 306 484  17,70   14,91   DD AC3 2.0 448Kbps                       


Код:



DISC INFO:

Disc Title:     The Girl Who Leapt Through Time
Disc Size:      37 152 306 484 bytes
Protection:     AACS
BD-Java:        No
BDInfo:         0.5.5

PLAYLIST REPORT:

Name:                   00001.MPLS
Length:                 0:02:54 (h:m:s)
Size:                   385 425 408 bytes
Total Bitrate:          17,70 Mbps

VIDEO:

Codec                   Bitrate             Description     
-----                   -------             -----------     
MPEG-4 AVC Video        14914 kbps          1080p / 23,976 fps / 16:9 / High Profile 4.1

AUDIO:

Codec                           Language        Bitrate         Description     
-----                           --------        -------         -----------     
Dolby Digital Audio             Japanese        448 kbps        2.0 / 48 kHz / 448 kbps / DN -4dB
Dolby Digital Audio             Japanese        448 kbps        2.0 / 48 kHz / 448 kbps / DN -4dB
Dolby Digital Audio             Japanese        448 kbps        2.0 / 48 kHz / 448 kbps / DN -4dB
Dolby Digital Audio             Japanese        448 kbps        2.0 / 48 kHz / 448 kbps / DN -4dB

SUBTITLES:

Codec                           Language        Bitrate         Description     
-----                           --------        -------         -----------     
Presentation Graphics           Japanese        0,311 kbps                     
Interactive Graphics            Japanese        123,620 kbps                   

FILES:

Name            Time In         Length          Size            Total Bitrate   
----            -------         ------          ----            -------------   
00001.M2TS      0:00:00.000     0:02:54.173     385 425 408     17 703         

CHAPTERS:

Number          Time In         Length          Avg Video Rate  Max 1-Sec Rate  Max 1-Sec Time  Max 5-Sec Rate  Max 5-Sec Time  Max 10Sec Rate  Max 10Sec Time  Avg Frame Size  Max Frame Size  Max Frame Time 
------          -------         ------          --------------  --------------  --------------  --------------  --------------  --------------  --------------  --------------  --------------  -------------- 
1               0:00:00.000     0:02:54.173     14 914 kbps     16 374 kbps     00:01:34.344    15 275 kbps     00:01:30.340    15 137 kbps     00:01:25.335    77 753 bytes    250 172 bytes   00:01:35.345   

STREAM DIAGNOSTICS:

File            PID             Type            Codec           Language                Seconds                 Bitrate                 Bytes           Packets         
----            ---             ----            -----           --------                --------------          --------------          -------------   -----           
00001.M2TS      4113 (0x1011)   0x1B            AVC                                     174,049                 14 924                  324 697 119     1 768 313       
00001.M2TS      4352 (0x1100)   0x81            AC3             jpn (Japanese)          174,049                 450                     9 782 528       54 590         
00001.M2TS      4353 (0x1101)   0x81            AC3             jpn (Japanese)          174,049                 450                     9 782 528       54 590         
00001.M2TS      4354 (0x1102)   0x81            AC3             jpn (Japanese)          174,049                 450                     9 782 528       54 590         
00001.M2TS      4355 (0x1103)   0x81            AC3             jpn (Japanese)          174,049                 450                     9 782 528       54 590         
00001.M2TS      4608 (0x1200)   0x90            PGS             jpn (Japanese)          174,049                 0                       6 762           44             
00001.M2TS      5120 (0x1400)   0x91            IGS             jpn (Japanese)          174,049                 124                     2 691 414       14 819         

<---- END FORUMS PASTE ---->

QUICK SUMMARY:

Disc Title: The Girl Who Leapt Through Time
Disc Size: 37 152 306 484 bytes
Protection: AACS
BD-Java: No
Playlist: 00001.MPLS
Size: 385 425 408 bytes
Length: 0:02:54
Total Bitrate: 17,70 Mbps
Video: MPEG-4 AVC Video / 14914 kbps / 1080p / 23,976 fps / 16:9 / High Profile 4.1
Audio: Japanese / Dolby Digital Audio / 2.0 / 48 kHz / 448 kbps / DN -4dB
Audio: Japanese / Dolby Digital Audio / 2.0 / 48 kHz / 448 kbps / DN -4dB
Audio: Japanese / Dolby Digital Audio / 2.0 / 48 kHz / 448 kbps / DN -4dB
Audio: Japanese / Dolby Digital Audio / 2.0 / 48 kHz / 448 kbps / DN -4dB
Subtitle: Japanese / 0,311 kbps
Subtitle: Japanese / 123,620 kbps

********************
PLAYLIST: 00003.MPLS
********************

<--- BEGIN FORUMS PASTE --->

Код:

                                                                                                                Total   Video                                             
Title                                                           Codec   Length  Movie Size      Disc Size       Bitrate Bitrate Main Audio Track                          Secondary Audio Track
-----                                                           ------  ------- --------------  --------------  ------- ------- ------------------                        ---------------------
00003.MPLS                                                      MPEG-2  0:01:49 198 672 384     37 152 306 484  14,58   12,00   DD AC3 2.0 448Kbps                       


Код:



DISC INFO:

Disc Title:     The Girl Who Leapt Through Time
Disc Size:      37 152 306 484 bytes
Protection:     AACS
BD-Java:        No
BDInfo:         0.5.5

PLAYLIST REPORT:

Name:                   00003.MPLS
Length:                 0:01:49 (h:m:s)
Size:                   198 672 384 bytes
Total Bitrate:          14,58 Mbps

VIDEO:

Codec                   Bitrate             Description     
-----                   -------             -----------     
MPEG-2 Video            11999 kbps          480i / 29,970 fps / 4:3

AUDIO:

Codec                           Language        Bitrate         Description     
-----                           --------        -------         -----------     
Dolby Digital Audio             Japanese        448 kbps        2.0 / 48 kHz / 448 kbps / DN -4dB
Dolby Digital Audio             Japanese        448 kbps        2.0 / 48 kHz / 448 kbps / DN -4dB
Dolby Digital Audio             Japanese        448 kbps        2.0 / 48 kHz / 448 kbps / DN -4dB
Dolby Digital Audio             Japanese        448 kbps        2.0 / 48 kHz / 448 kbps / DN -4dB

SUBTITLES:

Codec                           Language        Bitrate         Description     
-----                           --------        -------         -----------     
Presentation Graphics           Japanese        0,276 kbps                     

FILES:

Name            Time In         Length          Size            Total Bitrate   
----            -------         ------          ----            -------------   
00003.M2TS      0:00:00.000     0:01:49.008     198 672 384     14 580         

CHAPTERS:

Number          Time In         Length          Avg Video Rate  Max 1-Sec Rate  Max 1-Sec Time  Max 5-Sec Rate  Max 5-Sec Time  Max 10Sec Rate  Max 10Sec Time  Avg Frame Size  Max Frame Size  Max Frame Time 
------          -------         ------          --------------  --------------  --------------  --------------  --------------  --------------  --------------  --------------  --------------  -------------- 
1               0:00:00.000     0:01:47.507     12 115 kbps     16 016 kbps     00:00:25.692    15 117 kbps     00:00:36.903    14 999 kbps     00:00:35.568    50 513 bytes    160 608 bytes   00:01:47.006   
2               0:01:47.507     0:00:01.501     3 748 kbps      3 792 kbps      00:01:47.507    0 kbps          00:00:00.000    0 kbps          00:00:00.000    15 989 bytes    16 408 bytes    00:01:47.540   

STREAM DIAGNOSTICS:

File            PID             Type            Codec           Language                Seconds                 Bitrate                 Bytes           Packets         
----            ---             ----            -----           --------                --------------          --------------          -------------   -----           
00003.M2TS      4113 (0x1011)   0x02            MPEG-2                                  108,875                 12 014                  163 505 856     890 730         
00003.M2TS      4352 (0x1100)   0x81            AC3             jpn (Japanese)          108,875                 461                     6 279 168       35 040         
00003.M2TS      4353 (0x1101)   0x81            AC3             jpn (Japanese)          108,875                 461                     6 279 168       35 040         
00003.M2TS      4354 (0x1102)   0x81            AC3             jpn (Japanese)          108,875                 461                     6 279 168       35 040         
00003.M2TS      4355 (0x1103)   0x81            AC3             jpn (Japanese)          108,875                 461                     6 279 168       35 040         
00003.M2TS      4608 (0x1200)   0x90            PGS             jpn (Japanese)          108,875                 0                       3 762           28             

<---- END FORUMS PASTE ---->

QUICK SUMMARY:

Disc Title: The Girl Who Leapt Through Time
Disc Size: 37 152 306 484 bytes
Protection: AACS
BD-Java: No
Playlist: 00003.MPLS
Size: 198 672 384 bytes
Length: 0:01:49
Total Bitrate: 14,58 Mbps
Video: MPEG-2 Video / 11999 kbps / 480i / 29,970 fps / 4:3
Audio: Japanese / Dolby Digital Audio / 2.0 / 48 kHz / 448 kbps / DN -4dB
Audio: Japanese / Dolby Digital Audio / 2.0 / 48 kHz / 448 kbps / DN -4dB
Audio: Japanese / Dolby Digital Audio / 2.0 / 48 kHz / 448 kbps / DN -4dB
Audio: Japanese / Dolby Digital Audio / 2.0 / 48 kHz / 448 kbps / DN -4dB
Subtitle: Japanese / 0,276 kbps

********************
PLAYLIST: 00006.MPLS
********************

<--- BEGIN FORUMS PASTE --->

Код:

                                                                                                                Total   Video                                             
Title                                                           Codec   Length  Movie Size      Disc Size       Bitrate Bitrate Main Audio Track                          Secondary Audio Track
-----                                                           ------  ------- --------------  --------------  ------- ------- ------------------                        ---------------------
00006.MPLS                                                      AVC     0:01:40 96 030 720      37 152 306 484  7,67    0,23    LPCM 2.0 1536Kbps (48kHz/16-bit)          LPCM 2.0 1536Kbps (48kHz/16-bit)


Код:



DISC INFO:

Disc Title:     The Girl Who Leapt Through Time
Disc Size:      37 152 306 484 bytes
Protection:     AACS
BD-Java:        No
BDInfo:         0.5.5

PLAYLIST REPORT:

Name:                   00006.MPLS
Length:                 0:01:40 (h:m:s)
Size:                   96 030 720 bytes
Total Bitrate:          7,67 Mbps

VIDEO:

Codec                   Bitrate             Description     
-----                   -------             -----------     
MPEG-4 AVC Video        229 kbps            1080p / 23,976 fps / 16:9 / High Profile 4.1

AUDIO:

Codec                           Language        Bitrate         Description     
-----                           --------        -------         -----------     
LPCM Audio                      Japanese        1536 kbps       2.0 / 48 kHz / 1536 kbps / 16-bit
LPCM Audio                      Japanese        1536 kbps       2.0 / 48 kHz / 1536 kbps / 16-bit
LPCM Audio                      Japanese        1536 kbps       2.0 / 48 kHz / 1536 kbps / 16-bit
LPCM Audio                      Japanese        1536 kbps       2.0 / 48 kHz / 1536 kbps / 16-bit

FILES:

Name            Time In         Length          Size            Total Bitrate   
----            -------         ------          ----            -------------   
00007.M2TS      0:00:00.000     0:01:40.100     96 030 720      7 318           

CHAPTERS:

Number          Time In         Length          Avg Video Rate  Max 1-Sec Rate  Max 1-Sec Time  Max 5-Sec Rate  Max 5-Sec Time  Max 10Sec Rate  Max 10Sec Time  Avg Frame Size  Max Frame Size  Max Frame Time 
------          -------         ------          --------------  --------------  --------------  --------------  --------------  --------------  --------------  --------------  --------------  -------------- 
1               0:00:00.000     0:00:05.004     516 kbps        278 kbps        00:00:04.963    278 kbps        00:00:04.963    0 kbps          00:00:00.000    161 516 bytes   173 813 bytes   00:00:09.968   
2               0:00:05.004     0:00:05.004     194 kbps        194 kbps        00:00:09.968    194 kbps        00:00:09.968    0 kbps          00:00:00.000    121 656 bytes   121 656 bytes   00:00:14.973   
3               0:00:10.009     0:00:05.004     294 kbps        294 kbps        00:00:14.973    294 kbps        00:00:14.973    0 kbps          00:00:00.000    183 930 bytes   183 930 bytes   00:00:19.978   
4               0:00:15.014     0:00:05.004     202 kbps        202 kbps        00:00:19.978    202 kbps        00:00:19.978    0 kbps          00:00:00.000    126 084 bytes   126 084 bytes   00:00:24.983   
5               0:00:20.019     0:00:05.004     99 kbps         99 kbps         00:00:24.983    99 kbps         00:00:24.983    0 kbps          00:00:00.000    61 918 bytes    61 918 bytes    00:00:29.988   
6               0:00:25.024     0:00:05.004     234 kbps        234 kbps        00:00:29.988    234 kbps        00:00:29.988    0 kbps          00:00:00.000    146 640 bytes   146 640 bytes   00:00:34.993   
7               0:00:30.029     0:00:05.004     161 kbps        161 kbps        00:00:34.993    161 kbps        00:00:34.993    0 kbps          00:00:00.000    100 491 bytes   100 491 bytes   00:00:39.998   
8               0:00:35.034     0:00:05.004     356 kbps        356 kbps        00:00:39.998    356 kbps        00:00:39.998    0 kbps          00:00:00.000    222 567 bytes   222 567 bytes   00:00:45.003   
9               0:00:40.039     0:00:05.004     270 kbps        270 kbps        00:00:45.003    270 kbps        00:00:45.003    0 kbps          00:00:00.000    168 807 bytes   168 807 bytes   00:00:50.008   
10              0:00:45.044     0:00:05.004     168 kbps        168 kbps        00:00:50.008    168 kbps        00:00:50.008    0 kbps          00:00:00.000    105 187 bytes   105 187 bytes   00:00:55.013   
11              0:00:50.049     0:00:05.004     229 kbps        229 kbps        00:00:55.013    229 kbps        00:00:55.013    0 kbps          00:00:00.000    143 049 bytes   143 049 bytes   00:01:00.018   
12              0:00:55.054     0:00:05.004     141 kbps        141 kbps        00:01:00.018    141 kbps        00:01:00.018    0 kbps          00:00:00.000    87 970 bytes    87 970 bytes    00:01:05.023   
13              0:01:00.059     0:00:05.005     361 kbps        361 kbps        00:01:05.023    361 kbps        00:01:05.023    0 kbps          00:00:00.000    225 926 bytes   225 926 bytes   00:01:10.028   
14              0:01:05.065     0:00:05.004     133 kbps        133 kbps        00:01:10.028    133 kbps        00:01:10.028    0 kbps          00:00:00.000    83 215 bytes    83 215 bytes    00:01:15.033   
15              0:01:10.070     0:00:05.004     100 kbps        100 kbps        00:01:15.033    100 kbps        00:01:15.033    0 kbps          00:00:00.000    62 383 bytes    62 383 bytes    00:01:20.038   
16              0:01:15.075     0:00:05.004     239 kbps        239 kbps        00:01:20.038    239 kbps        00:01:20.038    0 kbps          00:00:00.000    149 771 bytes   149 771 bytes   00:01:25.043   
17              0:01:20.080     0:00:05.004     217 kbps        217 kbps        00:01:25.043    217 kbps        00:01:25.043    0 kbps          00:00:00.000    135 662 bytes   135 662 bytes   00:01:30.048   
18              0:01:25.085     0:00:05.004     411 kbps        411 kbps        00:01:30.048    411 kbps        00:01:30.048    0 kbps          00:00:00.000    257 396 bytes   257 396 bytes   00:01:35.053   
19              0:01:30.090     0:00:05.004     234 kbps        236 kbps        00:01:35.053    0 kbps          00:00:00.000    0 kbps          00:00:00.000    146 557 bytes   146 557 bytes   00:01:40.016   
20              0:01:35.095     0:00:05.004     234 kbps        0 kbps          00:00:00.000    0 kbps          00:00:00.000    0 kbps          00:00:00.000    146 557 bytes   146 557 bytes   00:01:40.058   

STREAM DIAGNOSTICS:

File            PID             Type            Codec           Language                Seconds                 Bitrate                 Bytes           Packets         
----            ---             ----            -----           --------                --------------          --------------          -------------   -----           
00007.M2TS      4113 (0x1011)   0x1B            AVC                                     95,053                  252                     2 998 797       16 311         
00007.M2TS      4352 (0x1100)   0x80            LPCM            jpn (Japanese)          95,053                  1 624                   19 299 280      120 120         
00007.M2TS      4353 (0x1101)   0x80            LPCM            jpn (Japanese)          95,053                  1 624                   19 299 280      120 120         
00007.M2TS      4354 (0x1102)   0x80            LPCM            jpn (Japanese)          95,053                  1 624                   19 299 280      120 120         
00007.M2TS      4355 (0x1103)   0x80            LPCM            jpn (Japanese)          95,053                  1 624                   19 299 280      120 120         

<---- END FORUMS PASTE ---->

QUICK SUMMARY:

Disc Title: The Girl Who Leapt Through Time
Disc Size: 37 152 306 484 bytes
Protection: AACS
BD-Java: No
Playlist: 00006.MPLS
Size: 96 030 720 bytes
Length: 0:01:40
Total Bitrate: 7,67 Mbps
Video: MPEG-4 AVC Video / 229 kbps / 1080p / 23,976 fps / 16:9 / High Profile 4.1
Audio: Japanese / LPCM Audio / 2.0 / 48 kHz / 1536 kbps / 16-bit
Audio: Japanese / LPCM Audio / 2.0 / 48 kHz / 1536 kbps / 16-bit
Audio: Japanese / LPCM Audio / 2.0 / 48 kHz / 1536 kbps / 16-bit
Audio: Japanese / LPCM Audio / 2.0 / 48 kHz / 1536 kbps / 16-bit

********************
PLAYLIST: 00008.MPLS
********************

<--- BEGIN FORUMS PASTE --->

Код:

                                                                                                                Total   Video                                             
Title                                                           Codec   Length  Movie Size      Disc Size       Bitrate Bitrate Main Audio Track                          Secondary Audio Track
-----                                                           ------  ------- --------------  --------------  ------- ------- ------------------                        ---------------------
00008.MPLS                                                      AVC     0:00:50 78 428 160      37 152 306 484  12,41   9,88    LPCM 2.0 1536Kbps (48kHz/16-bit)         


Код:



DISC INFO:

Disc Title:     The Girl Who Leapt Through Time
Disc Size:      37 152 306 484 bytes
Protection:     AACS
BD-Java:        No
BDInfo:         0.5.5

PLAYLIST REPORT:

Name:                   00008.MPLS
Length:                 0:00:50 (h:m:s)
Size:                   78 428 160 bytes
Total Bitrate:          12,41 Mbps

VIDEO:

Codec                   Bitrate             Description     
-----                   -------             -----------     
MPEG-4 AVC Video        9876 kbps           1080p / 23,976 fps / 16:9 / High Profile 4.1

AUDIO:

Codec                           Language        Bitrate         Description     
-----                           --------        -------         -----------     
LPCM Audio                      Japanese        1536 kbps       2.0 / 48 kHz / 1536 kbps / 16-bit

SUBTITLES:

Codec                           Language        Bitrate         Description     
-----                           --------        -------         -----------     
Presentation Graphics           Japanese        1,070 kbps                     

FILES:

Name            Time In         Length          Size            Total Bitrate   
----            -------         ------          ----            -------------   
00006.M2TS      0:00:00.000     0:00:50.550     78 428 160      12 412         

CHAPTERS:

Number          Time In         Length          Avg Video Rate  Max 1-Sec Rate  Max 1-Sec Time  Max 5-Sec Rate  Max 5-Sec Time  Max 10Sec Rate  Max 10Sec Time  Avg Frame Size  Max Frame Size  Max Frame Time 
------          -------         ------          --------------  --------------  --------------  --------------  --------------  --------------  --------------  --------------  --------------  -------------- 
1               0:00:00.000     0:00:50.550     9 876 kbps      30 967 kbps     00:00:34.200    29 262 kbps     00:00:30.280    19 090 kbps     00:00:25.984    51 487 bytes    379 790 bytes   00:00:03.003   

STREAM DIAGNOSTICS:

File            PID             Type            Codec           Language                Seconds                 Bitrate                 Bytes           Packets         
----            ---             ----            -----           --------                --------------          --------------          -------------   -----           
00006.M2TS      4113 (0x1011)   0x1B            AVC                                     50,384                  9 908                   62 402 512      339 896         
00006.M2TS      4352 (0x1100)   0x80            LPCM            jpn (Japanese)          50,384                  1 701                   10 711 968      66 672         
00006.M2TS      4608 (0x1200)   0x90            PGS             jpn (Japanese)          50,384                  1                       6 762           44             

<---- END FORUMS PASTE ---->

QUICK SUMMARY:

Disc Title: The Girl Who Leapt Through Time
Disc Size: 37 152 306 484 bytes
Protection: AACS
BD-Java: No
Playlist: 00008.MPLS
Size: 78 428 160 bytes
Length: 0:00:50
Total Bitrate: 12,41 Mbps
Video: MPEG-4 AVC Video / 9876 kbps / 1080p / 23,976 fps / 16:9 / High Profile 4.1
Audio: Japanese / LPCM Audio / 2.0 / 48 kHz / 1536 kbps / 16-bit
Subtitle: Japanese / 1,070 kbps

********************
PLAYLIST: 00005.MPLS
********************

<--- BEGIN FORUMS PASTE --->

Код:

                                                                                                                Total   Video                                             
Title                                                           Codec   Length  Movie Size      Disc Size       Bitrate Bitrate Main Audio Track                          Secondary Audio Track
-----                                                           ------  ------- --------------  --------------  ------- ------- ------------------                        ---------------------
00005.MPLS                                                      AVC     0:00:32 55 683 072      37 152 306 484  13,91   11,20   DD AC3 2.0 448Kbps                       


Код:



DISC INFO:

Disc Title:     The Girl Who Leapt Through Time
Disc Size:      37 152 306 484 bytes
Protection:     AACS
BD-Java:        No
BDInfo:         0.5.5

PLAYLIST REPORT:

Name:                   00005.MPLS
Length:                 0:00:32 (h:m:s)
Size:                   55 683 072 bytes
Total Bitrate:          13,91 Mbps

VIDEO:

Codec                   Bitrate             Description     
-----                   -------             -----------     
MPEG-4 AVC Video        11202 kbps          480i / 29,970 fps / 4:3 / High Profile 3.2

AUDIO:

Codec                           Language        Bitrate         Description     
-----                           --------        -------         -----------     
Dolby Digital Audio             Japanese        448 kbps        2.0 / 48 kHz / 448 kbps / DN -4dB
Dolby Digital Audio             Japanese        448 kbps        2.0 / 48 kHz / 448 kbps / DN -4dB
Dolby Digital Audio             Japanese        448 kbps        2.0 / 48 kHz / 448 kbps / DN -4dB
Dolby Digital Audio             Japanese        448 kbps        2.0 / 48 kHz / 448 kbps / DN -4dB

SUBTITLES:

Codec                           Language        Bitrate         Description     
-----                           --------        -------         -----------     
Presentation Graphics           Japanese        0,940 kbps                     

FILES:

Name            Time In         Length          Size            Total Bitrate   
----            -------         ------          ----            -------------   
00005.M2TS      0:00:00.000     0:00:32.032     55 683 072      13 907         

CHAPTERS:

Number          Time In         Length          Avg Video Rate  Max 1-Sec Rate  Max 1-Sec Time  Max 5-Sec Rate  Max 5-Sec Time  Max 10Sec Rate  Max 10Sec Time  Avg Frame Size  Max Frame Size  Max Frame Time 
------          -------         ------          --------------  --------------  --------------  --------------  --------------  --------------  --------------  --------------  --------------  -------------- 
1               0:00:00.000     0:00:31.030     11 479 kbps     12 497 kbps     00:00:18.418    12 082 kbps     00:00:14.481    11 949 kbps     00:00:14.481    47 825 bytes    101 918 bytes   00:00:21.821   
2               0:00:31.030     0:00:01.001     2 627 kbps      0 kbps          00:00:00.000    0 kbps          00:00:00.000    0 kbps          00:00:00.000    11 334 bytes    47 151 bytes    00:00:31.998   

STREAM DIAGNOSTICS:

File            PID             Type            Codec           Language                Seconds                 Bitrate                 Bytes           Packets         
----            ---             ----            -----           --------                --------------          --------------          -------------   -----           
00005.M2TS      4113 (0x1011)   0x1B            AVC                                     31,899                  11 249                  44 854 024      244 317         
00005.M2TS      4352 (0x1100)   0x81            AC3             jpn (Japanese)          31,899                  499                     1 990 912       11 110         
00005.M2TS      4353 (0x1101)   0x81            AC3             jpn (Japanese)          31,899                  499                     1 990 912       11 110         
00005.M2TS      4354 (0x1102)   0x81            AC3             jpn (Japanese)          31,899                  499                     1 990 912       11 110         
00005.M2TS      4355 (0x1103)   0x81            AC3             jpn (Japanese)          31,899                  499                     1 990 912       11 110         
00005.M2TS      4608 (0x1200)   0x90            PGS             jpn (Japanese)          31,899                  1                       3 762           28             

<---- END FORUMS PASTE ---->

QUICK SUMMARY:

Disc Title: The Girl Who Leapt Through Time
Disc Size: 37 152 306 484 bytes
Protection: AACS
BD-Java: No
Playlist: 00005.MPLS
Size: 55 683 072 bytes
Length: 0:00:32
Total Bitrate: 13,91 Mbps
Video: MPEG-4 AVC Video / 11202 kbps / 480i / 29,970 fps / 4:3 / High Profile 3.2
Audio: Japanese / Dolby Digital Audio / 2.0 / 48 kHz / 448 kbps / DN -4dB
Audio: Japanese / Dolby Digital Audio / 2.0 / 48 kHz / 448 kbps / DN -4dB
Audio: Japanese / Dolby Digital Audio / 2.0 / 48 kHz / 448 kbps / DN -4dB
Audio: Japanese / Dolby Digital Audio / 2.0 / 48 kHz / 448 kbps / DN -4dB
Subtitle: Japanese / 0,940 kbps

********************
PLAYLIST: 00009.MPLS
********************

<--- BEGIN FORUMS PASTE --->

Код:

                                                                                                                Total   Video                                             
Title                                                           Codec   Length  Movie Size      Disc Size       Bitrate Bitrate Main Audio Track                          Secondary Audio Track
-----                                                           ------  ------- --------------  --------------  ------- ------- ------------------                        ---------------------
00009.MPLS                                                      AVC     0:00:32 54 945 792      37 152 306 484  13,72   11,00   DD AC3 2.0 448Kbps                       


Код:



DISC INFO:

Disc Title:     The Girl Who Leapt Through Time
Disc Size:      37 152 306 484 bytes
Protection:     AACS
BD-Java:        No
BDInfo:         0.5.5

PLAYLIST REPORT:

Name:                   00009.MPLS
Length:                 0:00:32 (h:m:s)
Size:                   54 945 792 bytes
Total Bitrate:          13,72 Mbps

VIDEO:

Codec                   Bitrate             Description     
-----                   -------             -----------     
MPEG-4 AVC Video        10995 kbps          480i / 29,970 fps / 4:3 / High Profile 3.2

AUDIO:

Codec                           Language        Bitrate         Description     
-----                           --------        -------         -----------     
Dolby Digital Audio             Japanese        448 kbps        2.0 / 48 kHz / 448 kbps / DN -4dB
Dolby Digital Audio             Japanese        448 kbps        2.0 / 48 kHz / 448 kbps / DN -4dB
Dolby Digital Audio             Japanese        448 kbps        2.0 / 48 kHz / 448 kbps / DN -4dB
Dolby Digital Audio             Japanese        448 kbps        2.0 / 48 kHz / 448 kbps / DN -4dB

SUBTITLES:

Codec                           Language        Bitrate         Description     
-----                           --------        -------         -----------     
Presentation Graphics           Japanese        1,879 kbps                     

FILES:

Name            Time In         Length          Size            Total Bitrate   
----            -------         ------          ----            -------------   
00029.M2TS      0:00:00.000     0:00:16.015     26 781 696      13 377         
00030.M2TS      0:00:16.015     0:00:16.015     28 164 096      14 068         

CHAPTERS:

Number          Time In         Length          Avg Video Rate  Max 1-Sec Rate  Max 1-Sec Time  Max 5-Sec Rate  Max 5-Sec Time  Max 10Sec Rate  Max 10Sec Time  Avg Frame Size  Max Frame Size  Max Frame Time 
------          -------         ------          --------------  --------------  --------------  --------------  --------------  --------------  --------------  --------------  --------------  -------------- 
1               0:00:00.000     0:00:31.030     11 265 kbps     12 795 kbps     00:00:24.290    12 031 kbps     00:00:18.451    11 740 kbps     00:00:19.252    46 935 bytes    147 529 bytes   00:00:19.953   
2               0:00:31.030     0:00:01.000     2 627 kbps      0 kbps          00:00:00.000    0 kbps          00:00:00.000    0 kbps          00:00:00.000    11 334 bytes    47 151 bytes    00:00:31.998   

STREAM DIAGNOSTICS:

File            PID             Type            Codec           Language                Seconds                 Bitrate                 Bytes           Packets         
----            ---             ----            -----           --------                --------------          --------------          -------------   -----           
00029.M2TS      4113 (0x1011)   0x1B            AVC                                     15,883                  10 991                  21 819 707      118 852         
00029.M2TS      4352 (0x1100)   0x81            AC3             jpn (Japanese)          15,883                  452                     897 792         5 010           
00029.M2TS      4353 (0x1101)   0x81            AC3             jpn (Japanese)          15,883                  452                     897 792         5 010           
00029.M2TS      4354 (0x1102)   0x81            AC3             jpn (Japanese)          15,883                  452                     897 792         5 010           
00029.M2TS      4355 (0x1103)   0x81            AC3             jpn (Japanese)          15,883                  452                     897 792         5 010           
00029.M2TS      4608 (0x1200)   0x90            PGS             jpn (Japanese)          15,883                  2                       3 762           28             
00030.M2TS      4113 (0x1011)   0x1B            AVC                                     15,883                  11 185                  22 205 625      120 956         
00030.M2TS      4352 (0x1100)   0x81            AC3             jpn (Japanese)          15,883                  565                     1 121 792       6 260           
00030.M2TS      4353 (0x1101)   0x81            AC3             jpn (Japanese)          15,883                  565                     1 121 792       6 260           
00030.M2TS      4354 (0x1102)   0x81            AC3             jpn (Japanese)          15,883                  565                     1 121 792       6 260           
00030.M2TS      4355 (0x1103)   0x81            AC3             jpn (Japanese)          15,883                  565                     1 121 792       6 260           
00030.M2TS      4608 (0x1200)   0x90            PGS             jpn (Japanese)          15,883                  2                       3 762           28             

<---- END FORUMS PASTE ---->

QUICK SUMMARY:

Disc Title: The Girl Who Leapt Through Time
Disc Size: 37 152 306 484 bytes
Protection: AACS
BD-Java: No
Playlist: 00009.MPLS
Size: 54 945 792 bytes
Length: 0:00:32
Total Bitrate: 13,72 Mbps
Video: MPEG-4 AVC Video / 10995 kbps / 480i / 29,970 fps / 4:3 / High Profile 3.2
Audio: Japanese / Dolby Digital Audio / 2.0 / 48 kHz / 448 kbps / DN -4dB
Audio: Japanese / Dolby Digital Audio / 2.0 / 48 kHz / 448 kbps / DN -4dB
Audio: Japanese / Dolby Digital Audio / 2.0 / 48 kHz / 448 kbps / DN -4dB
Audio: Japanese / Dolby Digital Audio / 2.0 / 48 kHz / 448 kbps / DN -4dB
Subtitle: Japanese / 1,879 kbps
info [Профиль]  [ЛС] 

quaka

Пол: Пол:Жен

Стаж: 7 лет 2 месяца

Сообщений: 11

Россия
Рейтинг

post 02-Сен-2010 01:20 (спустя 2 дня 4 часа) [-]-1[+]

[Цитировать] 

обожаю этот мультфильм!
info [Профиль]  [ЛС] 

Benzovorona

Пол: Пол:Жен

Стаж: 6 лет 9 месяцев

Сообщений: 161

Россия
Рейтинг

post 02-Сен-2010 01:21 (спустя 58 секунд) [-]0[+]

[Цитировать] 

доставляет ?
info [Профиль]  [ЛС] 

quaka

Пол: Пол:Жен

Стаж: 7 лет 2 месяца

Сообщений: 11

Россия
Рейтинг

post 02-Сен-2010 01:23 (спустя 1 минута) [-]0[+]

[Цитировать] 

очень =) столько раз пересматривала... душевно, интересно, и наша озвучка отличная.
info [Профиль]  [ЛС] 

Benzovorona

Пол: Пол:Жен

Стаж: 6 лет 9 месяцев

Сообщений: 161

Россия
Рейтинг

post 02-Сен-2010 01:24 (спустя 1 минута) [-]0[+]

[Цитировать] 

У меня плеер не такой резиновый)
info [Профиль]  [ЛС] 

Speculant

Пол: Пол:Муж

Стаж: 3 года 9 месяцев

Сообщений: 42

Россия
Рейтинг

post 26-Окт-2014 10:27 (спустя 4 года 1 месяц) [-]0[+]

[Цитировать] 

Скорости
info [Профиль]  [ЛС] 
Показать сообщения:    
Ответить на тему

Текущее время: 08-Дек 10:03

Часовой пояс: GMT + 4



Вы не можете начинать темы
Вы не можете отвечать на сообщения
Вы не можете редактировать свои сообщения
Вы не можете удалять свои сообщения
Вы не можете голосовать в опросах
Вы не можете прикреплять файлы к сообщениям
Вы не можете скачивать файлы