Ошибка

Расширенная версия короткометражки Red Dead Redemption (RUS) [2010 г., боевик, драма, приключения, вестерн, WEB-DL] [720p]

Ответить на тему
 
Автор Сообщение

Qarmaa

Пол: Пол:Муж

Стаж: 7 лет 8 месяцев

Сообщений: 748

Предупреждений: 1

Рейтинг

post 04-Июл-2010 20:22 0[+]

[Цитировать] 

pic="http://img820.imageshack.us/img820/7161/rdrsfpic.png"
Дата выпуска: 29 мая 2010
Страна: США
Жанр: боевик, драма, приключения, вестерн
Продолжительность: 00:29:00
Режиссер: Джон Хилкоат (John Hillcoat)
Язык озвучки: Английский
Русские субтитры: Присутствуют
Описание: 29 мая в США на телеканале FOX прошёл эксклюзивный показ короткометражного мультипликационного фильма, созданного в качестве рекламной поддержки Red Dead Redemption. 30-минутное видео было снято Джоном Хилкоатом (John Hillcoat). В фильме рассказывается о приключениях Джона Марстона (John Marston), который пытается выследить своего бывшего друга Билла Уиллиамсона (Bill Williamson). На своём пути герой встретит немало интересных персонажей.
Это расширенная версия короткометражки Red Dead Redemption.
Автор субтитров: artemnikitin (перевод основан на субтитрах от ENPY Studio)
Качество: WEB-DL
Формат: MP4
Видео кодек: AVC (H264)
Аудио кодек: AAC
Видео: AVC, 1280x720 (16/9), 29.970 fps, 6 618 Kbps (0.240 bit/pixel)
Аудио: AAC LC, 44.1 KHz, 2 ch, 128 Kbps, VBR

H:\Видео\Red Dead Redemption_shortfilm\reddeadredemption_shortfilm_1280x720.mp4
General
Complete name : H:\Видео\Red Dead Redemption_shortfilm\reddeadredemption_shortfilm_1280x720.mp4
Format : MPEG-4
Format profile : Base Media
Codec ID : isom
File size : 1.37 GiB
Duration : 29mn 0s
Overall bit rate : 6 752 Kbps
Encoded date : UTC 2010-06-08 17:42:54
Tagged date : UTC 2010-06-08 17:42:54
Writing application : Lavf52.31.0
Video #1
ID : 1
Format : AVC
Format/Info : Advanced Video Codec
Format profile : Main@L4.0
Format settings, CABAC : Yes
Format settings, ReFrames : 2 frames
Codec ID : avc1
Codec ID/Info : Advanced Video Coding
Duration : 29mn 0s
Bit rate mode : Variable
Bit rate : 6 618 Kbps
Width : 1 280 pixels
Height : 720 pixels
Display aspect ratio : 16:9
Frame rate mode : Variable
Frame rate : 29.970 fps
Minimum frame rate : 14.985 fps
Maximum frame rate : 29.970 fps
Resolution : 24 bits
Colorimetry : 4:2:0
Scan type : Progressive
Bits/(Pixel*Frame) : 0.240
Stream size : 1.34 GiB (98%)
Encoded date : UTC 2010-06-08 17:42:54
Tagged date : UTC 2010-06-08 17:42:54
Audio #2
ID : 2
Format : AAC
Format/Info : Advanced Audio Codec
Format version : Version 4
Format profile : LC
Format settings, SBR : No
Codec ID : 40
Duration : 29mn 0s
Bit rate mode : Variable
Bit rate : 128 Kbps
Channel(s) : 2 channels
Channel positions : L R
Sampling rate : 44.1 KHz
Resolution : 16 bits
Stream size : 26.6 MiB (2%)
Encoded date : UTC 2010-06-08 17:42:54
Tagged date : UTC 2010-06-08 17:42:54
info [Профиль]  [ЛС] 

Qarmaa

Пол: Пол:Муж

Стаж: 7 лет 8 месяцев

Сообщений: 748

Предупреждений: 1

Рейтинг

post 04-Июл-2010 20:23 (спустя 1 минута) [-]0[+]

[Цитировать] 

Ошибся разделом. Прошу модераторов перенести сюда.

_________________
We are CROSSWAVe /... クロスウェイブスタジオ / ..
info [Профиль]  [ЛС] 

Epic

Пол: Пол:Муж

Стаж: 6 лет 5 месяцев

Сообщений: 3477

Предупреждений: 1

Рейтинг

post 04-Июл-2010 20:24 (спустя 1 минута) [-]0[+]

[Цитировать] 

А че там такого расширенного? Че не вошло в игру!?
info [Профиль]  [ЛС] 

Qarmaa

Пол: Пол:Муж

Стаж: 7 лет 8 месяцев

Сообщений: 748

Предупреждений: 1

Рейтинг

post 04-Июл-2010 20:34 (спустя 9 минут) [-]0[+]

[Цитировать] 

Epic
Самые чоткие моменты в обычной версии были убраны. Теперь Вы можете лицезреть их в данном видео.

_________________
We are CROSSWAVe /... クロスウェイブスタジオ / ..
info [Профиль]  [ЛС] 

Epic

Пол: Пол:Муж

Стаж: 6 лет 5 месяцев

Сообщений: 3477

Предупреждений: 1

Рейтинг

post 04-Июл-2010 20:37 (спустя 3 минуты) [-]0[+]

[Цитировать] 

Qarmaa
а кинь фотки в тег

Код:

[th][/th]
info [Профиль]  [ЛС] 

NicoWhite

Пол: Пол:Муж

Стаж: 6 лет 9 месяцев

Сообщений: 93

Россия
Рейтинг

post 05-Июл-2010 11:47 (спустя 15 часов) [-]0[+]

[Цитировать] 

Да это походу просто набор кат сцен которые перед миссиями идут

_________________
info [Профиль]  [ЛС] 

creative787

Пол: Пол:Муж

Стаж: 7 лет 4 месяца

Сообщений: 31

Россия
Рейтинг

post 05-Июл-2010 12:00 (спустя 12 минут) [-]0[+]

[Цитировать] 

Почему находится в раздеде "Игры для PC"?

_________________
Xbox 360 решает!
info [Профиль]  [ЛС] 

TheOneFrane

Пол: Пол:Муж

Стаж: 6 лет 11 месяцев

Сообщений: 110

Россия
Рейтинг

post 05-Июл-2010 12:09 (спустя 8 минут) [-]0[+]

[Цитировать] 

creative787 писал(а):

Почему находится в раздеде "Игры для PC"?
Написали же выше что ошиблись разделом.

_________________
info [Профиль]  [ЛС] 

ksyukaksyu

Пол: Пол:Жен

Стаж: 6 лет 8 месяцев

Сообщений: 116

Россия
Рейтинг

post 05-Июл-2010 12:38 (спустя 29 минут) [-]0[+]

[Цитировать] 

а мульт сделан на движке игры?)
скрины реально выглядят как игровые
info [Профиль]  [ЛС] 

Wahorezko

Пол: Пол:Муж

Стаж: 7 лет 2 месяца

Сообщений: 721

Предупреждений: 1

Россия
Рейтинг

post 05-Июл-2010 14:47 (спустя 2 часа 9 минут) [-]0[+]

[Цитировать] 

creative787 писал(а):

Почему находится в раздеде "Игры для PC"?
чтобы еше раз подействовать на нервы пкшникам, которым либо не суждено поиграть в сей шедевр рокстара... )))
шучу...
info [Профиль]  [ЛС] 

Qarmaa

Пол: Пол:Муж

Стаж: 7 лет 8 месяцев

Сообщений: 748

Предупреждений: 1

Рейтинг

post 05-Июл-2010 16:51 (спустя 2 часа 3 минуты) [-]0[+]

[Цитировать] 

KsyuK писал(а):

а мульт сделан на движке игры?)
Да.

_________________
We are CROSSWAVe /... クロスウェイブスタジオ / ..
info [Профиль]  [ЛС] 
Показать сообщения:    
Ответить на тему

Текущее время: 09-Дек 08:03

Часовой пояс: GMT + 4



Вы не можете начинать темы
Вы не можете отвечать на сообщения
Вы не можете редактировать свои сообщения
Вы не можете удалять свои сообщения
Вы не можете голосовать в опросах
Вы не можете прикреплять файлы к сообщениям
Вы не можете скачивать файлы