Ошибка

(Garage rock, Alternative) The Dead Weather - Sea of Cowards - 2010, FLAC (Tracks+.CUE), lossless

Ответить на тему
 
Автор Сообщение

Jozaf

Пол: Пол:Муж

Стаж: 11 лет

Сообщений: 44

Бразилия
Рейтинг

post 11-Июн-2010 13:52 0[+]

[Цитировать] 




Жанр: Garage Rock. Alternative
Год издания данного носителя: 2010
Тип релиза: tracks+.cue
Аудио кодек: FLAC
Битрейт аудио: lossless
Источник: musicmetal.net
Полиграфия: отсутствует

Продолжительность: 35:12

Треклист:
  • 01. Blue Blood Blues 03:22
  • 02. Hustle and Cuss 03:46
  • 03. The Difference Between Us 03:37
  • 04. I'm Mad 03:16
  • 05. Die By the Drop 03:29
  • 06. I Can't Hear You 03:35
  • 07. Gasoline 02:45
  • 08. No Horse 02:49
  • 09. Looking at the Invisible Man 02:42
  • 10. Jawbreaker 02:58
  • 11. Old Mary 02:53

Код:

Exact Audio Copy V0.99 prebeta 5 from 4. May 2009

EAC extraction logfile from 7. May 2010, 19:05

The Dead Weather / Sea of Cowards

Used drive  : HL-DT-STDVDRAM GSA-H44N   Adapter: 0  ID: 1

Read mode               : Secure
Utilize accurate stream : Yes
Defeat audio cache      : Yes
Make use of C2 pointers : No

Read offset correction                      : 667
Overread into Lead-In and Lead-Out          : No
Fill up missing offset samples with silence : Yes
Delete leading and trailing silent blocks   : No
Null samples used in CRC calculations       : No
Used interface                              : Native Win32 interface for Win NT & 2000
Gap handling                                : Appended to previous track

Used output format              : User Defined Encoder
Selected bitrate                : 320 kBit/s
Quality                         : High
Add ID3 tag                     : No
Command line compressor         : C:\Program Files (x86)\FLAC\flac.exe
Additional command line options : -V -8 -T "artist=%a" -T "title=%t" -T "album=%g" -T "date=%y" -T "tracknumber=%n" -T "genre=%m" %s 

TOC of the extracted CD

     Track |   Start  |  Length  | Start sector | End sector
    ---------------------------------------------------------
        1  |  0:35.46 |  3:22.23 |      2671    |    17843   
        2  |  3:57.69 |  3:45.50 |     17844    |    34768   
        3  |  7:43.44 |  3:37.24 |     34769    |    51067   
        4  | 11:20.68 |  3:16.17 |     51068    |    65784   
        5  | 14:37.10 |  3:29.16 |     65785    |    81475   
        6  | 18:06.26 |  3:35.07 |     81476    |    97607   
        7  | 21:41.33 |  2:44.63 |     97608    |   109970   
        8  | 24:26.21 |  2:49.04 |    109971    |   122649   
        9  | 27:15.25 |  2:42.02 |    122650    |   134801   
       10  | 29:57.27 |  2:58.03 |    134802    |   148154   
       11  | 32:55.30 |  2:52.73 |    148155    |   161127   

Track  1

     Filename l:\Flac Rips\The Dead Weather - 2010 - Sea of Cowards\01 - Blue Blood Blues.wav

     Pre-gap length  0:00:37.61

     Peak level 100.0 %
     Track quality 100.0 %
     Test CRC 00F38E75
     Copy CRC 00F38E75
     Track not present in AccurateRip database
     Copy OK

Track  2

     Filename l:\Flac Rips\The Dead Weather - 2010 - Sea of Cowards\02 - Hustle And Cuss.wav

     Peak level 100.0 %
     Track quality 100.0 %
     Test CRC CC694B80
     Copy CRC CC694B80
     Track not present in AccurateRip database
     Copy OK

Track  3

     Filename l:\Flac Rips\The Dead Weather - 2010 - Sea of Cowards\03 - The Difference Between Us.wav

     Peak level 100.0 %
     Track quality 100.0 %
     Test CRC 1A8DDBB6
     Copy CRC 1A8DDBB6
     Track not present in AccurateRip database
     Copy OK

Track  4

     Filename l:\Flac Rips\The Dead Weather - 2010 - Sea of Cowards\04 - I'm Mad.wav

     Peak level 100.0 %
     Track quality 99.9 %
     Test CRC EAD9C572
     Copy CRC EAD9C572
     Track not present in AccurateRip database
     Copy OK

Track  5

     Filename l:\Flac Rips\The Dead Weather - 2010 - Sea of Cowards\05 - Die by the Drop.wav

     Peak level 100.0 %
     Track quality 99.9 %
     Test CRC F0164951
     Copy CRC F0164951
     Track not present in AccurateRip database
     Copy OK

Track  6

     Filename l:\Flac Rips\The Dead Weather - 2010 - Sea of Cowards\06 - I Can't Hear You.wav

     Peak level 100.0 %
     Track quality 100.0 %
     Test CRC D1014D1A
     Copy CRC D1014D1A
     Track not present in AccurateRip database
     Copy OK

Track  7

     Filename l:\Flac Rips\The Dead Weather - 2010 - Sea of Cowards\07 - Gasoline.wav

     Peak level 100.0 %
     Track quality 100.0 %
     Test CRC 778E3041
     Copy CRC 778E3041
     Track not present in AccurateRip database
     Copy OK

Track  8

     Filename l:\Flac Rips\The Dead Weather - 2010 - Sea of Cowards\08 - No Horse.wav

     Peak level 100.0 %
     Track quality 100.0 %
     Test CRC 5775B904
     Copy CRC 5775B904
     Track not present in AccurateRip database
     Copy OK

Track  9

     Filename l:\Flac Rips\The Dead Weather - 2010 - Sea of Cowards\09 - Looking at the Invisible Man.wav

     Peak level 100.0 %
     Track quality 99.9 %
     Test CRC 17FB2117
     Copy CRC 17FB2117
     Track not present in AccurateRip database
     Copy OK

Track 10

     Filename l:\Flac Rips\The Dead Weather - 2010 - Sea of Cowards\10 - Jawbreaker.wav

     Peak level 100.0 %
     Track quality 100.0 %
     Test CRC 45ED8788
     Copy CRC 45ED8788
     Track not present in AccurateRip database
     Copy OK

Track 11

     Filename l:\Flac Rips\The Dead Weather - 2010 - Sea of Cowards\11 - Old Mary.wav

     Peak level 100.0 %
     Track quality 100.0 %
     Test CRC 0D790EDF
     Copy CRC 0D790EDF
     Track not present in AccurateRip database
     Copy OK

None of the tracks are present in the AccurateRip database

No errors occurred

End of status report

Код:

REM GENRE Rock
REM DATE 2010
REM DISCID BD08410B
REM COMMENT "ExactAudioCopy v0.99pb5"
FILE "The Dead Weather - 2010 - Sea of Cowards\01 - Blue Blood Blues.wav" WAVE
  TRACK 01 AUDIO
    PREGAP 00:35:46
    INDEX 01 00:00:00
FILE "The Dead Weather - 2010 - Sea of Cowards\02 - Hustle And Cuss.wav" WAVE
  TRACK 02 AUDIO
    INDEX 01 00:00:00
FILE "The Dead Weather - 2010 - Sea of Cowards\03 - The Difference Between Us.wav" WAVE
  TRACK 03 AUDIO
    INDEX 01 00:00:00
FILE "The Dead Weather - 2010 - Sea of Cowards\04 - I'm Mad.wav" WAVE
  TRACK 04 AUDIO
    INDEX 01 00:00:00
FILE "The Dead Weather - 2010 - Sea of Cowards\05 - Die by the Drop.wav" WAVE
  TRACK 05 AUDIO
    INDEX 01 00:00:00
FILE "The Dead Weather - 2010 - Sea of Cowards\06 - I Can't Hear You.wav" WAVE
  TRACK 06 AUDIO
    INDEX 01 00:00:00
FILE "The Dead Weather - 2010 - Sea of Cowards\07 - Gasoline.wav" WAVE
  TRACK 07 AUDIO
    INDEX 01 00:00:00
FILE "The Dead Weather - 2010 - Sea of Cowards\08 - No Horse.wav" WAVE
  TRACK 08 AUDIO
    INDEX 01 00:00:00
FILE "The Dead Weather - 2010 - Sea of Cowards\09 - Looking at the Invisible Man.wav" WAVE
  TRACK 09 AUDIO
    INDEX 01 00:00:00
FILE "The Dead Weather - 2010 - Sea of Cowards\10 - Jawbreaker.wav" WAVE
  TRACK 10 AUDIO
    INDEX 01 00:00:00
FILE "The Dead Weather - 2010 - Sea of Cowards\11 - Old Mary.wav" WAVE
  TRACK 11 AUDIO
    INDEX 01 00:00:00
Состав группы
  • Элисон Моссхарт вокал, гитара, перкуссия
  • Джек Уайт ударные, вокал, гитара
  • Дин Фертита гитара, орган, фортепьяно, синтезатор, бас-гитара, бэк-вокал
  • Джек Лоуренс бас-гитара, гитара, ударные, бэк-вокал
info [Профиль]  [ЛС] 

Aktaff

Пол: Пол:Муж

Стаж: 12 лет

Сообщений: 102

Предупреждений: 1

США
Рейтинг

post 11-Июн-2010 18:07 (спустя 4 часа) [-]0[+]

[Цитировать] 

А я всегда думал, что они играют Indie, Post-Rock & Post-Punk ... хм...

_________________
info [Профиль]  [ЛС] 

Jozaf

Пол: Пол:Муж

Стаж: 11 лет

Сообщений: 44

Бразилия
Рейтинг

post 12-Июн-2010 01:33 (спустя 7 часов) [-]0[+]

[Цитировать] 

Да, в общем то, я тоже, но уже не стал перечить источнику, да и не суть...


Muse | Massive Attack | Kasabian | The Dead Weather | Berserk | MisFits | Ace Ventura | Порожденный | laHaine | Ask the Dust |
info [Профиль]  [ЛС] 

post 01-Дек-2010 19:49 (спустя 5 месяцев 19 дней) [-]0[+]

Топик был перенесен из форума Rосk (losslеss) в форум Архив (Зарубежный Rock)

Попрыгун
 
Показать сообщения:    
Ответить на тему

Текущее время: 28-Ноя 15:05

Часовой пояс: GMT + 4



Вы не можете начинать темы
Вы не можете отвечать на сообщения
Вы не можете редактировать свои сообщения
Вы не можете удалять свои сообщения
Вы не можете голосовать в опросах
Вы не можете прикреплять файлы к сообщениям
Вы не можете скачивать файлы