Ошибка

(Folk-Rock) Мельница - дискография (1999 - 2009), FLAC (image + .cue), lossless

Ответить на тему
 
Автор Сообщение

Bule22

Пол: Пол:Муж

Стаж: 6 лет 6 месяцев

Сообщений: 101

СССР
Рейтинг

post 30-Май-2010 13:28 0[+]

[Цитировать] 

Мельница - дискография

Страна: Россия
Жанр: Folk-Rock
Год выпуска: 2009
Формат: FLAC (image + .cue)
Битрейт аудио: lossless
Продолжительность: 5:48:51
О группе:
«Ме́льница» — российская фолк-рок группа из Москвы. Основана 15 октября 1999 года.
Группа «Мельница» играет акустическую и электроакустическую музыку. Инструменты: виолончель, флейта, мелодика, жалейка, висл, акустическая гитара, ударная установка, бас-гитара, арфа. Основным вокалистом в группе является солистка Хелависа, часть песен поёт гитарист Чус. Тексты и музыка песен основываются на народных (кельтских, скандинавских, русских), а также средневековых песнях, балладах, сказаниях. Не считая собственных сочинений, Мельница исполняет песни на стихи Н. Гумилёва, Р. Киплинга, Р. Бёрнса.
Трэклист:
01. Богиня Иштар (2:59)
02. Двери Тамерлана (3:40)
03. Дракон (4:13)
04. Королевна (5:27)
05. Дуб, Терновник и Ясень (3:46)
06. Горец (3:37)
07. Оборотень (5:43)
08. На север (3:32)
Общее время звучания: 32:58

Рип — битый, снят с ошибкой (см. лог).
Дополнительно обработан в аудиоредакторе, убраны «цыки»
Offset скорректирован в непосредственно в wav-файле (+48)
--- used in EAC:
generic: grabbing, "no use..." off [all bytes] : 2919BC53.
generic: grabbing, "no use..." on [word nulsamples l/r] : 04590B9C.
waveditor [word nulsamples l] : F858332B.
--- no used in EAC, only for reference:
byte ignore zeros : FBA6F463.
dword nulsamples : D707F4AA.
--- used in EAC:
generic: grabbing, "no use..." off [all bytes] : E006F61F.
generic: grabbing, "no use..." on [word nulsamples l/r] : 423BB342.
waveditor [word nulsamples l] : 7908C604.
--- no used in EAC, only for reference:
byte ignore zeros : BDC44CBD.
dword nulsamples : 1D95AD8C.
Отчёт EAC об извлечении, выполненном 18. июля 2006, 22:35 для диска:
Мельница / Двери Тамерлана

Дисковод: MAD DOG MD-16XDVD9A2 Adapter: 2 ID: 0
Режим чтения: Точный (C2: нет, Точный поток: да, Отключение кэша: да)
Комбинированное смещение чтения/записи: 0
Экстрачтение областей Lead-in и Lead-out : Нет

Выходной формат: Monkey's Audio Lossless Encoder v3.99 DLL
High Lossless Compression

Другие параметры:
Заполнение пропущенных сэмплов тишиной : Да
Удаление блоков с тишиной в начале и конце : Нет
Установленный внешний ASPI-интерфейс

Статус диапазона и ошибки
Выбранный диапазон
Имя файла C:\Music\Мельница\1999 Двери Тамерлана\Двери Тамерлана.ape

Пропущены сэмплы
Пиковый уровень 0.0 %
Качество диапазона 99.6 %
CRC D543824B
Копирование завершено

Были ошибки

Конец отчёта

------------------------------------------------------------

Отчёт EAC об извлечении, выполненном 18. июля 2006, 22:44 для диска:
Мельница / Двери Тамерлана

Дисковод: ROXIO CD-ROM EMULATOR Adapter: 0 ID: 0
Режим чтения: Точный (C2: нет, Точный поток: да, Отключение кэша: нет)
Коррекция смещения при чтении: 0
Экстрачтение областей Lead-in и Lead-out : Нет

Выходной формат: Monkey's Audio Lossless Encoder v3.99 DLL
High Lossless Compression

Другие параметры:
Заполнение пропущенных сэмплов тишиной : Да
Удаление блоков с тишиной в начале и конце : Нет
Установленный внешний ASPI-интерфейс

Статус диапазона и ошибки
Выбранный диапазон
Имя файла C:\Music\Мельница\1999 Двери Тамерлана\Двери Тамерлана.ape

Пиковый уровень 97.5 %
Качество диапазона 100.0 %
CRC 9315B7C0
Копирование... OK

Ошибок не произошло

Конец отчёта
Мельница - Двери Тамерлана (1999).cue:

Checking AccurateRip database

Track Ripping Status [Disc ID: 0009d210-5c07b908]

1 Track not present in database. [77b03f83]
2 Track not present in database. [9c365332]
3 Track not present in database. [c2dae8eb]
4 Track not present in database. [c9c7b904]
5 Track not present in database. [5469d1f2]
6 Track not present in database. [9a41deab]
7 Track not present in database. [f552affa]
8 Track not present in database. [1d4efefe]

_______________________

Disc not present in AccurateRip database.
01. Дорога сна (3:13)
02. Горец (3:25)
03. Ольга (4:39)
04. Лорд Грегори (2:20)
05. Змей (5:53)
06. Тарантелла (1:56)
07. Зима (4:21)
08. Оборотень (5:51)
09. Рапунцель (2:42)
10. Воин вереска (5:52)
11. Мора (4:11)
12. На север (3:34)
Общее время звучания: 47:59
Exact Audio Copy V0.99 prebeta 3 from 28. July 2007

Отчёт EAC об извлечении, выполненном 24. октября 2007, 19:30

Мельница / Дорога Сна

Дисковод: ASUS DRW-1608P Adapter: 1 ID: 0

Режим чтения : Достоверность
Использование точного потока : Да
Отключение кэша аудио : Да
Использование указателей C2 : Нет

Коррекция смещения при чтении : 48
Способность читать области Lead-in и Lead-out : Нет
Заполнение пропущенных сэмплов тишиной : Да
Удаление блоков с тишиной в начале и конце : Нет
При вычислениях CRC использовались нулевые сэмплы : Нет
Интерфейс : Встроенный Win32-интерфейс для Win NT/2000

Выходной формат : Внутренние WAV-операции
Формат сэмплов : 44.100 Гц; 16 бит; стерео

TOC извлечённого CD

Трек | Старт | Длительность | Начальный сектор | Конечный сектор
---------------------------------------------------------------------
1 | 0:00.00 | 3:13.15 | 0 | 14489
2 | 3:13.15 | 3:24.65 | 14490 | 29854
3 | 6:38.05 | 4:39.29 | 29855 | 50808
4 | 11:17.34 | 2:20.17 | 50809 | 61325
5 | 13:37.51 | 5:52.54 | 61326 | 87779
6 | 19:30.30 | 1:56.32 | 87780 | 96511
7 | 21:26.62 | 4:20.69 | 96512 | 116080
8 | 25:47.56 | 5:51.18 | 116081 | 142423
9 | 31:38.74 | 2:41.64 | 142424 | 154562
10 | 34:20.63 | 5:52.03 | 154563 | 180965
11 | 40:12.66 | 4:11.37 | 180966 | 199827
12 | 44:24.28 | 3:34.35 | 199828 | 215912

Характеристики диапазона извлечения и сообщения об ошибках

Выбранный диапазон

Имя файла E:\Музыка\Мельница - Дорога Сна.wav

Пиковый уровень 97.2 %
Качество диапазона 100.0 %
CRC копии F269F5D2
Копирование... OK

Ошибок не произошло

AccurateRip: сводка

Трек 1 точное извлечение (доверие 2) [ADFE1C89]
Трек 2 точное извлечение (доверие 2) [6EE6E7A5]
Трек 3 точное извлечение (доверие 2) [D690118C]
Трек 4 точное извлечение (доверие 2) [0AAE0633]
Трек 5 точное извлечение (доверие 2) [88DAD1E8]
Трек 6 точное извлечение (доверие 2) [878B1373]
Трек 7 точное извлечение (доверие 2) [7014A150]
Трек 8 точное извлечение (доверие 2) [F76F541C]
Трек 9 точное извлечение (доверие 2) [BF4637B8]
Трек 10 точное извлечение (доверие 2) [A22F922C]
Трек 11 точное извлечение (доверие 2) [BD462120]
Трек 12 точное извлечение (доверие 2) [08997560]

Все треки извлечены точно

Конец отчёта
01. Master of the Wind (6:03)
02. Голем (2:06)
03. Двери Тамерлана (3:36)
04. Луч солнца золотого (2:42)
05. Травушка (4:00)
06. Дракон (4:13)
07. Богиня Иштар (2:58)
Общее время звучания: 25:38

Offset скорректирован в непосредственно в wav-файле (+48)
EAC extraction logfile from 4. May 2007, 14:00 for CD
Мельница / Master Of The Mill

Used drive : _NEC DVD_RW ND-3520AW Adapter: 0 ID: 1
Read mode : Secure with NO C2, accurate stream, disable cache
Combined read/write offset correction : 0
Overread into Lead-In and Lead-Out : No

Used output format : Internal WAV Routines
44.100 Hz; 16 Bit; Stereo

Other options :
Fill up missing offset samples with silence : Yes
Delete leading and trailing silent blocks : No
Native Win32 interface for Win NT & 2000

Range status and errors
Selected range
Filename D:\wdac\Мельница - Master of the Mill\Мельница - Master Of The Mill.wav

Peak level 99.9 %
Range quality 99.9 %
CRC 0BB4B54E
Copy OK

No errors occured

End of status report
01. Ночная кобыла (4:04)
02. Господин горных дорог (5:19)
03. Весна (3:44)
04. Фуга (3:17)
05. Чужой (4:33)
06. Ворон (5:16)
07. Голем (2:07)
08. Мертвец (3:56)
09. Вереск (4:11)
10. Прялка (6:15)
11. Королевна (14:29)
Общее время звучания: 57:11
Отчёт EAC об извлечении, выполненном 15. апреля 2007, 21:23 для диска:
Мельница / Перевал

Дисковод: _NEC DVD_RW ND-1300A Adapter: 1 ID: 0
Режим чтения: Достоверный (C2: нет, Точный поток: да, Отключение кэша: да)
Коррекция смещения при чтении: 48
Способность читать области Lead-in и Lead-out : Нет

Выходной формат: Внутренние WAV-операции
44.100 Гц; 16 бит; стерео

Другие параметры:
Заполнение пропущенных сэмплов тишиной : Да
Удаление блоков с тишиной в начале и конце : Нет
Установленный внешний ASPI-интерфейс

Характеристики диапазона извлечения и сообщения об ошибках
Выбранный диапазон
Имя файла D:\NLTT\Мельница - Перевал.wav

Пиковый уровень 96.6 %
Качество диапазона 100.0 %
CRC 72736941
Копирование... OK

Ошибок не произошло

Конец отчёта
01. Невеста Полоза (4:32)
02. Зов крови (4:00)
03. Двери Тамерлана (3:29)
04. Травушка (3:55)
05. Сестра (3:33)
06. Полнолуние (4:15)
07. Сказка о Дьяволе (6:41)
08. Дракон (3:59)
09. Ай, волна (4:16)
10. Ворожи (3:41)
11. Огонь (5:03)
12. Лента в волосах (3:05)
13. Белая кошка (4:42)
14. Рапунцель (2:26)
Общее время звучания: 57:37

Offset скорректирован в непосредственно в wav-файле (+48)
Отчёт EAC об извлечении, выполненном 4. декабря 2006, 11:22 для диска:
Мельница / Зов Крови

Дисковод: _NEC DVD_RW ND-3570A Adapter: 0 ID: 1
Режим чтения: Достоверный (C2: да, Точный поток: да, Отключение кэша: нет)
Комбинированное смещение чтения/записи: 0
Способность читать области Lead-in и Lead-out : Нет

Выходной формат: C:\Program Files\Exact Audio Copy\wapet.exe (Пользовательский кодировщик)
128 kBit/s
Дополнительные параметры: %d -t "Artist=%a" -t "Title=%t" -t "Album=%g" -t "Year=%y" -t "Track=%n" -t "Genre=%m" mac.exe %s %d -c3000 -v

Другие параметры:
Заполнение пропущенных сэмплов тишиной : Да
Удаление блоков с тишиной в начале и конце : Нет
Установленный внешний ASPI-интерфейс

Характеристики диапазона извлечения и сообщения об ошибках
Выбранный диапазон
Имя файла C:\Alexei\Music\Themill\Мельница - Зов крови.wav.wav

Пиковый уровень 99.7 %
Качество диапазона 100.0 %
CRC 279330E0
Копирование... OK

Ошибок не произошло

Конец отчёта
01. На север (3:34)
02. Дорога сна (3:11)
03. Господин горных дорог (5:21)
04. Травушка (3:57)
05. Ночная кобыла (4:04)
06. Чужой (4:32)
07. Огонь (5:04)
08. Рапунцель (2:41)
09. Ворожи (3:42)
10. Прялка (6:16)
11. Оборотень (5:48)
12. Полнолуние (4:16)
13. Мора (4:10)
14. Королевна (5:19)
15. Невеста Полоза (4:32)
16. Горец (3:25)
Общее время звучания: 1:09:52
Отчёт EAC об извлечении, выполненном 5. января 2008, 12:32 для диска:
Unknown Artist / Unknown Title

Дисковод: _NEC CD-RW NR-9500B Adapter: 0 ID: 1
Режим чтения: Достоверный (C2: нет, Точный поток: да, Отключение кэша: да)
Коррекция смещения при чтении: 145
Способность читать области Lead-in и Lead-out : Нет

Выходной формат: Monkey's Audio Lossless Encoder v3.99 DLL
High Lossless Compression

Другие параметры:
Заполнение пропущенных сэмплов тишиной : Да
Удаление блоков с тишиной в начале и конце : Нет
Установленный внешний ASPI-интерфейс

Характеристики диапазона извлечения и сообщения об ошибках
Выбранный диапазон
Имя файла H:\ЗАКАЧКИ\для закачки\Mill2007BestAPE\Unknown Artist - Unknown Title.ape

Пиковый уровень 99.7 %
Качество диапазона 99.8 %
CRC 7EAA9249
Копирование... OK

Ошибок не произошло

Конец отчёта
01. Опасное лето (4:24)
02. Далеко (4:14)
03. Шелкопряд (4:15)
04. А если бы он (4:02)
05. Ведьма (4:55)
06. Кувшин (4:28)
07. Княже (5:46)
08. Ветер (4:46)
08. Шаман (6:15)
08. Волкодав (5:01)
08. Ушба (5:06)
08. Океан (4:24)
Общее время звучания: 57:36
Exact Audio Copy V0.99 prebeta 1 from 25. May 2007

Отчёт EAC об извлечении, выполненном 18. марта 2009, 2:37

Мельница / Дикие травы

Дисковод: TSSTcorpCD/DVDW TS-L632D Adapter: 1 ID: 1

Режим чтения : Достоверность
Использование точного потока : Да
Отключение кэша аудио : Да
Использование указателей C2 : Нет

Коррекция смещения при чтении : 6
Способность читать области Lead-in и Lead-out : Нет
Заполнение пропущенных сэмплов тишиной : Да
Удаление блоков с тишиной в начале и конце : Нет
Интерфейс : Встроенный Win32-интерфейс для Win NT/2000

Выходной формат : Пользовательский кодировщик
Выбранный битрейт : 1024 kBit/s
Качество : Высокий
Добавление ID3-тэга : Нет
Утилита сжатия : C:\Program Files\FLAC\flac.exe
Дополнительные параметры : -8 -V %s -o %d

TOC извлечённого CD

Трек | Старт | Длительность | Начальный сектор | Конечный сектор
---------------------------------------------------------------------
1 | 0:00.00 | 4:24.04 | 0 | 19803
2 | 4:24.04 | 4:13.43 | 19804 | 38821
3 | 8:37.47 | 4:14.68 | 38822 | 57939
4 | 12:52.40 | 4:01.49 | 57940 | 76063
5 | 16:54.14 | 4:54.69 | 76064 | 98182
6 | 21:49.08 | 4:27.67 | 98183 | 118274
7 | 26:17.00 | 5:46.18 | 118275 | 144242
8 | 32:03.18 | 4:46.16 | 144243 | 165708
9 | 36:49.34 | 6:15.29 | 165709 | 193862
10 | 43:04.63 | 5:01.12 | 193863 | 216449
11 | 48:06.00 | 5:05.70 | 216450 | 239394
12 | 53:11.70 | 4:24.00 | 239395 | 259194

Характеристики диапазона извлечения и сообщения об ошибках

Выбранный диапазон

Имя файла C:\Users\Sirleh\Desktop\Мельница\Мельница - Дикие травы.wav

Пиковый уровень 100.0 %
Качество диапазона 100.0 %
CRC теста F32FE81A
CRC копии F32FE81A
Копирование... OK

Ошибок не произошло

Конец отчёта
Доп. информация: Альбом «Двери Тамерлана» снят с ошибкой (см. лог). Дополнительно обработан в аудиоредакторе, убраны «цыки». Подробности смотрите в спойлере.
info [Профиль]  [ЛС] 

TheMrMafiozi

Пол: Пол:Муж

Стаж: 6 лет 9 месяцев

Сообщений: 859

СССР
Рейтинг

post 30-Май-2010 13:51 (спустя 23 минуты) [-]0[+]

[Цитировать] 

Залейте постеры для альбомов на другой хостинг!

_________________
観自在菩薩行深般若波羅蜜多時、照見五蘊皆空、度一切苦厄。舎利子
も自由にお使いく
言語の科
info [Профиль]  [ЛС] 

Bule22

Пол: Пол:Муж

Стаж: 6 лет 6 месяцев

Сообщений: 101

СССР
Рейтинг

post 30-Май-2010 14:37 (спустя 45 минут) [-]0[+]

[Цитировать] 

Исправил.
info [Профиль]  [ЛС] 

TirelEngel

Пол: Пол:Муж

Стаж: 7 лет 3 месяца

Сообщений: 1986

Предупреждений: 5

Россия
Рейтинг

post 30-Май-2010 15:22 (спустя 44 минуты) [-]0[+]

[Цитировать] 

Вообще не в тему... но кто подскажет, почему у меня постоянно при открытии страницы с какой нибудь раздачей все спойлеры по умолчанию открыты, и как это исправить?...

_________________
info [Профиль]  [ЛС] 

Baraban

Пол: Пол:Муж

Стаж: 7 лет 2 месяца

Сообщений: 13

Россия
Рейтинг

post 30-Май-2010 20:00 (спустя 4 часа) [-]0[+]

[Цитировать] 

TirelEngel писал(а):

Вообще не в тему... но кто подскажет, почему у меня постоянно при открытии страницы с какой нибудь раздачей все спойлеры по умолчанию открыты, и как это исправить?...
В настроиках саита есть такои пункт
info [Профиль]  [ЛС] 
Показать сообщения:    
Ответить на тему

Текущее время: 11-Дек 14:01

Часовой пояс: GMT + 4



Вы не можете начинать темы
Вы не можете отвечать на сообщения
Вы не можете редактировать свои сообщения
Вы не можете удалять свои сообщения
Вы не можете голосовать в опросах
Вы не можете прикреплять файлы к сообщениям
Вы не можете скачивать файлы