Ошибка

(Rock) Ляпис Трубецкой - Дискография, APE (image+.cue)+covers, lossless

Ответить на тему
 
Автор Сообщение

DeadFine

Пол: Пол:Муж

Стаж: 7 лет 7 месяцев

Сообщений: 301

Россия
Рейтинг

post 27-Апр-2010 13:41 1[+]

[Цитировать] 

Ляпис Трубецкой - Дискография



Жанр: Rock
Происхождение исполнителя: Беларусь
Год издания данного носителя: 1998-2009
Страна-производитель носителя: Россия
Тип релиза: image+.cue
Аудио кодек: APE
Битрейт аудио: lossless
Продолжительность: 13:36:44


Трэклист:
1. Ау — 3:54
2. Ранетое Сердце (Абы Чо) — 5:46
3. Ты Кинула — 3:57
4. Пастушок — 4:38
5. Эта девочка — 4:30
6. Паренек Под Следствием — 4:10
7. В Платье Белом — 4:58
8. Евпатория — 5:53
9. Метелица — 4:30
10. Облака — 4:58
11. Почему Любовь Уходит — 5:28
Отчёт EAC об извлечении, выполненном 20. октября 2007, 15:36 для диска: 
Ляпис Трубецкой / Ты Кинула

Дисковод: ASUS DVD-E616P Adapter: 4 ID: 0
Режим чтения: Достоверный (C2: нет, Точный поток: да, Отключение кэша: да)
Коррекция смещения при чтении: 102
Способность читать области Lead-in и Lead-out : Нет

Выходной формат: Внутренние WAV-операции
44.100 Гц; 16 бит; стерео

Другие параметры:
Заполнение пропущенных сэмплов тишиной : Да
Удаление блоков с тишиной в начале и конце : Нет
Встроенный Win32-интерфейс для Win NT/2000

Характеристики диапазона извлечения и сообщения об ошибках
Выбранный диапазон
Имя файла C:\My Music\Ляпис Трубецкой\Ляпис Трубецкой - Ты Кинула.wav

Пиковый уровень 99.9 %
Качество диапазона 100.0 %
CRC 0C368A8B
Копирование... OK

Ошибок не произошло

Конец отчёта
СОСТАВ ГРУППЫ НА МОМЕНТ ЗАПИСИ:

С. Михалок - вокал, аккордеон

Р. Владыко - гитары, клавиши, аккордеон

Г. Дрындин - труба

П. Кузюкович - валторна

А. Любавин - ударные

А. Ролов - гитара, вокал (на песне "Пастушок")

Д. Свиридович - бас-гитара (все песни, кроме "Ау" и "Абы Чо")

В. Башков - бас-гитара (на песнях "Ау" и "Абы Чо")

П. Булатников - не участвовал в записи

Альбом "ТЫ КИНУЛА" стал первым в биографии коллектива изданием на территории Российской Федерации. Более того, этот альбом стал первым CD-изданием группы ЛЯПИС ТРУБЕЦКОЙ. Большинство композиций альбома были написаны в первой половине 1990-х годов, часть из этих песен была впервые выпущена на альбоме "РАНЕТОЕ СЕРДЦЕ" 1996 года. Для альбома "ТЫ КИНУЛА" все композиции были перезаписаны вновь. Работа над альбомом началась в феврале 1997 года, весь материал был готов к осени 1997 года, однако, релиз пластинки состоялся в феврале 1998 года. К тому времени уже был готов клип на композицию "Ау", на базе кадров из которого обложка альбома и была оформлена. К альбому также прилагался комикс, в котором была проиллюстрирована трагическая история, основанная на тексте песни "ТЫ КИНУЛА". Оформили альбом А. Терехов и М. Тыминько, комикс нарисовал В. Почицкий (на диске указано - Пачицкий). Идея комикса, кстати, принадлежит Е. Колмыкову.

Существует две версии альбома - "лицензионная" (с 4-х страничным вкладышем) и "фирменная" (с 8-ми страничным буклетом).

Александр Ролов покинул группу летом 1997, однако, осенью того же года у "ЛЯПИСОВ" появился новый участник - 25-ти летний Павел Булатников, экс-вокалист минского дуэта "Лицей" (прошу не путать с одноименной Российской поп-группой). Его можно увидеть на задней стороне обложки альбома - именно Булатников на тот период времени был самым длинноволосым участником группы (в момент выхода "ТЫ КИНУЛА" Павел состриг половину длины своих волос...).

Альбом добился огромной популярности у жителей СНГ, а композиции "Ау", "В Платье Белом", "Ты Кинула" и "Евпатория" находились в активной ротации на радиостанциях.

Во время работы над альбомом были также записаны песни "ЛЕЧУ В МОСКВУ", "СЕДОВЛАСЫЙ СЛЕПЕЦ (СЛЕПОЙ ГУСЛЯР)", "ПОЛЧАСА ДО ВЕСНЫ". Началась работа над композицией "БЕРЕЗКИ", предназначавшейся специально для Павла Булатникова.

Из воспоминаний Сергея Михалка (2000 год): "Сюда не вошли "Я лечу в Москву" и "Седовласый слепец". Последняя смахивает больше на Маршала. В общем, альбом нравится. Только вот не очень хорошие версии "Ау" и "Абы чо". Это первые две песни, которые мы записали в Москве. При прослушивании складывалось впечатление, что они как бы из кусков составлены. Это издержки наших первых московских приключений, когда дядьки на студии сидели и советовали: "Здесь так, здесь этак". Причем сводил не тот человек, который сводил потом все. В результате все немножко угловато и "Абы чо" должного места не заняла. В моем рейтинге она в первой тройке песен. Сейчас я с большим удовольствием могу слушать "Абы чо" и "Евпаторию", нежели "Ты кинула", "В платье белом" не говоря уже об "Ау"".
Трэклист:
1. Был В Керчи — 2:58
2. Серый — 4:50
3. Лебедушка — 5:10
4. Чотка Нам У Лесе — 3:52
5. Любовь — 3:59
6. Цыки-цык — 2:48
7. Любови Капец — 3:01
8. Не Давай — 5:25
9. Меланхолия — 4:02
10. Ливни Осенние — 5:26
11. Зеленоглазое Такси — 2:49
Отчёт EAC об извлечении, выполненном 23. декабря 2007, 20:38 для диска: 
ляпис трубецкой / 1998 любови капец (архивные записи 1992-1995 г.г.)

Дисковод: TOSHIBA DVD-ROM SD-M1712 Adapter: 0 ID: 0
Режим чтения: Точный (C2: нет, Точный поток: да, Отключение кэша: да)
Коррекция смещения при чтении: -472
Экстрачтение областей Lead-in и Lead-out : Нет

Выходной формат: Внутренние WAV-операции
44.100 Гц; 16 бит; стерео

Другие параметры:
Заполнение пропущенных сэмплов тишиной : Да
Удаление блоков с тишиной в начале и конце : Нет
'Родной' Win32-интерфейс для Win NT/2000

Статус диапазона и ошибки
Выбранный диапазон
Имя файла D:\1998 любови капец (архивные записи 1992-1995 г.wav

Пиковый уровень 87.7 %
Качество диапазона 100.0 %
CRC A080467B
Копирование... OK

Ошибок не произошло

Конец отчёта
СОСТАВ ГРУППЫ НА МОМЕНТ ЗАПИСИ:

С. Михалок - вокал, аккордеон

Р. Владыко - гитары, клавиши, аккордеон

Г. Дрындин - труба

П. Кузюкович - валторна

А. Любавин - ударные

А. Ролов - гитара, бэк-вокал (со-автор композиции "Чотка Нам У Лесе" и "Серый")

Д. Свиридович - бас-гитара

О. Ладо - бас-гитара

Данная компиляция увидела свет в августе 1998 года. Инициатива издания данного сборника целиком принадлежала руководству компании "СОЮЗ", которое пыталось получить максимум выгоды после успешных продаж альбома "Ты Кинула". Надо отметить, данный сборник оказался коммерчески успешным - наиболее популярной стала кавер-версия на композицию Олега Кваши "ЗЕЛЕНОГЛАЗОЕ ТАКСИ". В декабре 1998 года группа даже выступила на "Голубом Огоньке" с этой композицией. Чрезмерная популярность столь своеобразного кавера вызвала гнев и негодование у композитора Олега Кваши, в результате он подал в суд на группу "ЛЯПИС ТРУБЕЦКОЙ" за "издевательское отношение к композиции".

Композиции "ЗЕЛЕНОГЛАЗОЕ ТАКСИ", "ЦЫКИ ЦЫК", "ЛИВНИ ОСЕННИЕ", "ЛЮБОВИ КАПЕЦ", "НЕ ДАВАЙ", "ЛЮБОВЬ" уже издавались в 1996-м году на альбоме "РАНЕТОЕ СЕРДЦЕ", поэтому не являются "архивными".

Составители сборника допустили серьезную ошибку, назвав его "АРХИВНЫЕ ЗАПИСИ 1992-1995", так как большинство записей сделано после 1995 года. Судя по всему, наиболее ранней записью на сборнике является "ЧОТКА НАМ У ЛЕСЕ", записанная примерно в 1994-м году. К 1995-му году относятся "МЕЛАНХОЛИЯ", "Цыки Цык", "Лебедушка". Остальные композиции записаны в 1996-м году.

Альбом оформил художник В. Пачицкий. К диску прилагался комикс, основанный на сюжете песни "БЫЛ В КЕРЧИ".

Из воспоминаний Сергея Михалка (2000 год): "Есть хорошие песни, но я не имел никакого отношения к выпуску этого альбома. Для времени, когда это было записано, это было нормально. Но после "Ты кинула", после его качества записи, это неуместный релиз. Его бы надо было сначала как-то доработать, но мы же не занимались его выпуском. Хотя есть хорошие песни, взять ту же "Любови капец"".
Трэклист:
1. Сказочка (4:20)
2. Яблони (5:32)
3. Русалки (4:23)
4. Летчик и Моряк (4:22)
5. Саня-Таня (4:20)
6. Петька-Морячок (3:04)
7. Розочка (4:12)
8. Вернись (5:16)
9. Чертовки (5:00)
10. Березки (4:50)
11. Снежная Королева (3:26)
12. Красота (3:23)
Отчёт EAC об извлечении, выполненном 20. октября 2007, 15:52 для диска: 
Ляпис Трубецкой / Красота

Дисковод: ASUS DVD-E616P Adapter: 4 ID: 0
Режим чтения: Достоверный (C2: нет, Точный поток: да, Отключение кэша: да)
Коррекция смещения при чтении: 102
Способность читать области Lead-in и Lead-out : Нет

Выходной формат: Внутренние WAV-операции
44.100 Гц; 16 бит; стерео

Другие параметры:
Заполнение пропущенных сэмплов тишиной : Да
Удаление блоков с тишиной в начале и конце : Нет
Встроенный Win32-интерфейс для Win NT/2000

Характеристики диапазона извлечения и сообщения об ошибках
Выбранный диапазон
Имя файла C:\My Music\Ляпис Трубецкой\Ляпис Трубецкой - Красота\Ляпис Трубецкой - Красота.wav

Пиковый уровень 100.0 %
Качество диапазона 99.9 %
CRC E1F210DC
Копирование... OK

Ошибок не произошло

Конец отчёта
СОСТАВ ГРУППЫ НА МОМЕНТ ЗАПИСИ:

С. Михалок - вокал, аккордеон

П. Булатников - вокал

Р. Владыко - гитары, клавиши, аккордеон

Г. Дрындин - труба

П. Кузюкович - валторна

А. Любавин - ударные

Д. Свиридович - бас-гитара

Второй полноценный альбом "ЛЯПИСОВ", выпущенный на территории Российской Федерации. Альбом получился весьма долгожданным, но вызвал крайне противоречивую реакцию у слушателей. Многие хотели услышать песни, идентичные композициям с альбома "КИНУЛА". Однако, альбом "КРАСОТА" оказался едва ли не полной противоположностью альбому 1998 года: в песнях лишь слегка наблюдался стеб, более того, появились достаточно серьезные композиции. Часть песен была исполнена Павлом Булатниковым, что также вызвало недоумение у большого числа слушателей.

Тем не менее, в коммерческом плане, альбом оказался весьма успешным. Клипы "РОЗОЧКА" и "ЯБЛОНИ" находились в постоянной ротации на музыкальных телеканалах. Песни "РОЗОЧКА", "ЯБЛОНИ", "БЕРЕЗКИ" достаточно часто передавали по радиостанциям.

Пожалуй, наиболее сильной стороной альбома является его оформление. Для обложки альбома были использованы фрагменты клипа "РОЗОЧКА" (режиссеры - А. Терехов, М. Тыминько).

Большая часть песен была записана осенью 1998 года. В феврале-марте 1999 года были дописаны песни "СНЕЖНАЯ КОРОЛЕВА", "ЯБЛОНИ", "СКАЗОЧКА". Песни "ПЕТЬКА-МОРЯЧОК", "ЛЕТЧИК И МОРЯК" исполнялись группой на концертах с 1995 года. Вступление к песне "ЯБЛОНИ" Руслан Владыко позаимствовал из композиции "ГДЕ ЖЕ ТЫ, МОЯ КАХАНИЕ", которую "ЛЯПИСЫ" исполняли в середине 1990-х годов.

Демо-версии некоторых композиций к альбому "КРАСОТА" можно было найти на официальном сайте группы.

В период работы над альбомом Сергей Михалок значительно поправился, отрастил длинные волосы. Так появился образ "вечнопьяного бородатого толстяка Ляписа Трубецкого"...

Для альбома были записаны композиции "КРОШКА МОЯ", "О-О-О" и "ЛЮБОВЬ ПОВЕРНУЛАСЬ КО МНЕ ЗАДОМ", которые так и не вошли в него.
Трэклист:
1. Любовь Повернулась Ко Мне Задом (4:02)
2. Крошка Моя (3:24)
3. Розочка (4:12)
4. Яблони (5:32)
5. Русалки (4:23)
6. Чертовки (5:00)
7. Снежная Королева (3:26)
8. Петька-Морячок (3:04)
9. Саня-Таня (4:20)
10. Летчик и Моряк (4:22)
11. Сказочка (4:20)
12. Вернись (5:16)
13. Березки (4:50)
14. Красота (3:23)
15. Виноградная Лоза (3:28)
Отчёт EAC об извлечении, выполненном 23. декабря 2007, 21:16 для диска: 
ляпис трубецкой / 2000 всем девчонкам нравится...

Дисковод: TOSHIBA DVD-ROM SD-M1712 Adapter: 0 ID: 0
Режим чтения: Точный (C2: нет, Точный поток: да, Отключение кэша: да)
Коррекция смещения при чтении: -472
Экстрачтение областей Lead-in и Lead-out : Нет

Выходной формат: Внутренние WAV-операции
44.100 Гц; 16 бит; стерео

Другие параметры:
Заполнение пропущенных сэмплов тишиной : Да
Удаление блоков с тишиной в начале и конце : Нет
'Родной' Win32-интерфейс для Win NT/2000

Статус диапазона и ошибки
Выбранный диапазон
Имя файла D:\2000 всем девчонкам нравится....wav

Пиковый уровень 100.0 %
Качество диапазона 99.9 %
CRC 127E6627
Копирование... OK

Ошибок не произошло

Конец отчёта
СОСТАВ ГРУППЫ НА МОМЕНТ ЗАПИСИ:

С. Михалок - вокал, аккордеон

П. Булатников - вокал

Р. Владыко - гитары, клавиши, аккордеон

Г. Дрындин - труба

П. Кузюкович - валторна

А. Любавин - ударные

Д. Свиридович - бас-гитара

"ВСЕМ ДЕВЧОНКАМ НРАВИТСЯ" - переиздание альбома "КРАСОТА", релиз которого состоялся в январе 2000 года. Выпуск данной компиляции был связан с расторжением контракта между "ЛЯПИСАМИ" и студией "СОЮЗ". В результате расторжения контракта студии "СОЮЗ" переходило право на издание композиций "ЛЮБОВЬ ПОВЕРНУЛАСЬ КО МНЕ ЗАДОМ" и "КРОШКА МОЯ". Обе композиции были записаны осенью 1998 года для альбома "КРАСОТА", но не вошли в него. Песня "КРОШКА МОЯ" является ремейком одноименного хита группы "РУКИ ВВЕРХ".

Существует две версии альбома - "лицензионная" (с 4-х страничным вкладышем) и "фирменная" (с 8-ми страничным буклетом).
Трэклист:
1. Девочка с Бездонными Глазами (3:56)
2. По Аллеям (3:18)
3. Дружбан (3:01)
4. Ася (4:47)
5. НЛО (4:47)
6. Дождь Льет (5:31)
7. Чаечки (4:44)
8. Спорт Прошел (3:26)
9. Серый (4:26)
10. Виноградная Лоза (3:31)
11. Холодная Мамба (3:22)
12. Bonus Track: Спорт Прошел (Игорь Вдовин RMX (на диске - "Ляпис Трубецкой" и группа "Ленинград")
Exact Audio Copy V0.99 prebeta 4 from 23. January 2008 

Отчёт EAC об извлечении, выполненном 18. января 2009, 23:02

Ляпис Трубецкой / Тяжкий

Дисковод: _NEC DVD_RW ND-3500AG Adapter: 0 ID: 1

Режим чтения : Достоверность
Использование точного потока : Да
Отключение кэша аудио : Да
Использование указателей C2 : Нет

Коррекция смещения при чтении : 48
Способность читать области Lead-in и Lead-out : Нет
Заполнение пропущенных сэмплов тишиной : Да
Удаление блоков с тишиной в начале и конце : Нет
При вычислениях CRC использовались нулевые сэмплы : Да
Интерфейс : Установленный внешний ASPI-интерфейс

Выходной формат : Внутренние WAV-операции
Формат сэмплов : 44.100 Гц; 16 бит; стерео

TOC извлечённого CD

Трек | Старт | Длительность | Начальный сектор | Конечный сектор
---------------------------------------------------------------------
1 | 0:00.00 | 3:56.63 | 0 | 17762
2 | 3:56.63 | 3:18.41 | 17763 | 32653
3 | 7:15.29 | 3:01.48 | 32654 | 46276
4 | 10:17.02 | 4:48.14 | 46277 | 67890
5 | 15:05.16 | 4:48.14 | 67891 | 89504
6 | 19:53.30 | 5:31.51 | 89505 | 114380
7 | 25:25.06 | 4:44.71 | 114381 | 135751
8 | 30:10.02 | 3:26.15 | 135752 | 151216
9 | 33:36.17 | 4:26.38 | 151217 | 171204
10 | 38:02.55 | 3:31.53 | 171205 | 187082
11 | 41:34.33 | 3:25.03 | 187083 | 202460
12 | 44:59.36 | 4:00.01 | 202461 | 220461

Характеристики диапазона извлечения и сообщения об ошибках

Выбранный диапазон

Имя файла D:\ЛТ-Тяжкий\Ляпис Трубецкой - Тяжкий.wav

Пиковый уровень 99.8 %
Качество диапазона 100.0 %
CRC копии F6BC4FEE
Копирование... OK

Ошибок не произошло

Конец отчёта
СОСТАВ ГРУППЫ НА МОМЕНТ ЗАПИСИ:

С. Михалок - вокал, аккордеон

П. Булатников - вокал

Р. Владыко - гитары, клавиши, аккордеон

Г. Дрындин - труба

П. Кузюкович - валторна

А. Любавин - ударные

Д. Свиридович - бас-гитара

И. Галушко - тромбон

Третий полноценный альбом группы. Был встречен слушателями гораздо теплее, чем "КРАСОТА". Наибольшей популярности добились композиции "ДРУЖБАН", "СПОРТ ПРОШЕЛ", "ПО АЛЛЕЯМ", "НЛО", "ДЕВОЧКА С БЕЗДОННЫМИ ГЛАЗАМИ". Уже тогда за группой закрепился статус более "роковой" и менее "попсовой". Само название "ТЯЖКИЙ" на белорусском сленге означает "ХОРОШИЙ", "МОЩНЫЙ" (именно так объясняют участники коллектива название альбома).

Существует две версии альбома - обычная и подарочная. В подарочном варианте отличается обычная обложка, прилагается картонная суперобложка и буклет (с эпизодами из клипа "НЛО"). В подарочном варианте также можно найти бонус-трек.

Песни "СЕРЫЙ", "АСЯ", "ЧАЕЧКИ" исполнялись "ЛЯПИСАМИ" на сцене с начала 1990-х годов.

Для альбома также были записаны композиции "Гоп-Хип-Хоп", "Алюминевые Огурцы", но не вошли в него.

Обложку оформили М. Тыминько и А. Терехов.
Трэклист:
1. Сочи (4:30)
2. Некрасавица (4:01)
3. Юность (3:44)
4. Голуби (3:27)
5. Гоп-Хип-Хоп (3:07)
6. Карусели-Мельницы (2:44)
7. Золото-Магнит (4:24)
8. Бэби Плиз (4:53)
9. Канаплева (3:13)
10. Вилейка (4:02)
11. Лазерное Солнце (3:45)
Отчёт EAC об извлечении, выполненном 23. декабря 2007, 21:41 для диска: 
ляпис трубецкой / 2001 юность ©

Дисковод: TOSHIBA DVD-ROM SD-M1712 Adapter: 0 ID: 0
Режим чтения: Точный (C2: нет, Точный поток: да, Отключение кэша: да)
Коррекция смещения при чтении: -472
Экстрачтение областей Lead-in и Lead-out : Нет

Выходной формат: Внутренние WAV-операции
44.100 Гц; 16 бит; стерео

Другие параметры:
Заполнение пропущенных сэмплов тишиной : Да
Удаление блоков с тишиной в начале и конце : Нет
'Родной' Win32-интерфейс для Win NT/2000

Статус диапазона и ошибки
Выбранный диапазон
Имя файла D:\2001 юность.wav

Пиковый уровень 99.4 %
Качество диапазона 99.9 %
CRC B99F3B43
Копирование... OK

Ошибок не произошло

Конец отчёта
СОСТАВ ГРУППЫ НА МОМЕНТ ЗАПИСИ:

С. Михалок - вокал, аккордеон

П. Булатников - вокал

Р. Владыко - гитары, клавиши, аккордеон

Г. Дрындин - труба

П. Кузюкович - валторна

А. Любавин - ударные

Д. Свиридович - бас-гитара (1, 3, 4, 5, 9, 10, 11)

А. Зайцев - бас-гитара (2, 6, 7, 8)

И. Галушко - тромбон

Первый за полтора года полноценный альбом группы. Публика встретила новую работу "ЛЯПИСОВ" восторженно, альбом пользовался большим успехом. Работа над альбомом началась осенью 2000 года, тогда были записаны композиции "ГОЛУБИ", "ВИЛЕЙКА", "ЛАЗЕРНОЕ СОЛНЦЕ", "ГОП-ХИП-ХОП". В марте 2001 года состоялась премьера клипа на композицию "ГОЛУБИ", а в июле того же года было снято видео на песню "Сочи". В июле 2001 года группу покинул бас-гитарист Дима Свиридович, и группа в срочном порядке находит ему замену - басиста Алексея Зайцева.

Существует две версии альбома - обычная и подарочная.

Песня "ЗОЛОТО-МАГНИТ" первоначально называлась "ЗОЛОТОМ ОГНИ" и исполнялась "ЛЯПИСАМИ" на сцене с начала 1990-х годов.

Песня БЭБИ ПЛИЗ уже выходила в 1999-м году под названием "ВЕРНИСЬ" на альбоме "КРАСОТА".

Для альбома также были записаны композиции "Алые Паруса" и "Лучше, Чем в Париже", но не вошли в него.

Обложку оформили А. Хацкевич и Я. Карпов.

Вскоре после выхода альбома (декабрь 2001) группу покинул бессменный барабанщик "ЛЯПИСОВ" - Алексей Любавин. Его место за ударными занял экс-участник джаз-коллектива APPLE TEA Александр Сторожук.
Трэклист:
01. Раинька (3:55)
02. Золотые яйцы (2:40)
03. Лучше, чем в Париже (3:19)
04. Красивая (4:37)
05. Лето в Белоруссии (3:02)
06. Курвы (2:59)
07. Ласточки (4:29)
08. Фабричная (3:25)
09. Курачкi (3:07)
10. Ты моя (4:03)
11. Любови капец (3:13)
12. Почтальоны / Ten o'clock postman (4:05)
13. Рамонкi (3:00)
EAC extraction logfile from 7. October 2007, 16:05 for CD 
Ляпис Трубецкой / Золотые яйцы

Used drive : _NEC DVD_RW ND-4550A Adapter: 1 ID: 0
Read mode : Secure with NO C2, accurate stream, disable cache
Read offset correction : 48
Overread into Lead-In and Lead-Out : No

Used output format : Internal WAV Routines
44.100 Hz; 16 Bit; Stereo

Other options :
Fill up missing offset samples with silence : Yes
Delete leading and trailing silent blocks : No
Native Win32 interface for Win NT & 2000

Range status and errors
Selected range
Filename D:\ftp\Ляпис Трубецкой - Золотые яйцы.wav

Peak level 100.0 %
Range quality 99.9 %
CRC CBBDFC2E
Copy OK

No errors occured

End of status report
СОСТАВ ГРУППЫ НА МОМЕНТ ЗАПИСИ:

С. Михалок - вокал

П. Булатников - вокал, бубен

Р. Владыко - гитары, клавиши, аккордеон

Г. Дрындин - труба (1)

П. Кузюкович - валторна, труба

А. Сторжук - ударные, перкуссия, колокола

В. Елкин - бас-гитара, бэк-вокал, гитара, клавиши, мандолина

Д. Свиридович - бас-гитара (1)

А. Зайцев - бас-гитара (7)

И. Галушко - тромбон

Первый за 2,5 года полноценный альбом "ЛЯПИСОВ" был воспринят слушателями очень тепло. "ЛЯПИСЫ" окончательно закрепились в статусе ска-коллектива. Работа над альбомом началась в сентябре 2002-го года, а закончилась лишь в феврале 2004. Связано это было с тем, что концепция альбома по ходу работы менялась, менялись и бас-гитаристы коллектва (осень 2002 - осень 2003 - Алексей Зайцев, осень 2003 - январь 2004 - Дима Свиридович, февраль 2004 - Владимир Елкин).

"ЗОЛОТЫЕ ЯЙЦЫ" - первый альбом "ЛЯПИСОВ", выпущенный компанией "СОЮЗ" после 3-х летнего перерыва.

Существует две версии альбома: обычная и "подарочная". К "подарочному" варианту прилагается суперобложка и буклет с эпизодами из клипа "ЗОЛОТЫЕ ЯЙЦЫ" и текстами песен. "Подарочный" вариант альбома "Золотые Яйцы" выходил только в Украине и Белоруссии - очень небольшим тиражом. В России распространялся только "упрощенный" вариант альбома (без клипа и буклета).

Обложку альбома оформили братья Сидоруки, снявшие также клип на песню "Золотые Яйцы". Первоначально в оформлении обложки планировалось использовать фотографии, сделанные в гостиннице "Минск" в феврале 2004.

Аккурат перед выходом нового альбома Сергей Михалок и Павел Булатников радикально сменили имидж, побрившись наголо.

Во время работы над "ЗОЛОТЫМИ ЯЙЦАМИ" были записаны песни "САЯНЫ" и "АРГЕНТИНА", которые в альбом в итоге не вошли...
Трэклист:
1. Нина (4:24)
2. Дядя Витя (2:20)
3. Снежная королева (3:00)
4. Извините, Маша (2:32)
5. Золотом огни (3:46)
6. Вишня красная (3:23)
7. Мужчины не плачут (4:53)
8. Саяны (4:18)
9. Лабухи (2:19)
10. Чёрно-белый день (3:57)
11. Уголёк (3:49)
12. Аргентина (4:39)
13. Русалки (4:03)
Exact Audio Copy V0.99 prebeta 3 from 28. July 2007 

EAC extraction logfile from 6. November 2007, 20:57

Ляпис Трубецкой / Мужчины Не Плачут

Used drive : _NEC DVD_RW ND-3520A Adapter: 2 ID: 0

Read mode : Secure
Utilize accurate stream : Yes
Defeat audio cache : Yes
Make use of C2 pointers : No

Read offset correction : 48
Overread into Lead-In and Lead-Out : No
Fill up missing offset samples with silence : Yes
Delete leading and trailing silent blocks : No
Null samples used in CRC calculations : Yes
Used interface : Installed external ASPI interface

Used output format : Internal WAV Routines
Sample format : 44.100 Hz; 16 Bit; Stereo

TOC of the extracted CD

Track | Start | Length | Start sector | End sector
---------------------------------------------------------
1 | 0:00.00 | 4:26.05 | 0 | 19954
2 | 4:26.05 | 2:21.49 | 19955 | 30578
3 | 6:47.54 | 3:00.32 | 30579 | 44110
4 | 9:48.11 | 2:34.06 | 44111 | 55666
5 | 12:22.17 | 3:47.37 | 55667 | 72728
6 | 16:09.54 | 3:24.02 | 72729 | 88030
7 | 19:33.56 | 4:54.55 | 88031 | 110135
8 | 24:28.36 | 4:17.71 | 110136 | 129481
9 | 28:46.32 | 2:19.62 | 129482 | 139968
10 | 31:06.19 | 3:58.37 | 139969 | 157855
11 | 35:04.56 | 3:49.64 | 157856 | 175094
12 | 38:54.45 | 4:40.72 | 175095 | 196166
13 | 43:35.42 | 4:04.10 | 196167 | 214476

Range status and errors

Selected range

Filename G:\lossless\Ляпис Трубецкой - 2006 - Мужчины Не Плачут\Ляпис Трубецкой - Мужчины Не Плачут.wav

Peak level 100.0 %
Range quality 99.9 %
Test CRC 486F8912
Copy CRC 486F8912
Copy OK

No errors occurred

End of status report
СОСТАВ ГРУППЫ НА МОМЕНТ ЗАПИСИ:

С. Михалок - вокал

П. Булатников - вокал, бубен

Р. Владыко - гитары, клавиши, аккордеон

П. Кузюкович - валторна, труба

А. Сторжук - ударные, перкуссия

В. Елкин - бас-гитара

И. Галушко - тромбон

Очередной экспериментальный альбом "ЛЯПИСОВ". В данное издание вошли композиции, написанные для кинофильмов "МУЖЧИНЫ НЕ ПЛАЧУТ" и "ПОСЛЕДНИЙ ЗАБОЙ", а также несколько неизданных треков 2004 года.

Существует две версии альбома: обычная и "подарочная". К "подарочному" варианту прилагается суперобложка и буклет с фотографиями 2004 года.
Трэклист:
1. Золотая антилопа — 3:38
2. Капитал — 3:16
3. Гойко Митич — 3:37
4. Керчь — 3:23
5. Котик — 1:53
6. Андрюша — 3:51
7. Рамонки — 3:04
8. Собаки — 3:01
9. Огоньки — 2:56
10. Товарищ — 3:38
11. Харе — 2:45
EAC extraction logfile from 15. August 2007, 19:50 for CD 
Ляпис Трубецкой / Капитал

Used drive : TOSHIBA CD/DVDW SD-R5372 Adapter: 1 ID: 0
Read mode : Secure with NO C2, accurate stream, disable cache
Read offset correction : 704
Overread into Lead-In and Lead-Out : No

Used output format : Internal WAV Routines
44.100 Hz; 16 Bit; Stereo

Other options :
Fill up missing offset samples with silence : Yes
Delete leading and trailing silent blocks : No
Installed external ASPI interface

Range status and errors
Selected range
Filename E:\Ляпис Трубецкой - Капитал.wav

Peak level 100.0 %
Range quality 100.0 %
CRC 1E6CF26D
Copy OK

No errors occured

End of status report
СОСТАВ ГРУППЫ НА МОМЕНТ ЗАПИСИ:

С. Михалок - вокал

П. Булатников - вокал, бубен

Р. Владыко - гитары

П. Кузюкович - валторна, труба

А. Сторжук - ударные, перкуссия

Д. Свиридович - бас-гитара (4, 5, 6, 8, 10, 11, 12)

Д. Стурченко - бас-гитара (1, 2, 3, 7, 9)

И. Галушко - тромбон

Весна 2007 года ознаменовалась прекрасным событием! Вышел первый за трехлетний перерыв полноценный альбом "ЛЯПИСОВ". Никто и ожидать не мог такого успеха! Композиция и клип "КАПИТАЛ" в момент стали популярными, среди поклонников группы появилось больше неформальной молодежи! При этом, старые поклонники тоже остались чрезвычайно довольны новым альбомом. Музыкальные критики единогласно назвали "КАПИТАЛ" "лучшей работой группы". В общем, это триумф в чистом виде!

Существует две версии альбома: обычная и "подарочная". К "подарочному" варианту прилагается суперобложка и буклет с эпизодами из клипа "КАПИТАЛ". Автор оформления альбома - А. Терехов.

Работа над альбомом началась летом 2005-го года. Уже к декабрю 2005 года были готовы песни "Андрюша", "Харе", "Товарищ". Тогда же группа начала запись инструментальных партий новых композиций. В феврале 2006 года группу покинул бас-гитарист Владимир Елкин, ему на смену пришел Дима Свиридович. В декабре 2006 года, когда были готовы почти все композиции нового альбома, место Свиридовича занял Денис Стурченко, экс-басист группы "БеZ Билета".

Песня "РАМОНКI" была записана заново, потому что первоначальный ее вариант (с альбома "Золотые Яйцы")не совсем устраивал Михалка.

Для альбома была переписана заново композиция "ЕВПАТОРИЯ". Дело в том, что несколько лет подряд "ЛЯПИСЫ" исполняли эту песню в ска-версии, что сильно радовало поклонников группы. Поэтому, было принято решение записать ска-версию "ЕВПАТОРИИ" в студии.

Первоначальное название альбома - "ЖИР И ЗОЛОТОЕ САЛО".
Трэклист:
1. Золотая антилопа — 3:38
2. Капитал — 3:16
3. Гойко Митич — 3:37
4. Керчь — 3:23
5. Котик — 1:53
6. Андрюша — 3:51
7. Рамонки — 3:04
8. Собаки — 3:01
9. Огоньки — 2:56
10. Товарищ — 3:38
11. Харе — 2:45
12. Bonus Track (только на "подарочном" издании) Евпатория - 4:24
Exact Audio Copy V0.99 prebeta 4 from 23. January 2008 

Отчёт EAC об извлечении, выполненном 13. декабря 2008, 22:42

Ляпис Трубецкой / Капитал (Подарочное Издание)

Дисковод: ASUS DRW-1814BLT Adapter: 0 ID: 0

Режим чтения : Достоверность
Использование точного потока : Да
Отключение кэша аудио : Да
Использование указателей C2 : Нет

Коррекция смещения при чтении : 6
Способность читать области Lead-in и Lead-out : Нет
Заполнение пропущенных сэмплов тишиной : Да
Удаление блоков с тишиной в начале и конце : Нет
При вычислениях CRC использовались нулевые сэмплы : Да
Интерфейс : Встроенный Win32-интерфейс для Win NT/2000

Выходной формат : Пользовательский кодировщик
Выбранный битрейт : 128 kBit/s
Качество : Высокий
Добавление ID3-тэга : Нет
Утилита сжатия : C:\Program Files\Flac\flac.exe
Дополнительные параметры : -T "artist=%a" -T "title=%t" -T "album=%g" -T "date=%y" -T "tracknumber=%n" -T "genre=%m" -6 %s

TOC извлечённого CD

Трек | Старт | Длительность | Начальный сектор | Конечный сектор
---------------------------------------------------------------------
1 | 0:00.00 | 3:37.72 | 0 | 16346
2 | 3:37.72 | 3:15.72 | 16347 | 31043
3 | 6:53.69 | 3:37.03 | 31044 | 47321
4 | 10:30.72 | 3:23.37 | 47322 | 62583
5 | 13:54.34 | 1:53.11 | 62584 | 71069
6 | 15:47.45 | 3:51.49 | 71070 | 88443
7 | 19:39.19 | 3:04.20 | 88444 | 102263
8 | 22:43.39 | 3:01.22 | 102264 | 115860
9 | 25:44.61 | 2:56.06 | 115861 | 129066
10 | 28:40.67 | 3:38.08 | 129067 | 145424
11 | 32:19.00 | 2:46.69 | 145425 | 157943
12 | 35:05.69 | 4:22.73 | 157944 | 177666
13 | 42:00.67 | 16:38.37 | 189067 | 263953

Характеристики диапазона извлечения и сообщения об ошибках

Выбранный диапазон

Имя файла J:\Музыка в Lossless формате\Ляпис Трубецкой - Капитал (Подарочное Издание) (2007)\Ляпис Трубецкой - Капитал (Подарочное Издание).wav

Пиковый уровень 100.0 %
Качество диапазона 100.0 %
CRC теста 6C61CE4D
CRC копии 6C61CE4D
Копирование... OK

Ошибок не произошло

Конец отчёта
Трэклист:
1. Манифест
2. Рок-пупсы
3. Галактика
4. Жлоб
5. 12 Обезьян
6. I Wanna Be Your Boyfriend
7. Крэкс, пэкс, фэкс
8. Belarus Freedom
9. Клип
10. Зорачкi
11. Трубецкой
12. Рыбка золотая
Exact Audio Copy V0.99 prebeta 4 from 23. January 2008 

Отчёт EAC об извлечении, выполненном 14. октября 2008, 20:27

Ляпис Трубецкой / Manifest

Дисковод: Optiarc DVD RW AD-5200A Adapter: 1 ID: 1

Режим чтения : Достоверность
Использование точного потока : Да
Отключение кэша аудио : Да
Использование указателей C2 : Нет

Коррекция смещения при чтении : 48
Способность читать области Lead-in и Lead-out : Нет
Заполнение пропущенных сэмплов тишиной : Да
Удаление блоков с тишиной в начале и конце : Нет
При вычислениях CRC использовались нулевые сэмплы : Да
Интерфейс : Встроенный Win32-интерфейс для Win NT/2000

Выходной формат : Внутренние WAV-операции
Формат сэмплов : 44.100 Гц; 16 бит; стерео

TOC извлечённого CD

Трек | Старт | Длительность | Начальный сектор | Конечный сектор
---------------------------------------------------------------------
1 | 0:00.00 | 3:48.08 | 0 | 17107
2 | 3:48.08 | 3:13.67 | 17108 | 31649
3 | 7:02.00 | 3:18.48 | 31650 | 46547
4 | 10:20.48 | 2:56.59 | 46548 | 59806
5 | 13:17.32 | 2:53.47 | 59807 | 72828
6 | 16:11.04 | 2:14.31 | 72829 | 82909
7 | 18:25.35 | 3:21.05 | 82910 | 97989
8 | 21:46.40 | 3:47.33 | 97990 | 115047
9 | 25:33.73 | 3:32.73 | 115048 | 131020
10 | 29:06.71 | 3:45.65 | 131021 | 147960
11 | 32:52.61 | 2:58.64 | 147961 | 161374
12 | 35:51.50 | 2:07.52 | 161375 | 170951

Характеристики диапазона извлечения и сообщения об ошибках

Выбранный диапазон

Имя файла D:\lossless\Ляпис Трубецкой - Manifest.wav

Пиковый уровень 100.0 %
Качество диапазона 100.0 %
CRC копии 881D6693
Копирование... OK

Ошибок не произошло

Конец отчёта
СОСТАВ ГРУППЫ НА МОМЕНТ ЗАПИСИ:

С. Михалок - вокал

П. Булатников - вокал

Р. Владыко - гитара

А. Сторожук - ударные

П. Кузюкович - труба

И. Галушко - тромбон

Д. Стурченко - бас-гитара

В записи альбом также принимали участие:

Виталий Телезин - синтезатор

Валерий Щерица ("Петрович") - труба (9)

Алексей Сагитов ("Саид") - тромбон (9)

Павел Гузеев - тенор - саксофон (9)

Егор Бекаревич - баритон - саксофон (9)

Андрей Шведц - туба (7)

Наталья Сербина, Ирина Борисенко - фольклорное пение (10)

Первый альбом группы "ЛЯПИС ТРУБЕЦКОЙ", релиз которого состоялся в Интернете (на портале AFISHA.RU). Произошло сие знаменательное событие 25 сентября 2008 года. Буквально на следующий день самой обсуждаемой темой русскоязычных блогов стал выход пластинки "MANIFEST", первые же официальные рецензии имели самые положительный характер.

Работа над альбомом началась осенью 2007 года - как раз тогда были записаны первые акустические демо-версии песен "КЛИП" и "МАНИФЕСТ". Однако, Сергей Михалок утверждает, что половину песен было написано еще в период работы над "КАПИТАЛом" (конец 2005-середина 2006). В январе 2008 года "ЛЯПИСы" собрались в студии, чтобы записать новые композиции в полноценной аранжировке. Первыми были записаны песни "МАНИФЕСТ", "РОК-ПУПСЫ", "КЛИП" и "ЧЕРНО-БЕЛЫЙ ДЕНЬ" (в последствии не вошла в альбом).

Во время тура "КАПИТАЛ" на суд публике были представлены следующие композиции: "МАНИФЕСТ" и "ХЭНДЭ ХОХ" (РОК-ПУПСЫ) (февраль 2008), "ЗОРАЧКI", "БОРИС ФРИДМАН" (БЕЛАРУСЬ ФРИДОМ), "ПОПСОВЫЙ ЖЛОБ" (апрель 2008), "12 ОБЕЗЬЯН" (июнь 2008).

Авторы оформления обложки - Д. Колмыкова, И. Забелло.
Трэклист:
01. Золотая Антилопа
02. Капитал
03. Гойко Митич
04. Керчь-2
05. Котик
06. Андрюша
07. Рамонки
08. Собаки
09. Огоньки
10. Товарищ
11. Харэ
12. Капитал (Noize MC Rmx)
13. Капитал (1915 Igor Vdovin Mix)
Exact Audio Copy V0.99 prebeta 4 from 23. January 2008 

Отчёт EAC об извлечении, выполненном 13. апреля 2009, 21:23

Ляпис Трубецкой / Капитал (v.2009)

Дисковод: PLEXTOR CD-R PX-230A Adapter: 3 ID: 2

Режим чтения : Достоверность
Использование точного потока : Да
Отключение кэша аудио : Да
Использование указателей C2 : Нет

Коррекция смещения при чтении : 738
Способность читать области Lead-in и Lead-out : Нет
Заполнение пропущенных сэмплов тишиной : Да
Удаление блоков с тишиной в начале и конце : Нет
При вычислениях CRC использовались нулевые сэмплы : Да
Интерфейс : Установленный внешний ASPI-интерфейс

Выходной формат : Внутренние WAV-операции
Формат сэмплов : 44.100 Гц; 16 бит; стерео

TOC извлечённого CD

Трек | Старт | Длительность | Начальный сектор | Конечный сектор
---------------------------------------------------------------------
1 | 0:00.00 | 3:37.72 | 0 | 16346
2 | 3:37.72 | 3:15.72 | 16347 | 31043
3 | 6:53.69 | 3:37.03 | 31044 | 47321
4 | 10:30.72 | 3:23.37 | 47322 | 62583
5 | 13:54.34 | 1:53.11 | 62584 | 71069
6 | 15:47.45 | 3:51.49 | 71070 | 88443
7 | 19:39.19 | 3:04.20 | 88444 | 102263
8 | 22:43.39 | 3:01.22 | 102264 | 115860
9 | 25:44.61 | 2:56.06 | 115861 | 129066
10 | 28:40.67 | 3:38.08 | 129067 | 145424
11 | 32:19.00 | 2:46.69 | 145425 | 157943
12 | 35:05.69 | 2:35.45 | 157944 | 169613
13 | 37:41.39 | 2:28.44 | 169614 | 180757

Характеристики диапазона извлечения и сообщения об ошибках

Выбранный диапазон

Имя файла E:\! CD_DVD\LjapisTrubetzkoj_2CD.[rutracker.org]\CD1_Capital\Ляпис Трубецкой - Капитал (v.2009).wav

Пиковый уровень 100.0 %
Качество диапазона 100.0 %
CRC теста 0F1ACF1C
CRC копии 0F1ACF1C
Копирование... OK

Ошибок не произошло

AccurateRip: сводка

Трек 1 нет в базе данных
Трек 2 нет в базе данных
Трек 3 нет в базе данных
Трек 4 нет в базе данных
Трек 5 нет в базе данных
Трек 6 нет в базе данных
Трек 7 нет в базе данных
Трек 8 нет в базе данных
Трек 9 нет в базе данных
Трек 10 нет в базе данных
Трек 11 нет в базе данных
Трек 12 нет в базе данных
Трек 13 нет в базе данных

Ни одного трека нет в базе AccurateRip

Конец отчёта
Трэклист:
01. Манифест
02. Рок-пупсы
03. Галактика
04. Жлоб
05. 12 обезьян
06. I Wanna Be Your Boyfriend
07. Крэкс, пэкс, фэкс!
08. Belarus Freedom
09. Клип
10. Зорачкi
11. Трубецкой
12. Рыбка золотая
13. Чёрно-белый день
14. Государство
Exact Audio Copy V0.99 prebeta 4 from 23. January 2008 

Отчёт EAC об извлечении, выполненном 13. апреля 2009, 21:41

Ляпис Трубецкой / Манифест (v.2009)

Дисковод: PLEXTOR CD-R PX-230A Adapter: 3 ID: 2

Режим чтения : Достоверность
Использование точного потока : Да
Отключение кэша аудио : Да
Использование указателей C2 : Нет

Коррекция смещения при чтении : 738
Способность читать области Lead-in и Lead-out : Нет
Заполнение пропущенных сэмплов тишиной : Да
Удаление блоков с тишиной в начале и конце : Нет
При вычислениях CRC использовались нулевые сэмплы : Да
Интерфейс : Установленный внешний ASPI-интерфейс

Выходной формат : Внутренние WAV-операции
Формат сэмплов : 44.100 Гц; 16 бит; стерео

TOC извлечённого CD

Трек | Старт | Длительность | Начальный сектор | Конечный сектор
---------------------------------------------------------------------
1 | 0:00.00 | 3:50.08 | 0 | 17257
2 | 3:50.08 | 3:15.67 | 17258 | 31949
3 | 7:06.00 | 3:20.48 | 31950 | 46997
4 | 10:26.48 | 2:58.59 | 46998 | 60406
5 | 13:25.32 | 2:55.47 | 60407 | 73578
6 | 16:21.04 | 2:16.31 | 73579 | 83809
7 | 18:37.35 | 3:23.05 | 83810 | 99039
8 | 22:00.40 | 3:49.33 | 99040 | 116247
9 | 25:49.73 | 3:34.73 | 116248 | 132370
10 | 29:24.71 | 3:47.65 | 132371 | 149460
11 | 33:12.61 | 3:00.64 | 149461 | 163024
12 | 36:13.50 | 2:09.52 | 163025 | 172751
13 | 38:23.27 | 4:05.60 | 172752 | 191186
14 | 42:29.12 | 3:18.17 | 191187 | 206053

Характеристики диапазона извлечения и сообщения об ошибках

Выбранный диапазон

Имя файла E:\! CD_DVD\LjapisTrubetzkoj_2CD.[rutracker.org]\CD2_Manifest\Ляпис Трубецкой - Манифест (v.2009).wav

Пиковый уровень 79.0 %
Качество диапазона 100.0 %
CRC теста F176DB7C
CRC копии F176DB7C
Копирование... OK

Ошибок не произошло

AccurateRip: сводка

Трек 1 нет в базе данных
Трек 2 нет в базе данных
Трек 3 нет в базе данных
Трек 4 нет в базе данных
Трек 5 нет в базе данных
Трек 6 нет в базе данных
Трек 7 нет в базе данных
Трек 8 нет в базе данных
Трек 9 нет в базе данных
Трек 10 нет в базе данных
Трек 11 нет в базе данных
Трек 12 нет в базе данных
Трек 13 нет в базе данных
Трек 14 нет в базе данных

Ни одного трека нет в базе AccurateRip

Конец отчёта
Трэклист:
1. Буревестник
2. Анархо-турист
3. Бесы
4. Мистер Лох
5. Болт
6. Красный факел
7. Пульс эпохи
8. Зомби-роботы
9. Ружовыя акуляры
10. Нигилист
11. Свежий ветер
12. Светлячки
Exact Audio Copy V0.99 prebeta 5 from 4. May 2009 

Отчёт EAC об извлечении, выполненном 30. августа 2009, 2:11

Ляпис Трубецкой / Культпросвет

Дисковод: Optiarc DVD RW AD-7203A Adapter: 1 ID: 0

Режим чтения : Достоверность
Использование точного потока : Да
Отключение кэша аудио : Да
Использование указателей C2 : Нет

Коррекция смещения при чтении : 48
Способность читать области Lead-in и Lead-out : Нет
Заполнение пропущенных сэмплов тишиной : Да
Удаление блоков с тишиной в начале и конце : Нет
При вычислениях CRC использовались нулевые сэмплы : Да
Интерфейс : Встроенный Win32-интерфейс для Win NT/2000

Выходной формат : Пользовательский кодировщик
Выбранный битрейт : 1024 kBit/s
Качество : Высокий
Добавление ID3-тэга : Нет
Утилита сжатия : C:\Program Files\Exact Audio Copy\FLAC\FLAC.EXE
Дополнительные параметры : -T "artist=%a" -T "title=%t" -T "album=%g" -T "date=%y" -T "tracknumber=%n" -T "genre=%m" -8 %s

TOC извлечённого CD

Трек | Старт | Длительность | Начальный сектор | Конечный сектор
---------------------------------------------------------------------
1 | 0:00.00 | 2:33.49 | 0 | 11523
2 | 2:33.49 | 2:18.70 | 11524 | 21943
3 | 4:52.44 | 2:47.57 | 21944 | 34525
4 | 7:40.26 | 4:39.45 | 34526 | 55495
5 | 12:19.71 | 3:18.32 | 55496 | 70377
6 | 15:38.28 | 2:53.16 | 70378 | 83368
7 | 18:31.44 | 4:07.68 | 83369 | 101961
8 | 22:39.37 | 1:59.62 | 101962 | 110948
9 | 24:39.24 | 3:17.42 | 110949 | 125765
10 | 27:56.66 | 2:19.62 | 125766 | 136252
11 | 30:16.53 | 3:21.09 | 136253 | 151336
12 | 33:37.62 | 1:23.19 | 151337 | 157580
13 | 37:33.06 | 6:39.29 | 168981 | 198934

Характеристики диапазона извлечения и сообщения об ошибках

Выбранный диапазон

Имя файла D:\Ляпис Трубецкой - Культпросвет.wav

Пиковый уровень 100.0 %
Качество диапазона 100.0 %
CRC теста 8AF71DBA
CRC копии 8AF71DBA
Копирование... OK

Ошибок не произошло

Конец отчёта
СОСТАВ ГРУППЫ НА МОМЕНТ ЗАПИСИ:

Сергей Михалок — вокал, ритм-гитара, перкуссия

Павел Булатников — вокал, перкуссия

Руслан Владыко — гитара, аккордеон, клавиши

Павел Кузюкович — труба, валторна, бэк-вокал

Игорь Галушко — тромбон, бэк-вокал

Дмитрий Стурченко — бас-гитара

Александр Сторожук — барабаны

Культпросвет — 10-ый студийный альбом ска-панк группы «Ляпис Трубецкой».
Лидер группы Сергей Михалок заявил изданию «Хартия'97»: «Если у какого-то меломана проблема с деньгами, то он может скачать «Культпросвет» бесплатно или заплатить 10 рублей — за это мы тоже будем благодарны. А какой-нибудь олигарх может кинуть на наш счёт тысячу долларов — если перед этим крепко выпьет».

Это уже второй альбом группы Ляпис Трубецкой, который официально появляется в сети до релиза в магазинах. В 2008 году группа стала первым популярным коллективом в СНГ, выложившим альбом в интернет для бесплатного скачивания. Это была пластинка «Manifest», вышедшая в сентябре 2008 года. Она распространялась через сайты «Афиши» и tut.by.
Трэклист:
1. "Дискотека Авария" vs. "Ляпис Трубецкой" - Кинула (Ты Кинула RMX) — 4:45
2. "Дискотека Авария" и "Ляпис Трубецкой" - Я тебя не скоро... (Евпатория RMX) — 5:09
3. DJ Грув и "Ляпис Трубецкой" - У-Это Любовь! (В Платье Белом RMX) — 3:57
4. Миша Абросимов и "Ляпис Трубецкой" - Давай, Курчавенький! (Ау RMX) — 5:46
5. Миша Абросимов и "Ляпис Трубецкой" - Об-Ла-Ка! (Облака RMX) — 4:27
6. Роман Рябцев, Роксана Бабаян и "Ляпис Трубецкой" - Ау (RMX) — 4:01
7. "Дискотека Авария" и "Ляпис Трубецкой" - В Платье Белом (RMX) — 5:43
8. DJ Грув и "Ляпис Трубецкой" - Облака (RMX) — 4:55
9. Роман Рябцев и "Ляпис Трубецкой" - Ты Кинула (RMX) — 4:49
10. "Дискотека Авария" и "Ляпис Трубецкой" - Почему Любовь Уходит (RMX) — 6:41
Отчёт EAC об извлечении, выполненном 23. декабря 2007, 20:59 для диска: 
ляпис трубецкой / 1999 ляписдэнс

Дисковод: TOSHIBA DVD-ROM SD-M1712 Adapter: 0 ID: 0
Режим чтения: Точный (C2: нет, Точный поток: да, Отключение кэша: да)
Коррекция смещения при чтении: -472
Экстрачтение областей Lead-in и Lead-out : Нет

Выходной формат: Внутренние WAV-операции
44.100 Гц; 16 бит; стерео

Другие параметры:
Заполнение пропущенных сэмплов тишиной : Да
Удаление блоков с тишиной в начале и конце : Нет
'Родной' Win32-интерфейс для Win NT/2000

Статус диапазона и ошибки
Выбранный диапазон
Имя файла D:\1999 ляписдэнс.wav

Пиковый уровень 97.7 %
Качество диапазона 100.0 %
CRC DB349146
Копирование... OK

Ошибок не произошло

Конец отчёта
СОСТАВ ГРУППЫ НА МОМЕНТ ЗАПИСИ:

С. Михалок - вокал

Остальное доделали ди-джеи...

Один из наиболее парадоксальных релизов группы "ЛЯПИС ТРУБЕЦКОЙ". Компания "СОЮЗ", не дожидаясь выхода в мае 1999 года альбома "КРАСОТА", в срочном порядке выпускает сборник ремиксов на песни "ЛЯПИСОВ". В прессе активно используется ложная информация, будто бы часть ремиксов была подготовлена самим Сергеем Михалком, что группа очень рада этому релизу и т. д. На самом деле, участники группы никакого отношения к данному проекту не имели, более того, Михалок остался весьма недоволен этим релизом.

Группа "ДИСКОТЕКА АВАРИЯ", сделавшая три успешных ремикса на данном сборнике, вскоре добилась большой популярности на территории Российской Федерации.

В одном из ремиксов на композицию "Ау" можно услышать пение Роксаны Бабаян.

Отечественные телевизионные каналы отказались рекламировать сборник "ЛЯПИСДЕНС" из-за "неблагозвучного названия".
Трэклист:
1. Любовь Повернулась Ко Мне Задом (Karapuzikee RMX) (3:37)
2. Снежная королева (Arrival Project RMX) (4:44)
3. Мерзкая Птица (Голуби, Бонч Бру Бонч RMX) (4:19)
4. Девочка с Бездонными Глазами (Gipsy House Club Version) (4:14)
5. В Платье Белом (Р. Рябцев RMX) (4:13)
6. Красота (DJ Грув RMX) (4:32)
7. Яблони (Maxi Beat RMX) (5:23)
8. Голуби (Karapuzikee RMX) (3:58)
9. Эта Девочка (Monster Tribal RMX) (4:34)
10. Спорт Прошел (Club Mix) (3:54)
11. Яблони (этот вариант исполняет Р’Н'Б группа «Лето») (3:47)
12. Голуби (Radius RMX) (3:30)
13. Демо-микс дебютного альбома группы KARAPUZIKEE (4:12)
Exact Audio Copy V0.99 prebeta 4 from 23. January 2008 

Отчёт EAC об извлечении, выполненном 13. октября 2008, 20:25

Ляпис Трубицкой & DJ"s / Ляписдэнс 2

Дисковод: _NEC DVD_RW ND-4571A Adapter: 0 ID: 0

Режим чтения : Достоверность
Использование точного потока : Да
Отключение кэша аудио : Да
Использование указателей C2 : Нет

Коррекция смещения при чтении : 48
Способность читать области Lead-in и Lead-out : Нет
Заполнение пропущенных сэмплов тишиной : Да
Удаление блоков с тишиной в начале и конце : Нет
При вычислениях CRC использовались нулевые сэмплы : Да
Интерфейс : Встроенный Win32-интерфейс для Win NT/2000

Выходной формат : Внутренние WAV-операции
Формат сэмплов : 44.100 Гц; 16 бит; стерео

TOC извлечённого CD

Трек | Старт | Длительность | Начальный сектор | Конечный сектор
---------------------------------------------------------------------
1 | 0:00.10 | 3:37.72 | 10 | 16356
2 | 3:38.07 | 4:44.63 | 16357 | 37719
3 | 8:22.70 | 4:20.04 | 37720 | 57223
4 | 12:42.74 | 4:14.48 | 57224 | 76321
5 | 16:57.47 | 4:13.34 | 76322 | 95330
6 | 21:11.06 | 4:32.65 | 95331 | 115795
7 | 25:43.71 | 5:24.32 | 115796 | 140127
8 | 31:08.28 | 3:58.41 | 140128 | 158018
9 | 35:06.69 | 4:34.21 | 158019 | 178589
10 | 39:41.15 | 3:54.45 | 178590 | 196184
11 | 43:35.60 | 3:47.30 | 196185 | 213239
12 | 47:23.15 | 3:31.17 | 213240 | 229081
13 | 50:54.32 | 4:12.72 | 229082 | 248053

Характеристики диапазона извлечения и сообщения об ошибках

Выбранный диапазон

Имя файла C:\Documents and Settings\vitaly\Рабочий стол\image\Ляпис Трубицкой & DJ s - Ляписдэнс 2.wav

Пиковый уровень 98.8 %
Качество диапазона 99.9 %
CRC копии F5AEB180
Копирование... OK

Ошибок не произошло

Конец отчёта
СОСТАВ ГРУППЫ НА МОМЕНТ ЗАПИСИ:

С. Михалок - вокал

Остальное доделали диджеи...

Весной 2001 года в жизни группы "ЛЯПИС ТРУБЕЦКОЙ" произошло не самое радостное событие... Без какого либо согласия участников коллектива был издан сборник "ЛЯПИСДЭНС-2", продолжение одноименного альбома ремиксов 1999 года. Если в 1999-м году большинство ремиксов сделала группа "Дискотека Авария", которая достаточно аккуратно и со знанием дела подошла к переработке песен "ЛЯПИСОВ", то теперь основными ремиксами занялись К. Костомаров и Л. Молочник из группы "KARAPUZIKEE". Результат, мягко говоря, оказался не самым удачным...

Клип на композицию "ЛЮБОВЬ ПОВЕРНУЛАСЬ КО МНЕ ЗАДОМ" попал в передачу SHIT-PARAD, где подвергся достаточно жесткой критике. Более того, "ЛЯПИСДЕНС-2" сильно пошатнул репутацию "ЛЯПИСОВ".

Большинство ремиксов сделаны на композиции с альбома "КРАСОТА".
Трэклист:
01. Ласточки [0:04:35.41]
02. Lastochki (Radiomix by «Полярники») [0:04:12.68]
03. Ласточки (Антон Morch remix) [0:04:22.70]
04. Солнце Раскроет Свои Объятья (mix by DJ Sunshine/Карибасы) [0:04:56.26]
05. Жека (ДаБац & Диск-Джедай Женя remix) [0:04:21.55]
06. Intro («Yankee Go Home» Mix by DJ Yollahdin (Сирия)) [0:01:19.65]
07. Плачут («Yankee Go Home» Mix by DJ Yollahdin (Сирия)) [0:03:21.12]
08. Кружатся («Yankee Go Home» Mix by DJ Yollahdin (Сирия)) [0:03:21.71]
09. Курвы [0:02:52.49]
10. Джа (Netslov & Ляпис Трубецкой) [0:04:20.29]
11. Ласточки [0:05:49.28]
Exact Audio Copy V0.99 prebeta 3 from 28. July 2007 

EAC extraction logfile from 6. November 2007, 21:32

Ляпис Трубецкой / Чырвоны Кальсоны

Used drive : _NEC DVD_RW ND-3520A Adapter: 2 ID: 0

Read mode : Secure
Utilize accurate stream : Yes
Defeat audio cache : Yes
Make use of C2 pointers : No

Read offset correction : 48
Overread into Lead-In and Lead-Out : No
Fill up missing offset samples with silence : Yes
Delete leading and trailing silent blocks : No
Null samples used in CRC calculations : Yes
Used interface : Installed external ASPI interface

Used output format : Internal WAV Routines
Sample format : 44.100 Hz; 16 Bit; Stereo

TOC of the extracted CD

Track | Start | Length | Start sector | End sector
---------------------------------------------------------
1 | 0:00.00 | 4:35.41 | 0 | 20665
2 | 4:35.41 | 4:12.68 | 20666 | 39633
3 | 8:48.34 | 4:22.70 | 39634 | 59353
4 | 13:11.29 | 4:56.26 | 59354 | 81579
5 | 18:07.55 | 4:21.55 | 81580 | 101209
6 | 22:29.35 | 1:19.65 | 101210 | 107199
7 | 23:49.25 | 3:21.12 | 107200 | 122286
8 | 27:10.37 | 3:21.71 | 122287 | 137432
9 | 30:32.33 | 2:52.49 | 137433 | 150381
10 | 33:25.07 | 4:20.29 | 150382 | 169910
11 | 40:17.36 | 5:49.28 | 181311 | 207513

Range status and errors

Selected range

Filename G:\lossless\Ляпис Трубецкой - 2003 - Червоны Кальсоны (Single)\Ляпис Трубецкой - Чырвоны Кальсоны.wav

Peak level 100.0 %
Range quality 99.9 %
Test CRC 926F1EBA
Copy CRC 926F1EBA
Copy OK

No errors occurred

End of status report
СОСТАВ ГРУППЫ НА МОМЕНТ ЗАПИСИ:

С. Михалок - вокал, аккордеон

П. Булатников - вокал

Р. Владыко - гитары, клавиши, аккордеон

Г. Дрындин - труба

П. Кузюкович - валторна

А. Сторожук - ударные

А. Зайцев - бас-гитара

И. Галушко - тромбон

Пожалуй, самый экспериментальный релиз группы. На данном диске представлена новая композиция "ЛЯПИСОВ" "ЛАСТОЧКИ", а также 7 ремиксов на нее + клип. На диске также можно найти студийный ремейк старой песни "ЛЯПИСОВ" "КУРВЫ ТАНЧУТ БАЛЬ" и соврешненно безумный микс от группы NETSLOV "ДЖА".

Во время работы над синглом были также записаны композиции "Лучше, Чем В Париже", "Полчаса До Весны".
Трэклист:
01. Саяны
02. Золотые яйцы
03. Лучше чем в Париже
04. Красивая
05. Курвы
06. Ласточки
07. Любови капец
08. Почтальоны
09. Рамонкi
10. Аргентина
11. Раинька (Zhoo Remix)
12. Почтальоны (Oleinik Mix)
13. Гоп Хип-Хоп (КДБ Mix)
Exact Audio Copy V0.99 prebeta 4 from 23. January 2008 

Отчёт EAC об извлечении, выполненном 8. мая 2009, 19:47

Ляпис Трубецкой / Аргентина

Дисковод: Optiarc DVD RW AD-7203A Adapter: 4 ID: 0

Режим чтения : Достоверность
Использование точного потока : Да
Отключение кэша аудио : Да
Использование указателей C2 : Нет

Коррекция смещения при чтении : 48
Способность читать области Lead-in и Lead-out : Нет
Заполнение пропущенных сэмплов тишиной : Да
Удаление блоков с тишиной в начале и конце : Нет
При вычислениях CRC использовались нулевые сэмплы : Да
Интерфейс : Встроенный Win32-интерфейс для Win NT/2000

Выходной формат : Внутренние WAV-операции
Формат сэмплов : 44.100 Гц; 16 бит; стерео

TOC извлечённого CD

Трек | Старт | Длительность | Начальный сектор | Конечный сектор
---------------------------------------------------------------------
1 | 0:00.00 | 4:15.46 | 0 | 19170
2 | 4:15.46 | 2:39.16 | 19171 | 31111
3 | 6:54.62 | 3:18.23 | 31112 | 45984
4 | 10:13.10 | 4:31.24 | 45985 | 66333
5 | 14:44.34 | 2:58.11 | 66334 | 79694
6 | 17:42.45 | 4:29.15 | 79695 | 99884
7 | 22:11.60 | 3:12.59 | 99885 | 114343
8 | 25:24.44 | 4:05.08 | 114344 | 132726
9 | 29:29.52 | 3:01.65 | 132727 | 146366
10 | 32:31.42 | 4:42.17 | 146367 | 167533
11 | 37:13.59 | 3:41.15 | 167534 | 184123
12 | 40:54.74 | 3:50.74 | 184124 | 201447
13 | 44:45.73 | 2:42.35 | 201448 | 213632
14 | 50:00.33 | 16:43.58 | 225033 | 300315

Характеристики диапазона извлечения и сообщения об ошибках

Выбранный диапазон

Имя файла D:\Ляпис Трубецкой - Аргентина.wav

Пиковый уровень 96.6 %
Качество диапазона 99.9 %
CRC копии 6C2EEA5D
Копирование... OK

Ошибок не произошло

Конец отчёта
СОСТАВ ГРУППЫ НА МОМЕНТ ЗАПИСИ:

С. Михалок - вокал

П. Булатников - вокал, бубен

Р. Владыко - гитары, клавиши, аккордеон

Г. Дрындин - труба (11)

П. Кузюкович - валторна, труба

А. Сторжук - ударные, перкуссия, колокола

В. Елкин - бас-гитара, бэк-вокал, гитара, клавиши, мандолина

Д. Свиридович - бас-гитара (11)

А. Зайцев - бас-гитара (6)

И. Галушко - тромбон

Одно из раритетнейших изданий группы. Распространялось через салоны сотовой связи в декабре 2004 года. В первой половине 2005-го года участники группы раздавали диски с этим альбомом своим поклонникам. На сборнике представлены некоторые композиции альбома "Золотые Яйцы", а также песни "Саяны" и "Аргентина", записанные в 2003-м году. Также содержит радиоремиксы песен "РАИНЬКА", "ПОЧТАЛЬОНЫ", "ГОП-ХИП-ХОП".

Оформление обложки - Д. Аносова и А. Хацкевич.
Полиграфия: присутствует
info [Профиль]  [ЛС] 

DeadFine

Пол: Пол:Муж

Стаж: 7 лет 7 месяцев

Сообщений: 301

Россия
Рейтинг

post 27-Апр-2010 13:43 (спустя 1 минута) [-]0[+]

[Цитировать] 

http://tapochek.net/viewtopic.php?t=35091
Поглощено
info [Профиль]  [ЛС] 

prof177

Пол: Пол:Муж

Стаж: 6 лет 11 месяцев

Сообщений: 1

Предупреждений: 1

Россия
Рейтинг

post 12-Ноя-2010 22:58 (спустя 6 месяцев 15 дней) [-]0[+]

[Цитировать] 

А где раздача? Если тв САМЫЙ АВТОР, так стой на раздаче, даже зажав ее!!!
info [Профиль]  [ЛС] 
Показать сообщения:    
Ответить на тему

Текущее время: 07-Дек 20:19

Часовой пояс: GMT + 4



Вы не можете начинать темы
Вы не можете отвечать на сообщения
Вы не можете редактировать свои сообщения
Вы не можете удалять свои сообщения
Вы не можете голосовать в опросах
Вы не можете прикреплять файлы к сообщениям
Вы не можете скачивать файлы