Ошибка

Маргарита / Margarita (Алекс Сервантес) [2009, мультфильм, короткометражка, семейный, 3D анимация, сказка, драма, HDTVRip]

Ответить на тему
 
Автор Сообщение

GODMASK

Пол: Пол:Муж

Стаж: 6 лет 9 месяцев

Сообщений: 402

Украина
Рейтинг

post 09-Апр-2010 19:40 0[+]

[Цитировать] 

Маргарита | Margarita

Год выпуска: 2009
Страна: Испания, HAMPA studio
Жанр: мультфильм, короткометражка, семейный, 3D анимация, сказка, драма
Продолжительность: 00:13:41
Перевод: не требуется
Режиссер:
  • Алекс Сервантес

Описание: Смешной добрый мультфильм для семейного просмотра. Изумительно подобранные краски поражают с первых минут просмотра. Милый и красивый мультипликационный фильм, который надолго останется в ваших сердцах...

Качество: HDTVRip
Формат: MPEG-4
Видео кодек: Advanced Video Codec
Аудио кодек: Advanced Audio Codec
Видео: 1280x720, 24.000 fps, 2 000 Kbps
Аудио: MP3, 44.1 KHz, 128 kb/s, (2 ch)
Format : MPEG-4
Format profile : Base Media
Codec ID : isom
File size : 211 MiB
Duration : 13mn 41s
Overall bit rate : 2 153 Kbps
Encoded date : UTC 2010-01-09 21:07:33
Tagged date : UTC 2010-01-10 21:07:41
Video #1
Format : AVC
Format/Info : Advanced Video Codec
Format profile : High@L3.1
Format settings, CABAC : Yes
Format settings, ReFrames : 4 frames
Codec ID : avc1
Codec ID/Info : Advanced Video Coding
Duration : 13mn 41s
Bit rate mode : Variable
Bit rate : 2 000 Kbps
Maximum bit rate : 6 633 Kbps
Width : 1 280 pixels
Height : 720 pixels
Display aspect ratio : 16/9
Frame rate mode : Constant
Frame rate : 24.000 fps
Resolution : 24 bits
Colorimetry : 4:2:0
Scan type : Progressive
Bits/(Pixel*Frame) : 0.090
Stream size : 195 MiB (93%)
Writing library : x264 core 72 r1217 5e9ae4c
Encoding settings : cabac=1 / ref=4 / deblock=1:0:0 / analyse=0x3:0x113 / me=hex / subme=7 / psy=1 / psy_rd=1.0:0.0 / mixed_ref=1 / me_range=16 / chroma_me=1 / trellis=1 / 8x8dct=1 / cqm=0 / deadzone=21,11 / chroma_qp_offset=-2 / threads=8 / nr=0 / decimate=1 / mbaff=0 / bframes=4 / b_pyramid=0 / b_adapt=1 / b_bias=0 / direct=3 / wpredb=1 / keyint=72 / keyint_min=24 / scenecut=40 / rc_lookahead=40 / rc=2pass / mbtree=1 / bitrate=2000 / ratetol=1.0 / qcomp=0.60 / qpmin=10 / qpmax=51 / qpstep=4 / cplxblur=20.0 / qblur=0.5 / vbv_maxrate=3000 / vbv_bufsize=10000 / ip_ratio=1.40 / aq=1:1.00
Encoded date : UTC 2010-01-09 21:07:33
Tagged date : UTC 2010-01-09 21:07:37
Audio #2
Format : AAC
Format/Info : Advanced Audio Codec
Format version : Version 4
Format profile : LC
Format settings, SBR : No
Codec ID : 40
Duration : 13mn 41s
Bit rate mode : Variable
Bit rate : 157 Kbps
Maximum bit rate : 203 Kbps
Channel(s) : 2 channels
Channel positions : L R
Sampling rate : 44.1 KHz
Resolution : 16 bits
Stream size : 15.4 MiB (7%)
Encoded date : UTC 2010-01-09 21:07:36
Tagged date : UTC 2010-01-09 21:07:37
info [Профиль]  [ЛС] 

post 09-Апр-2010 20:16 (спустя 35 минут) [-]0[+]

Топик был перенесен из форума Оформление раздач (Кинематограф) в форум Зарубежные короткометражные мультфильмы

Amael
 
Показать сообщения:    
Ответить на тему

Текущее время: 09-Дек 19:29

Часовой пояс: GMT + 4



Вы не можете начинать темы
Вы не можете отвечать на сообщения
Вы не можете редактировать свои сообщения
Вы не можете удалять свои сообщения
Вы не можете голосовать в опросах
Вы не можете прикреплять файлы к сообщениям
Вы не можете скачивать файлы