Ошибка

Жил-был пес (Эдуард Назаров) [1982, мультфильм, DVDRip]

Ответить на тему
 
Автор Сообщение

GODMASK

Пол: Пол:Муж

Стаж: 6 лет 9 месяцев

Сообщений: 402

Украина
Рейтинг

post 08-Апр-2010 13:38 0[+]

[Цитировать] 

Жил-был пес

Год выпуска: 1982
Страна: СССР
Жанр: комедия, семейный, мультфильм, короткометражка
Продолжительность: 00:09:59
Перевод: Оригинал
Режиссер:
  • Эдуард Назаров
В ролях:
  • Георгий Бурков, Армен Джигарханян, Леонид Куравлев

Описание: Жил-был пёс. Верно служил, но выгнали его по старости. И решил он повеситься, да повстречал в лесу такого же старого волка…

Кинопоиск.ру - 9.135 (голосов: 8277)
IMDB - 8.3/10 (347 votes)

Качество: DVDRip
Формат: AVI
Видео кодек: XviD
Аудио кодек: AC3
Видео: 688x512 (4/3); 2399 Kbps; 25 fps; 2 400 Kbps
Аудио: 2ch; 48Hz; 128 Kbps
Format : AVI
Format/Info : Audio Video Interleave
File size : 181 MiB
Duration : 9mn 59s
Overall bit rate : 2 537 Kbps
Video
Format : MPEG-4 Visual
Format profile : Streaming Video@L1
Format settings, BVOP : Yes
Format settings, QPel : No
Format settings, GMC : No warppoints
Format settings, Matrix : Custom
Muxing mode : Packed bitstream
Codec ID : XVID
Codec ID/Hint : XviD
Duration : 9mn 59s
Bit rate : 2 400 Kbps
Width : 688 pixels
Height : 512 pixels
Display aspect ratio : 4/3
Frame rate : 25.000 fps
Resolution : 24 bits
Colorimetry : 4:2:0
Scan type : Progressive
Bits/(Pixel*Frame) : 0.272
Stream size : 171 MiB (95%)
Writing library : XviD 50
Audio
Format : AC-3
Format/Info : Audio Coding 3
Codec ID : 2000
Duration : 9mn 58s
Bit rate mode : Constant
Bit rate : 128 Kbps
Channel(s) : 2 channels
Channel positions : L R
Sampling rate : 48.0 KHz
Stream size : 9.14 MiB (5%)
Alignment : Split accross interleaves
Interleave, duration : 40 ms (1.00 video frame)
Interleave, preload duration : 500 ms
info [Профиль]  [ЛС] 

post 08-Апр-2010 14:06 (спустя 28 минут) [-]0[+]

Топик был перенесен из форума Оформление раздач (Кинематограф) в форум Отечественные короткометражные мультфильмы

Amael
 

WEWEWO

Пол: Пол:Муж

Стаж: 7 лет 2 месяца

Сообщений: 300

Россия
Рейтинг

post 08-Апр-2010 14:20 (спустя 42 минуты) [-]0[+]

[Цитировать] 

Мульт супер!!! kolob_117
info [Профиль]  [ЛС] 

markf

Пол: Пол:Муж

Стаж: 7 лет 3 месяца

Сообщений: 366

Россия
Рейтинг

post 08-Апр-2010 15:19 (спустя 58 минут) [-]0[+]

[Цитировать] 

Щас спою! kolob_137

_________________
info [Профиль]  [ЛС] 

des-nsk

Пол: Пол:Муж

Стаж: 7 лет 7 месяцев

Сообщений: 544

Россия
Рейтинг

post 08-Апр-2010 15:32 (спустя 13 минут) [-]0[+]

[Цитировать] 

kolob_117

_________________
info [Профиль]  [ЛС] 

Nen

Пол: Пол:Жен

Стаж: 6 лет 9 месяцев

Сообщений: 12

Россия
Рейтинг

post 08-Апр-2010 16:46 (спустя 1 час 13 минут) [-]0[+]

[Цитировать] 

Обожаю этот мультик)))Спасибо!)

_________________
-------------------------------------------------------------------

"Не пытайтесь спорить с дебилом. Иначе Вы опуститесь до его уровня. Где он задавит Вас своим опытом. "
info [Профиль]  [ЛС] 

dmhitman

Пол: Пол:Муж

Стаж: 7 лет 3 месяца

Сообщений: 58

СССР
Рейтинг

post 08-Апр-2010 16:53 (спустя 7 минут) [-]0[+]

[Цитировать] 

Хааа классный мульт мерси!
info [Профиль]  [ЛС] 

stok511

Стаж: 7 лет 1 месяц

Сообщений: 16

Предупреждений: 1

Россия
Рейтинг

post 08-Апр-2010 16:59 (спустя 6 минут) [-]0[+]

[Цитировать] 

Вещь,спасибо за классику!!!

_________________
1) Ты не можешь дотронуться языком до всех своих зубов
2) Все идиоты, после прочтения вышесказанного, пробуют это на деле
3) Сейчас ты улыбаешься, потому что ты - идиот
4) Поставь это себе в инфу и идиотов прибавитcя ...
info [Профиль]  [ЛС] 
Показать сообщения:    
Ответить на тему

Текущее время: 08-Дек 22:15

Часовой пояс: GMT + 4



Вы не можете начинать темы
Вы не можете отвечать на сообщения
Вы не можете редактировать свои сообщения
Вы не можете удалять свои сообщения
Вы не можете голосовать в опросах
Вы не можете прикреплять файлы к сообщениям
Вы не можете скачивать файлы