Ошибка

(Electronic/Break Beat) The Crystal Method - Album discography - 1997 - 2009, FLAC (tracks) + .cue, lossless

Ответить на тему
 
Автор Сообщение

Shamik

Пол: Пол:Муж

Стаж: 7 лет 7 месяцев

Сообщений: 488

Кокосовые острова
Рейтинг

post 28-Фев-2010 17:53 0[+]

[Цитировать] 

The Crystal Method - Album discography

Жанр: Electronic, Breackbeat | Год выпуска: 1997 - 2009 | Страна: US | Формат: FLAC(tracks) + .cue | Битрейт аудио: lossless | Продолжительность: 5:20:18
Label: Geffen Records
Catalog#: B0009733-02
Format: CD, Album, Remastered
              CD, Album, Enhanced
Country: US
Released: 18 Sep 2007
Genre: Electronic
Style: Breakbeat, Breaks, Electro
Duration: 1:01:19 + 1:03:40

Tracklist:
CD 1
01. Trip Like I Do (7:35)
02. Busy Child (7:25)
03. Cherry Twist (4:26)
04. High Roller (5:30)
05. Comin' Back (5:39)
06. Keep Hope Alive (6:13)
07. Vapor Trail (6:34)
08. She's My Pusher (5:41)
09. Jaded (7:06)
10. Bad Stone (5:12)

CD 2
01. Busy Child (Sta Remix) (6:43)
02. Trip Like I Do (Tom Real vs. The Rogue Element Remix) (7:15)
03. Keep Hope Alive (MSTRKRFT Remix) (4:38)
04. Comin' Back (Koma and Bones remix) (6:59)
05. Busy Child (Hyper Remix) (5:38)
06. Cherry Twist (Deadmau5 Remix) (6:04)
07. Busy Child (Paul Oakenfold Remix) (8:32)
08. High Roller (Myagi Remix) (6:41)
09. Comin' Back ('93 Demo) (5:05)
10. Vapor Trail (Live) (6:04)
Дебютный альбом группы Crystal Method «Vegas», выпущенный звукозаписывающей студией Sony Music Entertainment (UK) в 1997 году, стал настоящей «бомбой» в мире электронной музыки. Одинаково тепло принятый музыкальными критиками и слушателями, альбом сделал группу безумно популярной во всем мире. И хотя мэтры от музыки намекают, что в основе альбома лежит подражание творчеству Chemical Brothers, на самом деле не совсем так.

Действительно, в некоторых композициях влияние Chemical Brothers ощущается довольно явственно. Особенно грешит этим композиция «Keep Hope Alive», начинающаяся короткими невесомыми басами, которые, попадая под битовый обстрел, наполняют музыку мощной энергетикой. Однако биг-битовая техника – это чуть ли не единственное, что роднит дуэт Crystal Method со старшими «химическими братьями». Композиции альбома «Vegas» не отличаются особой утонченностью. Впрочем, это и не нужно, поскольку органичное сочетание классики, рэйва, техно, рока и хип-хопа конца 1980-х гг., на котором строится весь альбом, и без того действует опьяняюще.

Начинается этот фантастический драйв с композиции «Trip Like I Do» – мощного стилистического микса, создающего ощущение космического полета. Следующий далее трек «Busy Child» является гибридом трип-хопа и рэпа, пронизанным битовыми мотивами. «Cherry Twist» – это торжество клавишных, то ускоряющихся, то замедляющих свой темп, словно уходящие от погони беглецы, которые никак не могут отдышаться. «High Roller» – одна из жемчужин альбома, где космические мелодии сочетаются с экспансией ударных. «Comin' Back» врывается в альбом потрясающим вокалом, а «Jaded» поражает воздушным многообразием звуков и их экспансией. И, наконец, «Bad Stone» – более спокойная, остужающая композиция, достойная стать завершением альбома.

В целом «Vegas», наполненный качественным биг- и брейк-битом, местами окрашенный в квази-психоделические и трансовые тона, является великолепным образцом танцевальной музыки.
Exact Audio Copy V0.99 prebeta 5 from 4. May 2009 

EAC extraction logfile from 29. May 2009, 12:14

The Crystal Method / Vegas (Deluxe Edition)

Used drive : Optiarc DVD+-RW AD-7580A Adapter: 1 ID: 0

Read mode : Secure
Utilize accurate stream : Yes
Defeat audio cache : Yes
Make use of C2 pointers : No

Read offset correction : 6
Overread into Lead-In and Lead-Out : No
Fill up missing offset samples with silence : Yes
Delete leading and trailing silent blocks : No
Null samples used in CRC calculations : Yes
Used interface : Native Win32 interface for Win NT & 2000
Gap handling : Appended to previous track

Used output format : User Defined Encoder
Selected bitrate : 768 kBit/s
Quality : High
Add ID3 tag : No
Command line compressor : C:\Program Files\Exact Audio Copy\FLAC\FLAC.EXE
Additional command line options : -6 -V -T "ARTIST=%a" -T "TITLE=%t" -T "ALBUM=%g" -T "DATE=%y" -T "TRACKNUMBER=%n" -T "GENRE=%m" -T "COMMENT=%e" %s -o %d

TOC of the extracted CD

Track | Start | Length | Start sector | End sector
---------------------------------------------------------
1 | 0:00.00 | 7:34.41 | 0 | 34090
2 | 7:34.41 | 7:24.51 | 34091 | 67441
3 | 14:59.17 | 4:25.54 | 67442 | 87370
4 | 19:24.71 | 5:29.65 | 87371 | 112110
5 | 24:54.61 | 5:38.61 | 112111 | 137521
6 | 30:33.47 | 6:12.60 | 137522 | 165481
7 | 36:46.32 | 6:33.59 | 165482 | 195015
8 | 43:20.16 | 5:41.37 | 195016 | 220627
9 | 49:01.53 | 7:05.50 | 220628 | 252552
10 | 56:07.28 | 5:11.38 | 252553 | 275915

Track 1

Filename F:\Rips\The Crystal Method - Vegas (1997) [FLAC] {2007 10th Anniversary 2CD Deluxe Edition}\CD1\01 - Trip Like I Do.wav

Pre-gap length 0:00:02.00

Peak level 98.8 %
Track quality 100.0 %
Test CRC B941DB4F
Copy CRC B941DB4F
Accurately ripped (confidence 16) [93BECE71]
Copy OK

Track 2

Filename F:\Rips\The Crystal Method - Vegas (1997) [FLAC] {2007 10th Anniversary 2CD Deluxe Edition}\CD1\02 - Busy Child.wav

Pre-gap length 0:00:01.44

Peak level 98.8 %
Track quality 100.0 %
Test CRC 5C851ACE
Copy CRC 5C851ACE
Accurately ripped (confidence 16) [B18B2165]
Copy OK

Track 3

Filename F:\Rips\The Crystal Method - Vegas (1997) [FLAC] {2007 10th Anniversary 2CD Deluxe Edition}\CD1\03 - Cherry Twist.wav

Pre-gap length 0:00:01.33

Peak level 98.8 %
Track quality 100.0 %
Test CRC 5626855D
Copy CRC 5626855D
Accurately ripped (confidence 16) [240A48C6]
Copy OK

Track 4

Filename F:\Rips\The Crystal Method - Vegas (1997) [FLAC] {2007 10th Anniversary 2CD Deluxe Edition}\CD1\04 - High Roller.wav

Peak level 98.8 %
Track quality 100.0 %
Test CRC FA7AF182
Copy CRC FA7AF182
Accurately ripped (confidence 16) [8ED3FA3B]
Copy OK

Track 5

Filename F:\Rips\The Crystal Method - Vegas (1997) [FLAC] {2007 10th Anniversary 2CD Deluxe Edition}\CD1\05 - Comin' Back.wav

Pre-gap length 0:00:00.25

Peak level 98.8 %
Track quality 100.0 %
Test CRC EEA1BEEB
Copy CRC EEA1BEEB
Accurately ripped (confidence 16) [A032B274]
Copy OK

Track 6

Filename F:\Rips\The Crystal Method - Vegas (1997) [FLAC] {2007 10th Anniversary 2CD Deluxe Edition}\CD1\06 - Keep Hope Alive.wav

Pre-gap length 0:00:00.21

Peak level 98.8 %
Track quality 100.0 %
Test CRC EA4EA739
Copy CRC EA4EA739
Accurately ripped (confidence 16) [6AC5BAA8]
Copy OK

Track 7

Filename F:\Rips\The Crystal Method - Vegas (1997) [FLAC] {2007 10th Anniversary 2CD Deluxe Edition}\CD1\07 - Vapor Trail.wav

Pre-gap length 0:00:00.61

Peak level 98.8 %
Track quality 100.0 %
Test CRC 4CE22FDF
Copy CRC 4CE22FDF
Accurately ripped (confidence 16) [3E5CE8EE]
Copy OK

Track 8

Filename F:\Rips\The Crystal Method - Vegas (1997) [FLAC] {2007 10th Anniversary 2CD Deluxe Edition}\CD1\08 - She's My Pusher.wav

Pre-gap length 0:00:00.56

Peak level 98.8 %
Track quality 100.0 %
Test CRC C3660519
Copy CRC C3660519
Accurately ripped (confidence 16) [B4A0458E]
Copy OK

Track 9

Filename F:\Rips\The Crystal Method - Vegas (1997) [FLAC] {2007 10th Anniversary 2CD Deluxe Edition}\CD1\09 - Jaded.wav

Pre-gap length 0:00:00.02

Peak level 98.8 %
Track quality 100.0 %
Test CRC 4D2B501B
Copy CRC 4D2B501B
Accurately ripped (confidence 16) [7F72F71E]
Copy OK

Track 10

Filename F:\Rips\The Crystal Method - Vegas (1997) [FLAC] {2007 10th Anniversary 2CD Deluxe Edition}\CD1\10 - Bad Stone.wav

Pre-gap length 0:00:01.31

Peak level 98.8 %
Track quality 99.9 %
Test CRC C0263ADD
Copy CRC C0263ADD
Accurately ripped (confidence 16) [F7B00C55]
Copy OK

All tracks accurately ripped

No errors occurred

End of status report
REM GENRE Electronica 
REM DATE 1997
REM DISCID 8B0E5E0A
REM COMMENT "ExactAudioCopy v0.99pb5"
PERFORMER "The Crystal Method"
TITLE "Vegas (Deluxe Edition)"
FILE "01 - Trip Like I Do.wav" WAVE
TRACK 01 AUDIO
TITLE "Trip Like I Do"
PERFORMER "The Crystal Method"
INDEX 01 00:00:00
TRACK 02 AUDIO
TITLE "Busy Child"
PERFORMER "The Crystal Method"
INDEX 00 07:32:72
FILE "02 - Busy Child.wav" WAVE
INDEX 01 00:00:00
TRACK 03 AUDIO
TITLE "Cherry Twist"
PERFORMER "The Crystal Method"
INDEX 00 07:23:18
FILE "03 - Cherry Twist.wav" WAVE
INDEX 01 00:00:00
FILE "04 - High Roller.wav" WAVE
TRACK 04 AUDIO
TITLE "High Roller"
PERFORMER "The Crystal Method"
INDEX 01 00:00:00
TRACK 05 AUDIO
TITLE "Comin' Back"
PERFORMER "The Crystal Method"
INDEX 00 05:29:40
FILE "05 - Comin' Back.wav" WAVE
INDEX 01 00:00:00
TRACK 06 AUDIO
TITLE "Keep Hope Alive"
PERFORMER "The Crystal Method"
INDEX 00 05:38:40
FILE "06 - Keep Hope Alive.wav" WAVE
INDEX 01 00:00:00
TRACK 07 AUDIO
TITLE "Vapor Trail"
PERFORMER "The Crystal Method"
INDEX 00 06:11:74
FILE "07 - Vapor Trail.wav" WAVE
INDEX 01 00:00:00
TRACK 08 AUDIO
TITLE "She's My Pusher"
PERFORMER "The Crystal Method"
INDEX 00 06:33:03
FILE "08 - She's My Pusher.wav" WAVE
INDEX 01 00:00:00
TRACK 09 AUDIO
TITLE "Jaded"
PERFORMER "The Crystal Method"
INDEX 00 05:41:35
FILE "09 - Jaded.wav" WAVE
INDEX 01 00:00:00
TRACK 10 AUDIO
TITLE "Bad Stone"
PERFORMER "The Crystal Method"
INDEX 00 07:04:19
FILE "10 - Bad Stone.wav" WAVE
INDEX 01 00:00:00
Exact Audio Copy V0.99 prebeta 5 from 4. May 2009 

EAC extraction logfile from 29. May 2009, 12:54

The Crystal Method / Vegas Deluxe Edition (Disc 2)

Used drive : Optiarc DVD+-RW AD-7580A Adapter: 1 ID: 0

Read mode : Secure
Utilize accurate stream : Yes
Defeat audio cache : Yes
Make use of C2 pointers : No

Read offset correction : 6
Overread into Lead-In and Lead-Out : No
Fill up missing offset samples with silence : Yes
Delete leading and trailing silent blocks : No
Null samples used in CRC calculations : Yes
Used interface : Native Win32 interface for Win NT & 2000
Gap handling : Appended to previous track

Used output format : User Defined Encoder
Selected bitrate : 768 kBit/s
Quality : High
Add ID3 tag : No
Command line compressor : C:\Program Files\Exact Audio Copy\FLAC\FLAC.EXE
Additional command line options : -6 -V -T "ARTIST=%a" -T "TITLE=%t" -T "ALBUM=%g" -T "DATE=%y" -T "TRACKNUMBER=%n" -T "GENRE=%m" -T "COMMENT=%e" %s -o %d

TOC of the extracted CD

Track | Start | Length | Start sector | End sector
---------------------------------------------------------
1 | 0:00.00 | 6:43.35 | 0 | 30259
2 | 6:43.35 | 7:15.11 | 30260 | 62895
3 | 13:58.46 | 4:38.29 | 62896 | 83774
4 | 18:37.00 | 6:58.39 | 83775 | 115163
5 | 25:35.39 | 5:37.62 | 115164 | 140500
6 | 31:13.26 | 6:04.08 | 140501 | 167808
7 | 37:17.34 | 8:32.01 | 167809 | 206209
8 | 45:49.35 | 6:41.15 | 206210 | 236299
9 | 52:30.50 | 5:04.64 | 236300 | 259163
10 | 57:35.39 | 6:04.22 | 259164 | 286485
11 | 66:11.61 | 8:33.59 | 297886 | 336419

Track 1

Filename F:\Rips\The Crystal Method - Vegas (1997) [FLAC] {2007 10th Anniversary 2CD Deluxe Edition}\01 - Busy Child (Sta Remix).wav

Pre-gap length 0:00:02.00

Peak level 98.8 %
Track quality 99.9 %
Test CRC 854C0967
Copy CRC 854C0967
Accurately ripped (confidence 17) [CF67B586]
Copy OK

Track 2

Filename F:\Rips\The Crystal Method - Vegas (1997) [FLAC] {2007 10th Anniversary 2CD Deluxe Edition}\02 - Trip Like I Do (Tom Real vs. The Rogue Element Remix).wav

Pre-gap length 0:00:00.74

Peak level 95.7 %
Track quality 100.0 %
Test CRC 8BCFDA5A
Copy CRC 8BCFDA5A
Accurately ripped (confidence 17) [F05AA502]
Copy OK

Track 3

Filename F:\Rips\The Crystal Method - Vegas (1997) [FLAC] {2007 10th Anniversary 2CD Deluxe Edition}\03 - Keep Hope Alive (MSTRKRFT Remix).wav

Pre-gap length 0:00:01.26

Peak level 98.8 %
Track quality 100.0 %
Test CRC C33033D9
Copy CRC C33033D9
Accurately ripped (confidence 17) [D8D4A309]
Copy OK

Track 4

Filename F:\Rips\The Crystal Method - Vegas (1997) [FLAC] {2007 10th Anniversary 2CD Deluxe Edition}\04 - Comin' Back (Koma and Bones remix).wav

Peak level 98.8 %
Track quality 100.0 %
Test CRC DCCDFAC3
Copy CRC DCCDFAC3
Accurately ripped (confidence 17) [32832612]
Copy OK

Track 5

Filename F:\Rips\The Crystal Method - Vegas (1997) [FLAC] {2007 10th Anniversary 2CD Deluxe Edition}\05 - Busy Child (Hyper Remix).wav

Pre-gap length 0:00:01.08

Peak level 98.8 %
Track quality 100.0 %
Test CRC A793E4D8
Copy CRC A793E4D8
Accurately ripped (confidence 17) [CA62E24D]
Copy OK

Track 6

Filename F:\Rips\The Crystal Method - Vegas (1997) [FLAC] {2007 10th Anniversary 2CD Deluxe Edition}\06 - Cherry Twist (Deadmau5 Remix).wav

Pre-gap length 0:00:00.17

Peak level 98.8 %
Track quality 100.0 %
Test CRC A9D21A01
Copy CRC A9D21A01
Accurately ripped (confidence 17) [2A8F9E46]
Copy OK

Track 7

Filename F:\Rips\The Crystal Method - Vegas (1997) [FLAC] {2007 10th Anniversary 2CD Deluxe Edition}\07 - Busy Child (Paul Oakenfold Remix).wav

Pre-gap length 0:00:00.65

Peak level 98.8 %
Track quality 99.9 %
Test CRC D09B4F5F
Copy CRC D09B4F5F
Accurately ripped (confidence 17) [20EF3502]
Copy OK

Track 8

Filename F:\Rips\The Crystal Method - Vegas (1997) [FLAC] {2007 10th Anniversary 2CD Deluxe Edition}\08 - High Roller (Myagi Remix).wav

Peak level 98.8 %
Track quality 100.0 %
Test CRC 9EFE9E7F
Copy CRC 9EFE9E7F
Accurately ripped (confidence 17) [CAFA150A]
Copy OK

Track 9

Filename F:\Rips\The Crystal Method - Vegas (1997) [FLAC] {2007 10th Anniversary 2CD Deluxe Edition}\09 - Comin' Back ('93 Demo).wav

Pre-gap length 0:00:01.23

Peak level 99.9 %
Track quality 99.9 %
Test CRC 11A3F1F9
Copy CRC 11A3F1F9
Accurately ripped (confidence 17) [4C6A21CA]
Copy OK

Track 10

Filename F:\Rips\The Crystal Method - Vegas (1997) [FLAC] {2007 10th Anniversary 2CD Deluxe Edition}\10 - Vapor Trail (Live).wav

Peak level 98.8 %
Track quality 99.9 %
Test CRC F36713B2
Copy CRC F36713B2
Accurately ripped (confidence 17) [7935315A]
Copy OK

All tracks accurately ripped

No errors occurred

End of status report
REM GENRE Electronic 
REM DATE 2007
REM DISCID 9B11850B
REM COMMENT "ExactAudioCopy v0.99pb5"
PERFORMER "The Crystal Method"
TITLE "Vegas Deluxe Edition (Disc 2)"
FILE "01 - Busy Child (Sta Remix).wav" WAVE
TRACK 01 AUDIO
TITLE "Busy Child (Sta Remix)"
PERFORMER "The Crystal Method"
INDEX 01 00:00:00
TRACK 02 AUDIO
TITLE "Trip Like I Do (Tom Real vs. The Rogue Element Remix)"
PERFORMER "The Crystal Method"
INDEX 00 06:42:36
FILE "02 - Trip Like I Do (Tom Real vs. The Rogue Element Remix).wav" WAVE
INDEX 01 00:00:00
TRACK 03 AUDIO
TITLE "Keep Hope Alive (MSTRKRFT Remix)"
PERFORMER "The Crystal Method"
INDEX 00 07:13:60
FILE "03 - Keep Hope Alive (MSTRKRFT Remix).wav" WAVE
INDEX 01 00:00:00
FILE "04 - Comin' Back (Koma and Bones remix).wav" WAVE
TRACK 04 AUDIO
TITLE "Comin' Back (Koma and Bones remix)"
PERFORMER "The Crystal Method"
INDEX 01 00:00:00
TRACK 05 AUDIO
TITLE "Busy Child (Hyper Remix)"
PERFORMER "The Crystal Method"
INDEX 00 06:57:31
FILE "05 - Busy Child (Hyper Remix).wav" WAVE
INDEX 01 00:00:00
TRACK 06 AUDIO
TITLE "Cherry Twist (Deadmau5 Remix)"
PERFORMER "The Crystal Method"
INDEX 00 05:37:45
FILE "06 - Cherry Twist (Deadmau5 Remix).wav" WAVE
INDEX 01 00:00:00
TRACK 07 AUDIO
TITLE "Busy Child (Paul Oakenfold Remix)"
PERFORMER "The Crystal Method"
INDEX 00 06:03:18
FILE "07 - Busy Child (Paul Oakenfold Remix).wav" WAVE
INDEX 01 00:00:00
FILE "08 - High Roller (Myagi Remix).wav" WAVE
TRACK 08 AUDIO
TITLE "High Roller (Myagi Remix)"
PERFORMER "The Crystal Method"
INDEX 01 00:00:00
TRACK 09 AUDIO
TITLE "Comin' Back ('93 Demo)"
PERFORMER "The Crystal Method"
INDEX 00 06:39:67
FILE "09 - Comin' Back ('93 Demo).wav" WAVE
INDEX 01 00:00:00
FILE "10 - Vapor Trail (Live).wav" WAVE
TRACK 10 AUDIO
TITLE "Vapor Trail (Live)"
PERFORMER "The Crystal Method"
INDEX 01 00:00:00
TRACK 11 MODEx/2xxx
TITLE "Busy Child and Comin' Back (Video)"
PERFORMER "The Crystal Method"
INDEX 00 06:04:22
Label: Geffen Records, Outpost Recordings
Catalog#: 069493063 2, 069493063 2
Format: CD, Album
Country: US
Released: 2001
Genre: Electronic
Style: Breakbeat, Breaks, Big Beat
Duration: 1:08:57

Tracklist:
01. PHD (6:27)
02. Wild, Sweet And Cool (3:55)
03. Roll It Up (6:02)
04. You Know It's Hard (4:40)
05. Name Of The Game (4:15)
06. The Winner (5:12)
07. Ready For Action (5:01)
08. Ten Miles Back (7:00)
09. Over The Line (6:54)
10. Blowout (7:58)
11. Tough Guy (11:32)
«Tweekend» вышел в июле 2001 – спустя целых четыре года после дебютного альбома Crystal Method «Vegas». Однако столь продолжительный перерыв сыграл Джордану и Киркленду только на руку – диск получился цельным, интересным и еще более гармоничным, чем предыдущий. В отличие от первого альбома, в котором еще чувствовалось влияние Chemical Brothers, «Tweekend» является полностью самостоятельным. А участие таких фигур, как Том Морелло (Rage Against The Machine) и Скотт Вейланд (Stone Temple Pilots) лишь добавило альбому яркости.

Впрочем, в отличие от предыдущего альбома, принятого на ура и критиками и слушателями, в данном случае мнения разошлись. Мэтры от музыки посчитали, что альбом, демонстрируя отсутствие единой концепции, получился более слабым и однообразным. В противовес им фанаты приняли диск с горящими глазами и распростертыми объятиями, в результате чего положение Crystal Method на музыкальном Олимпе лишь укрепилось.

Альбом открывается агрессивными барабанами и ревом электроники, поверх которых налагается приятная гитарная музыка. Это композиция «PHD», дающая мощный заряд энергетики, усиливающейся в «Wild, Sweet & Cool» и «Roll It Up» оригинальными гитарными пассажами в духе Джимми Хендрикса. Сочетание рэпа с металлической гитарой в «Name Of The Game» сопровождается тяжелыми басами, гитарными линиями и вокалом Тома Морелло и DJ Swamp. В «Ready For Action» электроника переплетается с деструктивным супер-битом, создавая ощущение фантастической реальности. А «Murder» втягивает слушателя в роковый отрыв, усиливающийся барабанными переходами и захватывающей гитарной партией, дополненной вокалом Скотта Вейланда.

В целом, в отличие от предыдущего диска, «Tweekend» получился более музыкальным и мелодичным. В нем гораздо меньше бьющих по барабанным перепонкам басов, а также квази-психоделических и трансовых настроений. На смену им пришли роскошные синтезаторы и металлическая гитара, в результате чего альбом только выиграл, получив ярко выраженный забойно-танцевальный характер.
Exact Audio Copy V0.99 prebeta 5 from 4. May 2009 

EAC extraction logfile from 29. May 2009, 14:03

The Crystal Method / Tweekend

Used drive : Optiarc DVD+-RW AD-7580A Adapter: 1 ID: 0

Read mode : Secure
Utilize accurate stream : Yes
Defeat audio cache : Yes
Make use of C2 pointers : No

Read offset correction : 6
Overread into Lead-In and Lead-Out : No
Fill up missing offset samples with silence : Yes
Delete leading and trailing silent blocks : No
Null samples used in CRC calculations : Yes
Used interface : Native Win32 interface for Win NT & 2000
Gap handling : Appended to previous track

Used output format : User Defined Encoder
Selected bitrate : 768 kBit/s
Quality : High
Add ID3 tag : No
Command line compressor : C:\Program Files\Exact Audio Copy\FLAC\FLAC.EXE
Additional command line options : -6 -V -T "ARTIST=%a" -T "TITLE=%t" -T "ALBUM=%g" -T "DATE=%y" -T "TRACKNUMBER=%n" -T "GENRE=%m" -T "COMMENT=%e" %s -o %d

TOC of the extracted CD

Track | Start | Length | Start sector | End sector
---------------------------------------------------------
1 | 0:00.00 | 6:27.32 | 0 | 29056
2 | 6:27.32 | 3:54.43 | 29057 | 46649
3 | 10:22.00 | 6:02.12 | 46650 | 73811
4 | 16:24.12 | 4:40.13 | 73812 | 94824
5 | 21:04.25 | 4:15.07 | 94825 | 113956
6 | 25:19.32 | 5:11.53 | 113957 | 137334
7 | 30:31.10 | 5:01.32 | 137335 | 159941
8 | 35:32.42 | 7:00.33 | 159942 | 191474
9 | 42:33.00 | 6:54.27 | 191475 | 222551
10 | 49:27.27 | 7:57.48 | 222552 | 258374
11 | 57:25.00 | 11:32.35 | 258375 | 310309

Track 1

Filename F:\Rips\The Crystal Method - Tweekend (2001) [FLAC]\01 - PHD.wav

Pre-gap length 0:00:02.00

Peak level 98.8 %
Track quality 100.0 %
Test CRC DED49193
Copy CRC DED49193
Accurately ripped (confidence 4) [D9C455E8]
Copy OK

Track 2

Filename F:\Rips\The Crystal Method - Tweekend (2001) [FLAC]\02 - Wild, Sweet And Cool.wav

Pre-gap length 0:00:00.58

Peak level 98.8 %
Track quality 100.0 %
Test CRC C1513116
Copy CRC C1513116
Accurately ripped (confidence 4) [4392CE70]
Copy OK

Track 3

Filename F:\Rips\The Crystal Method - Tweekend (2001) [FLAC]\03 - Roll It Up.wav

Peak level 98.8 %
Track quality 100.0 %
Test CRC C5071B35
Copy CRC C5071B35
Accurately ripped (confidence 4) [9C4F8AD6]
Copy OK

Track 4

Filename F:\Rips\The Crystal Method - Tweekend (2001) [FLAC]\04 - Murder.wav

Pre-gap length 0:00:01.09

Peak level 98.8 %
Track quality 100.0 %
Test CRC 119C2861
Copy CRC 119C2861
Accurately ripped (confidence 4) [FC47839C]
Copy OK

Track 5

Filename F:\Rips\The Crystal Method - Tweekend (2001) [FLAC]\05 - Name Of The Game.wav

Peak level 98.8 %
Track quality 100.0 %
Test CRC 6C198C4B
Copy CRC 6C198C4B
Accurately ripped (confidence 4) [63DCAC4D]
Copy OK

Track 6

Filename F:\Rips\The Crystal Method - Tweekend (2001) [FLAC]\06 - The Winner.wav

Peak level 98.9 %
Track quality 100.0 %
Test CRC C08B7456
Copy CRC C08B7456
Accurately ripped (confidence 4) [62B4102A]
Copy OK

Track 7

Filename F:\Rips\The Crystal Method - Tweekend (2001) [FLAC]\07 - Ready For Action.wav

Pre-gap length 0:00:00.31

Peak level 100.0 %
Track quality 100.0 %
Test CRC A694504C
Copy CRC A694504C
Accurately ripped (confidence 4) [B34DFFF7]
Copy OK

Track 8

Filename F:\Rips\The Crystal Method - Tweekend (2001) [FLAC]\08 - Ten Miles Back.wav

Pre-gap length 0:00:00.21

Peak level 98.8 %
Track quality 100.0 %
Test CRC 3A19FA4E
Copy CRC 3A19FA4E
Accurately ripped (confidence 4) [4579A00C]
Copy OK

Track 9

Filename F:\Rips\The Crystal Method - Tweekend (2001) [FLAC]\09 - Over The Line.wav

Pre-gap length 0:00:01.23

Peak level 98.8 %
Track quality 100.0 %
Test CRC 9AE0A1C1
Copy CRC 9AE0A1C1
Accurately ripped (confidence 4) [7BF2E1D7]
Copy OK

Track 10

Filename F:\Rips\The Crystal Method - Tweekend (2001) [FLAC]\10 - Blowout.wav

Pre-gap length 0:00:01.05

Peak level 98.8 %
Track quality 100.0 %
Test CRC 618A3F4F
Copy CRC 618A3F4F
Accurately ripped (confidence 4) [473A9F8B]
Copy OK

Track 11

Filename F:\Rips\The Crystal Method - Tweekend (2001) [FLAC]\11 - Tough Guy.wav

Pre-gap length 0:00:01.68

Peak level 98.8 %
Track quality 100.0 %
Test CRC A9342341
Copy CRC A9342341
Accurately ripped (confidence 4) [DD3CC33D]
Copy OK

All tracks accurately ripped

No errors occurred

End of status report
REM GENRE Electronic 
REM DATE 2001
REM DISCID A710290B
REM COMMENT "ExactAudioCopy v0.99pb5"
PERFORMER "The Crystal Method"
TITLE "Tweekend"
FILE "01 - PHD.wav" WAVE
TRACK 01 AUDIO
TITLE "PHD"
PERFORMER "The Crystal Method"
INDEX 01 00:00:00
TRACK 02 AUDIO
TITLE "Wild, Sweet And Cool"
PERFORMER "The Crystal Method"
INDEX 00 06:26:49
FILE "02 - Wild, Sweet And Cool.wav" WAVE
INDEX 01 00:00:00
FILE "03 - Roll It Up.wav" WAVE
TRACK 03 AUDIO
TITLE "Roll It Up"
PERFORMER "The Crystal Method"
INDEX 01 00:00:00
TRACK 04 AUDIO
TITLE "Murder"
PERFORMER "The Crystal Method"
INDEX 00 06:01:03
FILE "04 - Murder.wav" WAVE
INDEX 01 00:00:00
FILE "05 - Name Of The Game.wav" WAVE
TRACK 05 AUDIO
TITLE "Name Of The Game"
PERFORMER "The Crystal Method"
INDEX 01 00:00:00
FILE "06 - The Winner.wav" WAVE
TRACK 06 AUDIO
TITLE "The Winner"
PERFORMER "The Crystal Method"
INDEX 01 00:00:00
TRACK 07 AUDIO
TITLE "Ready For Action"
PERFORMER "The Crystal Method"
INDEX 00 05:11:22
FILE "07 - Ready For Action.wav" WAVE
INDEX 01 00:00:00
TRACK 08 AUDIO
TITLE "Ten Miles Back"
PERFORMER "The Crystal Method"
INDEX 00 05:01:11
FILE "08 - Ten Miles Back.wav" WAVE
INDEX 01 00:00:00
TRACK 09 AUDIO
TITLE "Over The Line"
PERFORMER "The Crystal Method"
INDEX 00 06:59:10
FILE "09 - Over The Line.wav" WAVE
INDEX 01 00:00:00
TRACK 10 AUDIO
TITLE "Blowout"
PERFORMER "The Crystal Method"
INDEX 00 06:53:22
FILE "10 - Blowout.wav" WAVE
INDEX 01 00:00:00
TRACK 11 AUDIO
TITLE "Tough Guy"
PERFORMER "The Crystal Method"
INDEX 00 07:55:55
FILE "11 - Tough Guy.wav" WAVE
INDEX 01 00:00:00
Label: V2 Records, Inc.
Catalog#: VVR1025372
Format: CD, Album, Enhanced
Country: Europe
Released: 2003
Genre: Electronic
Style: Breakbeat, Breaks
Duration: 58:28

Tracklist:
01. Starting Over (4:03)
02. Born Too Slow (3:00)
03. True Grit (5:07)
04. The American Way (4:27)
05. I Know It's You (5:49)
06. Realizer (3:49)
07. Broken Glass (3:56)
08. Weapons Of Mass Distortion (4:51)
09. Bound Too Long (6:24)
10. Acetone (5:16)
11. High And Low (5:24)
12. Wide Open (7:23)
«Legion of Boom», пожалуй, один из самых оригинальных альбомов группы «Crystal Method», отмеченный престижной наградой – «Лучший альбом 2004 года».

Альбом состоит из 12 композиций, в которых Кен Джордан и Скотт Киркленд активно экспериментируют как со звуком, так и с различными музыкальными направлениями. По мнению экспертов, стиль break-beat, являющийся приоритетным для «Crystal Method», в чистом виде характерен лишь для одной композиции – «Born Too Slow», напоминающей творения «Fatboy Slim».

Остальные же треки альбома представляют собой причудливое переплетение традиционных break-beat и big-beat с другими стилями. А привлечение других звезд музыкального олимпа к работе над «Legion of Boom» добавляет в звучание альбома дополнительные краски.

Участие экс-вокалиста «Kyuss» Джона Гарсии и бывшего гитариста «Limp Bizkit» Уэса Борланда привнесло рок-н-ролльный драйв в трек «Born Too Slow», написанный для популярнейшей компьютерной игры «NFS Underground» и удостоенный премии «Лучший сингл 2004». С участием Борланда записана и самая «тяжелая» дорожка альбома – «Weapons Of Mass Distortion». Речитатив Рейзела из группы «The Roots» привнес хип-хоповые ноты в трек «American Way». А в треке «I Know It’s You» на фоне достаточно спокойной trance-мелодии гармоничным дуэтом звучат мужской голос и вокал Милы Йовович.

Помимо рок-н-ролла, хип-хопа, trance-мелодий, в альбоме «Legion of Boom» можно выделить и acid-звуки («Acetone»), и гитарный рок («Weapons Of Mass Distortion»). Все это делает общее звучание альбома агрессивно-мрачным (пожалуй, единственная композиция, отличающаяся позитивной направленностью, это «Bound to Long»), но в то же время создает мощную трэшевую энергетику.
EAC extraction logfile from 4. September 2005, 16:54 for CD 
The Crystal Method / Legion Of Boom

Used drive : HL-DT-STDVD+RW GCA-4040N Adapter: 1 ID: 0
Read mode : Secure with NO C2, accurate stream, disable cache
Read offset correction : 48
Overread into Lead-In and Lead-Out : Yes

Used output format : C:\Program Files\FLAC\flac.exe (User Defined Encoder)
320 kBit/s
Additional command line options : -8 -V -T "artist=%a" -T "title=%t" -T "album=%g" -T "date=%y" -T "tracknumber=%n" -T "genre=%m" -T "comment=%e" %s

Other options :
Fill up missing offset samples with silence : Yes
Delete leading and trailing silent blocks : No
Installed external ASPI interface

Track 1
Filename E:\music\Albums\Lossless\[My Rips]\The Crystal Method - Legion Of Boom\01 - Starting Over.wav

Pre-gap length 0:00:02.00

Peak level 98.8 %
Track quality 100.0 %
Test CRC B75329FF
Copy CRC B75329FF
Copy OK

Track 2
Filename E:\music\Albums\Lossless\[My Rips]\The Crystal Method - Legion Of Boom\02 - Born Too Slow.wav

Peak level 98.8 %
Track quality 100.0 %
Test CRC 05AEA7E9
Copy CRC 05AEA7E9
Copy OK

Track 3
Filename E:\music\Albums\Lossless\[My Rips]\The Crystal Method - Legion Of Boom\03 - True Grit.wav

Peak level 98.8 %
Track quality 99.9 %
Test CRC 12F4A11C
Copy CRC 12F4A11C
Copy OK

Track 4
Filename E:\music\Albums\Lossless\[My Rips]\The Crystal Method - Legion Of Boom\04 - The American Way.wav

Pre-gap length 0:00:00.26

Peak level 98.8 %
Track quality 100.0 %
Test CRC 29DDC3FC
Copy CRC 29DDC3FC
Copy OK

Track 5
Filename E:\music\Albums\Lossless\[My Rips]\The Crystal Method - Legion Of Boom\05 - I Know It's You.wav

Peak level 98.6 %
Track quality 100.0 %
Test CRC 655FC49F
Copy CRC 655FC49F
Copy OK

Track 6
Filename E:\music\Albums\Lossless\[My Rips]\The Crystal Method - Legion Of Boom\06 - Realizer.wav

Peak level 98.8 %
Track quality 100.0 %
Test CRC 3E2E397A
Copy CRC 3E2E397A
Copy OK

Track 7
Filename E:\music\Albums\Lossless\[My Rips]\The Crystal Method - Legion Of Boom\07 - Broken Glass.wav

Peak level 98.8 %
Track quality 100.0 %
Test CRC 1F27A7FA
Copy CRC 1F27A7FA
Copy OK

Track 8
Filename E:\music\Albums\Lossless\[My Rips]\The Crystal Method - Legion Of Boom\08 - Weapons Of Mass Distortion.wav

Peak level 98.8 %
Track quality 100.0 %
Test CRC 1B6365D0
Copy CRC 1B6365D0
Copy OK

Track 9
Filename E:\music\Albums\Lossless\[My Rips]\The Crystal Method - Legion Of Boom\09 - Bound Too Long.wav

Peak level 98.8 %
Track quality 100.0 %
Test CRC 7C3737A0
Copy CRC 7C3737A0
Copy OK

Track 10
Filename E:\music\Albums\Lossless\[My Rips]\The Crystal Method - Legion Of Boom\10 - Acetone.wav

Peak level 98.8 %
Track quality 100.0 %
Test CRC 8EAE4E72
Copy CRC 8EAE4E72
Copy OK

Track 11
Filename E:\music\Albums\Lossless\[My Rips]\The Crystal Method - Legion Of Boom\11 - High And Low.wav

Peak level 98.8 %
Track quality 100.0 %
Test CRC 2C5BB9C3
Copy CRC 2C5BB9C3
Copy OK

Track 12
Filename E:\music\Albums\Lossless\[My Rips]\The Crystal Method - Legion Of Boom\12 - Wide Open.wav

Peak level 98.8 %
Track quality 99.9 %
Test CRC CE17E5F8
Copy CRC CE17E5F8
Copy OK

No errors occured

End of status report
REM GENRE Electronic 
REM DATE 2004
REM DISCID A70F8E0D
REM COMMENT ExactAudioCopy v0.95b1
PERFORMER "The Crystal Method"
TITLE "Legion Of Boom"
FILE "01 - Starting Over.wav" WAVE
TRACK 01 AUDIO
TITLE "Starting Over"
PERFORMER "The Crystal Method"
INDEX 01 00:00:00
FILE "02 - Born Too Slow.wav" WAVE
TRACK 02 AUDIO
TITLE "Born Too Slow"
PERFORMER "The Crystal Method"
INDEX 01 00:00:00
FILE "03 - True Grit.wav" WAVE
TRACK 03 AUDIO
TITLE "True Grit"
PERFORMER "The Crystal Method"
INDEX 01 00:00:00
TRACK 04 AUDIO
TITLE "The American Way"
PERFORMER "The Crystal Method"
INDEX 00 05:06:42
FILE "04 - The American Way.wav" WAVE
INDEX 01 00:00:00
FILE "05 - I Know It's You.wav" WAVE
TRACK 05 AUDIO
TITLE "I Know It's You"
PERFORMER "The Crystal Method"
INDEX 01 00:00:00
FILE "06 - Realizer.wav" WAVE
TRACK 06 AUDIO
TITLE "Realizer"
PERFORMER "The Crystal Method"
INDEX 01 00:00:00
FILE "07 - Broken Glass.wav" WAVE
TRACK 07 AUDIO
TITLE "Broken Glass"
PERFORMER "The Crystal Method"
INDEX 01 00:00:00
FILE "08 - Weapons Of Mass Distortion.wav" WAVE
TRACK 08 AUDIO
TITLE "Weapons Of Mass Distortion"
PERFORMER "The Crystal Method"
INDEX 01 00:00:00
FILE "09 - Bound Too Long.wav" WAVE
TRACK 09 AUDIO
TITLE "Bound Too Long"
PERFORMER "The Crystal Method"
INDEX 01 00:00:00
FILE "10 - Acetone.wav" WAVE
TRACK 10 AUDIO
TITLE "Acetone"
PERFORMER "The Crystal Method"
INDEX 01 00:00:00
FILE "11 - High And Low.wav" WAVE
TRACK 11 AUDIO
TITLE "High And Low"
PERFORMER "The Crystal Method"
INDEX 01 00:00:00
FILE "12 - Wide Open.wav" WAVE
TRACK 12 AUDIO
TITLE "Wide Open"
PERFORMER "The Crystal Method"
INDEX 01 00:00:00
TRACK 13 MODEx/2xxx
TITLE "Data Track"
PERFORMER "The Crystal Method"
INDEX 00 07:23:05
Label: Tiny E Records
Catalog#: TER009
Format: CD, Album
Country: US
Released: 12 May 2009
Genre: Electronic
Style: Breaks, Electro
Duration: 1:06:54

Tracklist:
01. Divided by Night (5:01)
02. Dirty Thirty (feat Peter Hook) (5:24)
03. Drown in the Now (feat Matisyahu) (5:47)
04. Kling to the Wreckage (feat Justin Warfield) (4:04)
05. Smile? (5:34)
06. Sine Language (feat LMFAO) (6:15)
07. Double Down Under (5:49)
08. Come Back Clean (feat Emily Haines) (4:57)
09. Slipstream (feat Jason Lytle) (5:18)
10. Black Rainbows (feat Stefanie King Warfield) (6:21)
11. Blunts & Robots (feat Peter Hook) (5:49)
12. Falling Hard (feat Meiko) (6:36)
Exact Audio Copy V0.99 prebeta 4 from 23. January 2008 

EAC extraction logfile from 22. May 2009, 12:47

The Crystal Method / Divided by Night

Used drive : HL-DT-STDVDRRW GSA-H30L Adapter: 0 ID: 1

Read mode : Secure
Utilize accurate stream : Yes
Defeat audio cache : Yes
Make use of C2 pointers : No

Read offset correction : 102
Overread into Lead-In and Lead-Out : No
Fill up missing offset samples with silence : Yes
Delete leading and trailing silent blocks : No
Null samples used in CRC calculations : Yes
Used interface : Native Win32 interface for Win NT & 2000
Gap handling : Appended to previous track

Used output format : User Defined Encoder
Selected bitrate : 192 kBit/s
Quality : High
Add ID3 tag : No
Command line compressor : C:\Program Files\FLAC\flac.exe
Additional command line options : -V -8 -T "artist=%a" -T "title=%t" -T "album=%g" -T "date=%y" -T "tracknumber=%n" -T "genre=%m" %s

TOC of the extracted CD

Track | Start | Length | Start sector | End sector
---------------------------------------------------------
1 | 0:00.00 | 5:00.72 | 0 | 22571
2 | 5:00.72 | 5:24.12 | 22572 | 46883
3 | 10:25.09 | 5:47.01 | 46884 | 72909
4 | 16:12.10 | 4:04.12 | 72910 | 91221
5 | 20:16.22 | 5:33.59 | 91222 | 116255
6 | 25:50.06 | 6:14.46 | 116256 | 144351
7 | 32:04.52 | 5:49.05 | 144352 | 170531
8 | 37:53.57 | 4:57.17 | 170532 | 192823
9 | 42:50.74 | 5:18.23 | 192824 | 216696
10 | 48:09.22 | 6:20.59 | 216697 | 245255
11 | 54:30.06 | 5:48.38 | 245256 | 271393
12 | 60:18.44 | 6:35.40 | 271394 | 301058

Track 1

Filename F:\Torrents\Downloads\The Crystal Method - Divided By Night (2009) [FLAC]\01 - Divided by Night.wav

Pre-gap length 0:00:02.00

Peak level 98.8 %
Track quality 100.0 %
Test CRC 7AEB8C5F
Copy CRC 7AEB8C5F
Accurately ripped (confidence 2) [DE49FA01]
Copy OK

Track 2

Filename F:\Torrents\Downloads\The Crystal Method - Divided By Night (2009) [FLAC]\02 - Dirty Thirty (feat Peter Hook).wav

Peak level 98.8 %
Track quality 100.0 %
Test CRC 523E155F
Copy CRC 523E155F
Accurately ripped (confidence 2) [9D3FBFBC]
Copy OK

Track 3

Filename F:\Torrents\Downloads\The Crystal Method - Divided By Night (2009) [FLAC]\03 - Drown in the Now (feat Matisyahu).wav

Peak level 98.8 %
Track quality 99.9 %
Test CRC B95B4A0A
Copy CRC B95B4A0A
Accurately ripped (confidence 2) [369D75BB]
Copy OK

Track 4

Filename F:\Torrents\Downloads\The Crystal Method - Divided By Night (2009) [FLAC]\04 - Kling to the Wreckage (feat Justin Warfield).wav

Peak level 98.8 %
Track quality 100.0 %
Test CRC 37E2B0AF
Copy CRC 37E2B0AF
Accurately ripped (confidence 2) [DF070E89]
Copy OK

Track 5

Filename F:\Torrents\Downloads\The Crystal Method - Divided By Night (2009) [FLAC]\05 - Smile .wav

Peak level 98.8 %
Track quality 100.0 %
Test CRC 508584C0
Copy CRC 508584C0
Accurately ripped (confidence 2) [BBF918E2]
Copy OK

Track 6

Filename F:\Torrents\Downloads\The Crystal Method - Divided By Night (2009) [FLAC]\06 - Sine Language (feat LMFAO).wav

Peak level 99.9 %
Track quality 100.0 %
Test CRC EADBAB60
Copy CRC EADBAB60
Accurately ripped (confidence 2) [18636587]
Copy OK

Track 7

Filename F:\Torrents\Downloads\The Crystal Method - Divided By Night (2009) [FLAC]\07 - Double Down Under.wav

Peak level 98.8 %
Track quality 100.0 %
Test CRC E96DCA66
Copy CRC E96DCA66
Accurately ripped (confidence 2) [08C75F1E]
Copy OK

Track 8

Filename F:\Torrents\Downloads\The Crystal Method - Divided By Night (2009) [FLAC]\08 - Come Back Clean (feat Emily Haines).wav

Peak level 98.8 %
Track quality 100.0 %
Test CRC 45F72D2F
Copy CRC 45F72D2F
Accurately ripped (confidence 2) [86313F1B]
Copy OK

Track 9

Filename F:\Torrents\Downloads\The Crystal Method - Divided By Night (2009) [FLAC]\09 - Slipstream (feat Jason Lytle).wav

Peak level 98.8 %
Track quality 100.0 %
Test CRC 70C0933B
Copy CRC 70C0933B
Accurately ripped (confidence 2) [34D19BB2]
Copy OK

Track 10

Filename F:\Torrents\Downloads\The Crystal Method - Divided By Night (2009) [FLAC]\10 - Black Rainbows (feat Stefanie King Warfield).wav

Peak level 98.8 %
Track quality 100.0 %
Test CRC 853A87C1
Copy CRC 853A87C1
Accurately ripped (confidence 2) [DA77AAA9]
Copy OK

Track 11

Filename F:\Torrents\Downloads\The Crystal Method - Divided By Night (2009) [FLAC]\11 - Blunts & Robots (feat Peter Hook).wav

Peak level 98.8 %
Track quality 100.0 %
Test CRC 47770374
Copy CRC 47770374
Accurately ripped (confidence 2) [C61552C2]
Copy OK

Track 12

Filename F:\Torrents\Downloads\The Crystal Method - Divided By Night (2009) [FLAC]\12 - Falling Hard (feat Meiko).wav

Peak level 98.8 %
Track quality 100.0 %
Test CRC 82D62992
Copy CRC 82D62992
Accurately ripped (confidence 2) [199B1459]
Copy OK

All tracks accurately ripped

No errors occurred

End of status report
REM GENRE Electronic 
REM DATE 2009
REM DISCID A20FAE0C
REM COMMENT "ExactAudioCopy v0.99pb4"
PERFORMER "The Crystal Method"
TITLE "Divided by Night"
FILE "01 - Divided by Night.wav" WAVE
TRACK 01 AUDIO
TITLE "Divided by Night"
PERFORMER "The Crystal Method"
INDEX 01 00:00:00
FILE "02 - Dirty Thirty (feat Peter Hook).wav" WAVE
TRACK 02 AUDIO
TITLE "Dirty Thirty (feat Peter Hook)"
PERFORMER "The Crystal Method"
INDEX 01 00:00:00
FILE "03 - Drown in the Now (feat Matisyahu).wav" WAVE
TRACK 03 AUDIO
TITLE "Drown in the Now (feat Matisyahu)"
PERFORMER "The Crystal Method"
INDEX 01 00:00:00
FILE "04 - Kling to the Wreckage (feat Justin Warfield).wav" WAVE
TRACK 04 AUDIO
TITLE "Kling to the Wreckage (feat Justin Warfield)"
PERFORMER "The Crystal Method"
INDEX 01 00:00:00
FILE "05 - Smile .wav" WAVE
TRACK 05 AUDIO
TITLE "Smile?"
PERFORMER "The Crystal Method"
INDEX 01 00:00:00
FILE "06 - Sine Language (feat LMFAO).wav" WAVE
TRACK 06 AUDIO
TITLE "Sine Language (feat LMFAO)"
PERFORMER "The Crystal Method"
INDEX 01 00:00:00
FILE "07 - Double Down Under.wav" WAVE
TRACK 07 AUDIO
TITLE "Double Down Under"
PERFORMER "The Crystal Method"
INDEX 01 00:00:00
FILE "08 - Come Back Clean (feat Emily Haines).wav" WAVE
TRACK 08 AUDIO
TITLE "Come Back Clean (feat Emily Haines)"
PERFORMER "The Crystal Method"
INDEX 01 00:00:00
FILE "09 - Slipstream (feat Jason Lytle).wav" WAVE
TRACK 09 AUDIO
TITLE "Slipstream (feat Jason Lytle)"
PERFORMER "The Crystal Method"
INDEX 01 00:00:00
FILE "10 - Black Rainbows (feat Stefanie King Warfield).wav" WAVE
TRACK 10 AUDIO
TITLE "Black Rainbows (feat Stefanie King Warfield)"
PERFORMER "The Crystal Method"
INDEX 01 00:00:00
FILE "11 - Blunts & Robots (feat Peter Hook).wav" WAVE
TRACK 11 AUDIO
TITLE "Blunts & Robots (feat Peter Hook)"
PERFORMER "The Crystal Method"
INDEX 01 00:00:00
FILE "12 - Falling Hard (feat Meiko).wav" WAVE
TRACK 12 AUDIO
TITLE "Falling Hard (feat Meiko)"
PERFORMER "The Crystal Method"
INDEX 01 00:00:00

http://www.crystalmethod.ru/ писал(а):

Группа Crystal Method (Кристалл Метод) появилась в 1993 году в результате усилий ее отцов-основателей Кена Джордана (Ken Jordan) и Скотта Киркленда (Scott Kirkland). Их свели совместная работа на одной из университетских радиостанций в Лас-Вегасе и «тяжелая музыка» (DMC, New Order и Depeche Mode), которую они как ди-джеи пропагандировали среди своих радиослушателей.
Увлечение музыкой породило естественное желание создать нечто подобное. Стремясь воплотить желаемое в действительное, Кен Джордан и Скотт Киркленд записали четыре музыкальных трека с женским вокалом. Но из-за отсутствия необходимого оборудования и необходимых навыков качество звучания оставляло желать лучшего, и опыты по созданию электронной музыки были временно прекращены. Однако желание делать «умоповоротную» музыку осталось.
Стремясь к новым горизонтам, Кен Джордан отправился в Лос-Анджелес, где работал ассистентом продюсера артистов Edie Brickell и Michael Penn. Это позволило ему получить великолепный опыт студийной работы и узнать ночную клубную жизнь «Города Ангелов».

В это время Скотт Киркленд в Лас-Вегасе брал уроки гитарного мастерства у лидера металлической команды Slaughter Марка Слотера (Mark Slaugter) и регулярно получал восторженные письма друга, восхищавшегося ночной жизнью Лос-Анджелеса. Как говорит сам Скотт, в один прекрасный момент любопытство достигло своего апогея, и он отправился в Лос-Анджелес.

Именно Лос-Анджелесу, буквально пропитанному атмосферой андеграунда, суждено было стать родиной дуэта Crystal Method. Погружение в бурную лос-анджелесскую жизнь вызвало к жизни первый сингл группы «Now Is The Time». Пропитанный духом уличных инцидентов и полицейских рейдов сингл буквально стал гимном своего времени.

Ориентируясь на новое направление продюсирования танцевальной музыки – диджейское сопровождение выступлений музыкальных групп, Кен Джордан и Скотт Киркленд настаивали на том, чтобы их воспринимали как группу Crystal Method, а не как анонимных ди-джеев. И эта установка принесла свои плоды. В 1995 году Джордана и Киркленда пригласили открывать шоу популярной британской группы Chemical Brothers.

Это было первое шоу Crystal Method, и, как вспоминает Джордан, его подготовка вызывала массу сомнений и противоречий. Самое главное – нужно было сделать выбор: сосредоточиться только на перфомансе или притащить на сцену всю студию. Выбор пал на перфоманс и, как оказалось, совершенно справедливо. Дебют был настолько успешным, что привлек внимание Outpost Recordings. Результатом сотрудничества с Outpost Recordings стал первый альбом группы Crystal Method «Vegas», релиз которого состоялся в Лос-Анджелесе в сентябре 1997 года.

«Vegas» сразу же получил признание публики и возвел дуэт в ранг музыкальной «электронной» элиты Америки. Этот альбом – смесь хип-хопа и диско, эйсида и хауса, вокальных вставок и пульсирующего бита, душевностью и юмором. Многие музыкальные критики сравнивали Crystal Method с Chemical Brothers. Однако, как утверждают сами участники дуэта, «они другие». Изначальная установка на синтетичность жанров, ориентация на песенную структуру и мелодичность композиций делают музыку Crystal Method уникальной. По словам Киркленда, синтетичность музыки дуэта выросла из диско (им увлекалась 15-летняя мать Скотта; да, да, его мать, действительно, была несовершеннолетней – ей было всего 15, когда Скотт родился), творчества Pink Floyd и Led Zeppelin (любимые группы отца) и Depeche Mode и heavy metal (юношеские пристрастия самого музыканта).

Спустя несколько лет, в 2001 году, на 32 месте чарта Billboard 200 и на вершине чарта Billboard's Top Electronic Albums дебютировал второй альбом дуэта под названием «Tweekend». Это был настоящий коммерческий успех группы. Альбом получил признание не только в Америке, но и во многих странах. Общий тираж альбома составил 284 тысячи дисков, а лучшие треки альбома «Wild, Sweet and Cool», «Murder», «The Name of the Game» звучали по всем каналам популярнейших радиостанций мира. Более того, видеоклип «The Name of the Game» был признан прорывом года. Третий альбом «Community Service», вышедший год спустя (июль 2002 г.) лишь укрепил позиции дуэта как лидера электронной музыки Америки, героев рейв-сцены.

Следующий альбом «Legion of Boom» (2004 г.) принес группе сразу три награды Dance Music Awards: «Лучшая американская группа», «Лучший альбом» («Legion of Boom») и «Лучший сингл» («Born Too Slow»).

Рост популярности дуэта привел к новым интересным проектам. Так, Crystal Method выиграли конкурс на создание саунд-трека к фильму «Лондон», вышедшему в прокат в 2006 году. Результатом этой работы стал не только интересный опыт, но и альбом «London – Original Motion Picture Soundtrack».

Помимо этого, Crystal Method специально для Nike записали микс Dreve Nike + Original Run, предназначенный для сопровождения спортивных упражнений. Также музыканты участвовали в разработке Nike+iPod Sport Kit – продукта, созданного компаниями Nike и Apple.

Кроме студийной работы, дуэт много гастролирует. «Мы доступны для всех, потому что мы хотим охватить «электронной музыкой» как можно больше людей», – говорят о себе музыканты, а потому их гастрольная деятельность не ограничивается крупными танцевальными площадками. За время своего существования Crystal Method объездили все уголки Соединенных Штатов.

Музыку Crystal Method можно услышать во многих блокбастерах Голливуда, таких как «Блэйд 2», «Три икса», «Угнать за 60 секунд» и др. Они также сотрудничают с создателями компьютерных игр. Творчество Кена Джордана и Скотта Киркленда обязательно оценят поклонники NFS Underground, FIFa'98: Road To World Cup, Matrix: Path of Neo и других популярных игр.

Кен Джордан писал(а):

В прошлом году и в начале этого к нам в Россию приезжало много известных артистов высокого класса. Например, Underworld, Depeche Mode, на очереди Faithless... Теперь вот вы. Заметно, что интерес к нашей стране повысился.

О, да, безусловно! У России большой потенциал. Хотя мы, в общем-то, всегда рассматривали вашу страну достаточно серьёзно. В Москве мы уже как-то раз были, но сейчас вот едем первый раз выступать с DJ-сетом.
А вы сейчас рассматриваете такие проекты как Depeche Mode и, допустим, Underworld как своих конкурентов?

Нет, совсем нет. Мы очень любим их музыку и всегда рады побыть в их компании.
Я упомянул DM. Когда-то для вас этот проект был источником вдохновения. Сейчас это наверняка уже поменялось, не так ли?

Ну, Скотт по прежнему большой их фанат и навсегда им останется. Думаю, они до сих пор вдохновляют его. Хотя Depeche Mode, само сабой, не единственный источник — вдохновение приходит отовсюду.
А откуда черпали вдохновение для последнего альбома Divided By Night? Вы ведь именно его будете представлять в Москве. Сложно писался?

Вдохновением послужила как наша работа, так и личная жизнь. Ничего сложного для нас не было, альбом писался легко с самого начала — ощущение скорее того, что он как будто писался сам. Это всё при том, что мы начали его позже, чем планировали — пришлось ждать, когда можно будет писаться в нашей новой студии Crystal Werks.

Новая студия — звучит здорово. Кстати, в одном интервью вы сказали, что пишете музыку полностью сами. Это до сих пор так и есть?
Да, совершенно верно. Мы всё делаем сами, контролируем каждый процесс. Правда, в новой студии у нас что-то немного поменялось, но в целом всё сами.

А как вы разделяете обязанности?
Всё просто: Скотт больше пишет песни и сочиняет, я же по большей части занимаюсь созданием звука и всей остальной технической работой.

Вопрос, который задаю всем дуэтам — часто работаете вместе?

Когда как. Вообще да, часто. Но вот недавно мы не виделись достаточно долго. Скотт просто работал на одном проекте Томми Ли, а я в одном ТВ-шоу у моего друга.

В студии в основном живые инструменты и синтезаторы? Как относитесь к софту?

Мы по-прежнему используем много аналоговых синтезаторов, но и не меньше виртуальных — сейчас они становятся всё лучше и лучше день ото дня. Можно даже сказать, что они уже вытесняют аналог.

У вас много и студийной работы, и выступлений. Но всё же что из этого предпочитаете?

Ну, писать музыку в студии — это значит создавать материал, который потом будет работать на тебя ещё долго, поэтому это очень важно. Но настоящее удовольствие и адреналин, конечно, идёт от живых выступлений!

Вернёмся к теме альбомов. Недавно на музыкальной конференции в Сочи обсуждалась тема альбомов. Я окончательно пришёл к выводу, что альбом теперь — лишь повод для начала тура и пиара, но не для денег совершенно точно...

Ну, в прошлом, конечно, альбомы создавались в первую очередь для продаж. Сейчас же артистам определённо не стоит рассчитывать на то, что они получат какие-то деньги с этого альбома. Что касается повода для тура: так было всегда, в том числе и сейчас, когда альбомы уже не покупают.

К слову о конференциях, посещаете какие-нибудь масштабные конференции? В Майами или Амстердаме например?

Очень часто ездим на Зимнюю конференцию в Майами. В этом году мы, кстати, играем там на фестивале Ultra Music живым выступлением... Один раз, в прошлом году, были на ADE — нам очень понравилось. Там на конференциях можно встретить очень много людей из музыкальной индустрии, и есть возможность увидеть превосходные живые выступления, которые покажут им на что ты способен. Это отличный задел на будущее.

У вас уже много всевозможных наград и армия фанатов — во многом благодаря музыке к играм и фильмам. Стоит нам ожидать появление Crystal Method в очередном фильме или компьютерной игре в этом году?

Да, стоит. Как говорится, продолжайте следить за нашим творчеством и всё увидите. Пока ничего конкретного сказать не можем. Что касается армии фанатов, то мы действительно до сих пор поддерживаем с ними связь на нашем официальном сайте и фан-сайте. Пишем в Твиттере, а также на MySpace, Facebook и других социальных сетях. А награды... Надеемся и в этом году что-нибудь получим.

Вас, наверное, можно считать самым «зелёным» музыкальным проектом в мире, судя по тому, что у тебя есть даже солнечные панели дома. И как — хорошо работают?

О, да! Панели работают отлично! Мы даже уже собираемся установить такие в нашей студии.

Ну, хорошо. Последний вопрос тогда, связанный с самой «зелёной» компанией на планете: как вам iPad? Видите в нём перспективы для использования в выступлениях?

Не могу сказать, что я с ума схожу по iPad, но моё мнение может измениться. Думаю, мультитач-планшет можно использовать как контроллер для живой игры очень успешно. Возможно, в один прекрасный день вы увидите нас с таким контроллером.
info [Профиль]  [ЛС] 

FantasticMrFox

Пол: Пол:Муж

Стаж: 7 лет 8 месяцев

Сообщений: 631

Россия
Рейтинг

post 01-Мар-2010 00:21 (спустя 6 часов) [-]0[+]

[Цитировать] 

Идеальные рипы:
1997 - Vegas {2007 10th Anniversary 2CD Deluxe Edition}
2001 - Tweekend
2009 - Divided by Night

Точные рипы:
2004 - Legion Of Boom
info [Профиль]  [ЛС] 

joshdigit

Пол: Пол:Муж

Стаж: 7 лет 1 месяц

Сообщений: 413

Рейтинг

post 01-Мар-2010 14:30 (спустя 14 часов) [-]0[+]

[Цитировать] 

Спасибо за accurately ripped!

_________________
OS: Windows 10 x64 • MB: Asus P5KC
CPU: Intel Core2 Quad, Q9550 • GPU: ASUS GeForce GTX660
RAM: OCZ DDR2, 800MHz, 4x1024 MB • HDD: WD5001AALS WD15EARS WD20EZRX WD20EARX
info [Профиль]  [ЛС] 

DaMaster

Пол: Пол:Муж

Стаж: 7 лет 3 месяца

Сообщений: 33

Рейтинг

post 19-Мар-2010 10:47 (спустя 17 дней) [-]0[+]

[Цитировать] 

нароооод, поддайте газу, уже неделю скачать немогу(((((((((((

_________________
ух ё маё
info [Профиль]  [ЛС] 

AFILEXO

Пол: Пол:Муж

Стаж: 7 лет 1 месяц

Сообщений: 520

Россия
Рейтинг

post 03-Сен-2012 09:36 (спустя 2 года 5 месяцев) [-]0[+]

[Цитировать] 

и сейчас тишина
info [Профиль]  [ЛС] 

foxyproxy

Пол: Пол:Муж

Стаж: 3 года 6 месяцев

Сообщений: 15

Норфолк
Рейтинг

post 29-Июл-2014 20:49 (спустя 1 год 10 месяцев) [-]0[+]

[Цитировать] 

Я тоже жду!

_________________
info [Профиль]  [ЛС] 
Показать сообщения:    
Ответить на тему

Текущее время: 03-Дек 23:48

Часовой пояс: GMT + 4



Вы не можете начинать темы
Вы не можете отвечать на сообщения
Вы не можете редактировать свои сообщения
Вы не можете удалять свои сообщения
Вы не можете голосовать в опросах
Вы не можете прикреплять файлы к сообщениям
Вы не можете скачивать файлы