Ошибка

(Hip Hop) Ja Rule - Pain Is Love - 2001, FLAC (image+.cue), lossless

Ответить на тему
 
Автор Сообщение

F.A.N.T.O.M

Пол: Пол:Муж

Стаж: 5 месяцев 29 дней

Сообщений: 432

Россия
Рейтинг

post 20-Май-2024 22:21 0[+]

[Цитировать] 



Ja Rule / Pain Is Love




Жанр: Hip Hop
Страна-производитель диска: USA
Год издания: 2001
Издатель (лейбл): Def Jam Recordings
Номер по каталогу: 314 586 437-2
Страна: USA

Аудиокодек: FLAC (*.flac)
Тип рипа: image+.cue
Битрейт аудио: lossless
Продолжительность: 01:02:14
Источник (релизер): CD из Личной Коллекции
Наличие сканов в содержимом раздачи: нет

[i]01. Pain Is Love (Skit) (1:18)
02. Dial M For Murder (3:33)
03. Livin' It Up (feat. Case) (4:17)
04. The Inc. (feat. Caddillac Tah, Black Child & Ashanti) (3:57)
05. Always On Time (feat. Ashanti) (4:05)
06. Down Ass Bitch (feat. Charli Baltimore) (5:31)
07. Never Again (4:19)
08. Worldwide Gangsta (feat. Caddillac Tah, Black Child, Boo & Gotti) (3:20)
09. Leo (Skit) (2:19)
10. I'm Real (Murder Remix) (fea. Jennifer Lopez) (4:13)
11. Smokin And Ridin (feat. Jodie Mack & 0-1) (4:51)
12. X (feat. Missy Elliott & Tweet) (5:02)
13. Big Remo (Skit) (0:20)
14. Lost Little Girl (5:01)
15. So Much Pain (feat. 2Pac) (5:04)
16. Pain Is Love (5:04)[i]
Exact Audio Copy V1.0 beta 3 from 29. August 2011

EAC extraction logfile from 24. February 2013, 9:58

Ja Rule / Pain Is Love

Used drive : Optiarc DVD RW AD-7283S Adapter: 0 ID: 0

Read mode : Secure
Utilize accurate stream : Yes
Defeat audio cache : Yes
Make use of C2 pointers : No

Read offset correction : 48
Overread into Lead-In and Lead-Out : No
Fill up missing offset samples with silence : Yes
Delete leading and trailing silent blocks : No
Null samples used in CRC calculations : Yes
Used interface : Native Win32 interface for Win NT & 2000

Used output format : User Defined Encoder
Selected bitrate : 1024 kBit/s
Quality : High
Add ID3 tag : No
Command line compressor : C:\Program Files (x86)\FLAC\flac.exe
Additional command line options : -8 -V -T "ARTIST=%artist%" -T "TITLE=%title%" -T "ALBUM=%albumtitle%" -T "DATE=%year%" -T "TRACKNUMBER=%tracknr%" -T "GENRE=%genre%" -T "PERFORMER=%albuminterpret%" -T "COMPOSER=%composer%" %haslyrics%--tag-from-file=LYRICS="%lyricsfile%"%haslyrics% -T "ALBUMARTIST=%albumartist%" -T "DISCNUMBER=%cdnumber%" -T "TOTALDISCS=%totalcds%" -T "TOTALTRACKS=%numtracks%" -T "COMMENT=%comment%" %source% -o %dest%

TOC of the extracted CD

Track | Start | Length | Start sector | End sector
---------------------------------------------------------
1 | 0:00.00 | 1:18.10 | 0 | 5859
2 | 1:18.10 | 3:32.52 | 5860 | 21811
3 | 4:50.62 | 4:17.08 | 21812 | 41094
4 | 9:07.70 | 3:56.47 | 41095 | 58841
5 | 13:04.42 | 4:05.10 | 58842 | 77226
6 | 17:09.52 | 5:31.03 | 77227 | 102054
7 | 22:40.55 | 4:19.17 | 102055 | 121496
8 | 26:59.72 | 3:20.15 | 121497 | 136511
9 | 30:20.12 | 2:18.60 | 136512 | 146921
10 | 32:38.72 | 4:12.70 | 146922 | 165891
11 | 36:51.67 | 4:51.25 | 165892 | 187741
12 | 41:43.17 | 5:02.33 | 187742 | 210424
13 | 46:45.50 | 0:19.57 | 210425 | 211906
14 | 47:05.32 | 5:00.43 | 211907 | 234449
15 | 52:06.00 | 5:03.52 | 234450 | 257226
16 | 57:09.52 | 5:04.10 | 257227 | 280036

Range status and errors

Selected range

Filename C:\Ja Rule - Pain Is Love (2001) [FLAC] {314 586 437-2}\Ja Rule - Pain Is Love.wav

Peak level 100.0 %
Extraction speed 3.9 X
Range quality 99.9 %
Test CRC 5EB71BF1
Copy CRC 5EB71BF1
Copy OK

No errors occurred

AccurateRip summary

Track 1 accurately ripped (confidence 7) [8CB3683D] (AR v1)
Track 2 accurately ripped (confidence 7) [083A8E82] (AR v1)
Track 3 accurately ripped (confidence 7) [58F7BBD0] (AR v1)
Track 4 accurately ripped (confidence 7) [A65DFA0A] (AR v1)
Track 5 accurately ripped (confidence 7) [927D4817] (AR v1)
Track 6 accurately ripped (confidence 7) [28ED3578] (AR v1)
Track 7 accurately ripped (confidence 7) [BBF92CC7] (AR v1)
Track 8 accurately ripped (confidence 7) [8930C48E] (AR v1)
Track 9 accurately ripped (confidence 7) [B6EE40C2] (AR v1)
Track 10 accurately ripped (confidence 7) [F4724B59] (AR v1)
Track 11 accurately ripped (confidence 6) [C182F6CA] (AR v1)
Track 12 accurately ripped (confidence 6) [98C70357] (AR v1)
Track 13 accurately ripped (confidence 7) [13027A26] (AR v1)
Track 14 accurately ripped (confidence 7) [1AC80C62] (AR v1)
Track 15 accurately ripped (confidence 7) [6A790615] (AR v1)
Track 16 accurately ripped (confidence 7) [9EF7C428] (AR v1)

All tracks accurately ripped

End of status report

==== Log checksum 48AC76D7F1191A87E093D8448691D32C9D4EC9E2BB79DB9568F1A2FC04DAC093 ====
REM GENRE Rap
REM DATE 2001
REM DISCID C70E9510
REM COMMENT "ExactAudioCopy v1.0b3"
PERFORMER "Ja Rule"
TITLE "Pain Is Love"
FILE "Ja Rule - Pain Is Love.flac" WAVE
TRACK 01 AUDIO
TITLE "Pain Is Love (Skit)"
PERFORMER "Ja Rule"
ISRC USDJ20110773
INDEX 01 00:00:00
TRACK 02 AUDIO
TITLE "Dial M For Murder"
PERFORMER "Ja Rule"
ISRC USDJ20110762
INDEX 01 01:18:10
TRACK 03 AUDIO
TITLE "Livin' It Up (feat. Case)"
PERFORMER "Ja Rule"
ISRC USDJ20110768
INDEX 01 04:50:62
TRACK 04 AUDIO
TITLE "The Inc. (feat. Caddillac Tah, Black Child & Ashanti)"
PERFORMER "Ja Rule"
ISRC USDJ20110777
INDEX 01 09:07:70
TRACK 05 AUDIO
TITLE " Always On Time (feat. Ashanti)"
PERFORMER "Ja Rule"
ISRC USDJ20110760
INDEX 01 13:04:42
TRACK 06 AUDIO
TITLE "Down Ass Bitch (feat. Charli Baltimore)"
PERFORMER "Ja Rule"
ISRC USDJ20110763
INDEX 01 17:09:52
TRACK 07 AUDIO
TITLE "Never Again"
PERFORMER "Ja Rule"
ISRC USDJ20110770
INDEX 01 22:40:55
TRACK 08 AUDIO
TITLE "Worldwide Gangsta (feat. Caddillac Tah, Black Child, Boo & Gotti)"
PERFORMER "Ja Rule"
ISRC USDJ20110780
INDEX 01 26:59:72
TRACK 09 AUDIO
TITLE "Leo (Skit)"
PERFORMER "Ja Rule"
ISRC USDJ20110766
INDEX 01 30:20:12
TRACK 10 AUDIO
TITLE "I'm Real (Murder Remix) (fea. Jennifer Lopez)"
PERFORMER "Ja Rule"
ISRC USSM10106880
INDEX 01 32:38:72
TRACK 11 AUDIO
TITLE "Smokin And Ridin (feat. Jodie Mack & 0-1)"
PERFORMER "Ja Rule"
ISRC USDJ20110774
INDEX 01 36:51:67
TRACK 12 AUDIO
TITLE "X (feat. Missy Elliott & Tweet)"
PERFORMER "Ja Rule"
ISRC USDJ20110779
INDEX 01 41:43:17
TRACK 13 AUDIO
TITLE "Big Remo (Skit)"
PERFORMER "Ja Rule"
ISRC USDJ20110761
INDEX 01 46:45:50
TRACK 14 AUDIO
TITLE "Lost Little Girl"
PERFORMER "Ja Rule"
ISRC USDJ20110769
INDEX 01 47:05:32
TRACK 15 AUDIO
TITLE "So Much Pain (feat. 2Pac)"
PERFORMER "Ja Rule"
ISRC USDJ20110775
INDEX 00 52:05:15
INDEX 01 52:06:00
TRACK 16 AUDIO
TITLE "Pain Is Love"
PERFORMER "Ja Rule"
ISRC USDJ20110772
INDEX 00 57:08:62
INDEX 01 57:09:52
info [Профиль]  [ЛС] 
Показать сообщения:    
Ответить на тему

Текущее время: 20-Июн 09:01

Часовой пояс: GMT + 4



Вы не можете начинать темы
Вы не можете отвечать на сообщения
Вы не можете редактировать свои сообщения
Вы не можете удалять свои сообщения
Вы не можете голосовать в опросах
Вы не можете прикреплять файлы к сообщениям
Вы не можете скачивать файлы