Ошибка

(Indie rock, Post-punk revival) The Fratellis - Дискография, FLAC (tracks+.cue), lossless

Ответить на тему
 
Автор Сообщение

FlipOoOs

Стаж: 6 лет 11 месяцев

Сообщений: 25

Россия
Рейтинг

post 13-Фев-2010 16:07 1[+]

[Цитировать] 

The Fratellis - Дискография

Жанр:Indie rock, Post-punk revival
Происхождение исполнителя: Scotland
[Аудио кодек: FLAC
Тип рипа: tracks+.cue
Битрейт аудио: lossless
Треклист:
1) Henrietta
2) Flathead
3) Cuntry Boys & City Girls
4) Whistle for the Choir
5) Chelsea Dagger
6) For the Girl
7) Doginabag
8) Creepin Up the Backstairs
9) Vince the Loveable Stoner
10) Everybody Knows You Cried Last Night
11) Baby Fratelli
12) Got Ma Nuts From a Hippy
13) Ole Black 'n' Blue Eyes
EAC extraction logfile from 14. October 2006, 15:36 for CD
The Fratellis / Costello Music

Used drive : LITE-ON DVDRW SOHW-1213S Adapter: 0 ID: 0
Read mode : Secure with NO C2, accurate stream, disable cache
Read offset correction : 12
Overread into Lead-In and Lead-Out : No

Used output format : D:\Program Files\Exact Audio Copy\bin\flac.exe (User Defined Encoder)
192 kBit/s
Additional command line options : -5 -V -T "ARTIST=%a" -T "TITLE=%t" -T "ALBUM=%g" -T "DATE=%y" -T "TRACKNUMBER=%n" -T "GENRE=%m" -T "COMMENT=EAC Flac 1.1.2 -5" %s

Other options :
Fill up missing offset samples with silence : Yes
Delete leading and trailing silent blocks : No
Native Win32 interface for Win NT & 2000

Track 1
Filename G:\The Fratellis - Costello Music (2006) [FLAC]\CD1of1\01 - Henrietta.wav

Pre-gap length 0:00:02.00

Peak level 99.7 %
Track quality 99.9 %
Test CRC 47E77892
Copy CRC 47E77892
Copy OK

Track 2
Filename G:\The Fratellis - Costello Music (2006) [FLAC]\CD1of1\02 - Flathead.wav

Peak level 100.0 %
Track quality 100.0 %
Test CRC CA960EC1
Copy CRC CA960EC1
Copy OK

Track 3
Filename G:\The Fratellis - Costello Music (2006) [FLAC]\CD1of1\03 - Cuntry Boys & City Girls.wav

Peak level 97.4 %
Track quality 100.0 %
Test CRC 3EED0E3F
Copy CRC 3EED0E3F
Copy OK

Track 4
Filename G:\The Fratellis - Costello Music (2006) [FLAC]\CD1of1\04 - Whistle For The Choir.wav

Peak level 100.0 %
Track quality 99.9 %
Test CRC 558A5DDA
Copy CRC 558A5DDA
Copy OK

Track 5
Filename G:\The Fratellis - Costello Music (2006) [FLAC]\CD1of1\05 - Chelsea Dagger.wav

Peak level 99.7 %
Track quality 100.0 %
Test CRC 35912803
Copy CRC 35912803
Copy OK

Track 6
Filename G:\The Fratellis - Costello Music (2006) [FLAC]\CD1of1\06 - For The Girl.wav

Peak level 99.7 %
Track quality 99.9 %
Test CRC 5F0A8151
Copy CRC 5F0A8151
Copy OK

Track 7
Filename G:\The Fratellis - Costello Music (2006) [FLAC]\CD1of1\07 - Doginabag.wav

Peak level 99.7 %
Track quality 99.9 %
Test CRC F794BA53
Copy CRC F794BA53
Copy OK

Track 8
Filename G:\The Fratellis - Costello Music (2006) [FLAC]\CD1of1\08 - Creepin Up The Backstairs.wav

Peak level 100.0 %
Track quality 100.0 %
Test CRC 898AC210
Copy CRC 898AC210
Copy OK

Track 9
Filename G:\The Fratellis - Costello Music (2006) [FLAC]\CD1of1\09 - Vince The Loveable Stoner.wav

Peak level 99.7 %
Track quality 100.0 %
Test CRC 9C933919
Copy CRC 9C933919
Copy OK

Track 10
Filename G:\The Fratellis - Costello Music (2006) [FLAC]\CD1of1\10 - Everybody Knows You Cried Last Night.wav

Peak level 99.7 %
Track quality 99.9 %
Test CRC CC672B5E
Copy CRC CC672B5E
Copy OK

Track 11
Filename G:\The Fratellis - Costello Music (2006) [FLAC]\CD1of1\11 - Baby Fratelli.wav

Peak level 99.7 %
Track quality 100.0 %
Test CRC DB44B363
Copy CRC DB44B363
Copy OK

Track 12
Filename G:\The Fratellis - Costello Music (2006) [FLAC]\CD1of1\12 - Got Ma Nuts From A Hippy.wav

Peak level 99.8 %
Track quality 99.9 %
Test CRC 9697042F
Copy CRC 9697042F
Copy OK

Track 13
Filename G:\The Fratellis - Costello Music (2006) [FLAC]\CD1of1\13 - Ole Black 'n' Blue Eyes.wav

Peak level 99.8 %
Track quality 99.9 %
Test CRC 4A22F648
Copy CRC 4A22F648
Copy OK

No errors occured
1) Flathead
2) Henrietta
3) Stacie Anne
4) Cigarello
EAC extraction logfile from 4. February 2007, 19:17 for CD
The Fratellis / Flathead [EP]

Used drive : HL-DT-STDVDRAM GSA-4084N Adapter: 0 ID: 0
Read mode : Secure with NO C2, accurate stream, disable cache
Read offset correction : 667
Overread into Lead-In and Lead-Out : No

Used output format : C:\Program Files\flac.exe (User Defined Encoder)
192 kBit/s
Additional command line options : -8 -A tukey(0.25) -A gauss(0.1875) -b 4096 -V -T "artist=%a" -T "title=%t" -T "album=%g" -T "date=%y" -T "tracknumber=%n" -T "genre=%m" %s --sector-align

Other options :
Fill up missing offset samples with silence : Yes
Delete leading and trailing silent blocks : No
Native Win32 interface for Win NT & 2000

Track 1
Filename C:\Documents and Settings\Theresa\My Documents\Flathead [EP]\01 Flathead.wav

Pre-gap length 0:00:02.00

Peak level 100.0 %
Track quality 100.0 %
Copy CRC FB0A1CBB
Copy OK

Track 2
Filename C:\Documents and Settings\Theresa\My Documents\Flathead [EP]\02 Henrietta.wav

Pre-gap length 0:00:02.00

Peak level 99.6 %
Track quality 100.0 %
Copy CRC 5CF6EC2D
Copy OK

Track 3
Filename C:\Documents and Settings\Theresa\My Documents\Flathead [EP]\03 Stacie Anne.wav

Pre-gap length 0:00:02.00

Peak level 99.8 %
Track quality 100.0 %
Copy CRC 86C06BA2
Copy OK

Track 4
Filename C:\Documents and Settings\Theresa\My Documents\Flathead [EP]\04 Cigarello.wav

Pre-gap length 0:00:02.00

Peak level 99.7 %
Track quality 100.0 %
Copy CRC 9821B2D9
Copy OK

No errors occured

End of status report
1) My Friend John
2) A Heady Tale
3) Shameless
4) Look Out Sunshine!
5) Stragglers Moon
6) Mistress Mabel
7) Jesus Stole My Baby
8) Babydoll
9) Tell Me a Lie
10) Acid Jazz Singer
11) Lupe Brown
12) Milk and Money
Exact Audio Copy V0.99 prebeta 4 from 23. January 2008

EAC extraction logfile from 12. June 2008, 16:00

The Fratellis / Here We Stand

Used drive : FREECOM_DVD+/-RW4B Adapter: 0 ID: 0

Read mode : Secure
Utilize accurate stream : Yes
Defeat audio cache : Yes
Make use of C2 pointers : No

Read offset correction : 48
Overread into Lead-In and Lead-Out : No
Fill up missing offset samples with silence : Yes
Delete leading and trailing silent blocks : No
Null samples used in CRC calculations : Yes
Used interface : Installed external ASPI interface
Gap handling : Appended to previous track

Used output format : User Defined Encoder
Selected bitrate : 768 kBit/s
Quality : High
Add ID3 tag : No
Command line compressor : C:\Program Files\Exact Audio Copy\FLAC\FLAC.EXE
Additional command line options : -8 -A tukey(0.25) -A gauss(0.1875) -b 4096 -V -T "artist=%a" -T "title=%t" -T "album=%g" -T "date=%y" -T "tracknumber=%n" -T "genre=%m" %s --sector-align

TOC of the extracted CD

Track | Start | Length | Start sector | End sector
---------------------------------------------------------
1 | 0:00.00 | 3:02.28 | 0 | 13677
2 | 3:02.28 | 4:52.49 | 13678 | 35626
3 | 7:55.02 | 3:56.62 | 35627 | 53388
4 | 11:51.64 | 3:53.10 | 53389 | 70873
5 | 15:44.74 | 4:31.22 | 70874 | 91220
6 | 20:16.21 | 4:27.51 | 91221 | 111296
7 | 24:43.72 | 4:23.54 | 111297 | 131075
8 | 29:07.51 | 4:42.11 | 131076 | 152236
9 | 33:49.62 | 3:58.70 | 152237 | 170156
10 | 37:48.57 | 4:21.41 | 170157 | 189772
11 | 42:10.23 | 5:26.69 | 189773 | 214291
12 | 47:37.17 | 4:43.39 | 214292 | 235555

Track 6

Filename C:\Documents and Settings\johnsod\Desktop\The Fratellis\[2008] Here We Stand\06 - The Fratellis - Mistress Mabel.wav

Pre-gap length 0:00:00.20

Copy aborted

There were errors

End of status report

------------------------------------------------------------

Exact Audio Copy V0.99 prebeta 4 from 23. January 2008

EAC extraction logfile from 12. June 2008, 16:22

The Fratellis / Here We Stand

Used drive : FREECOM_DVD+/-RW4B Adapter: 0 ID: 0

Read mode : Secure
Utilize accurate stream : Yes
Defeat audio cache : Yes
Make use of C2 pointers : No

Read offset correction : 48
Overread into Lead-In and Lead-Out : No
Fill up missing offset samples with silence : Yes
Delete leading and trailing silent blocks : No
Null samples used in CRC calculations : Yes
Used interface : Installed external ASPI interface
Gap handling : Appended to previous track

Used output format : User Defined Encoder
Selected bitrate : 768 kBit/s
Quality : High
Add ID3 tag : No
Command line compressor : C:\Program Files\Exact Audio Copy\FLAC\FLAC.EXE
Additional command line options : -8 -A tukey(0.25) -A gauss(0.1875) -b 4096 -V -T "artist=%a" -T "title=%t" -T "album=%g" -T "date=%y" -T "tracknumber=%n" -T "genre=%m" %s --sector-align

TOC of the extracted CD

Track | Start | Length | Start sector | End sector
---------------------------------------------------------
1 | 0:00.00 | 3:02.28 | 0 | 13677
2 | 3:02.28 | 4:52.49 | 13678 | 35626
3 | 7:55.02 | 3:56.62 | 35627 | 53388
4 | 11:51.64 | 3:53.10 | 53389 | 70873
5 | 15:44.74 | 4:31.22 | 70874 | 91220
6 | 20:16.21 | 4:27.51 | 91221 | 111296
7 | 24:43.72 | 4:23.54 | 111297 | 131075
8 | 29:07.51 | 4:42.11 | 131076 | 152236
9 | 33:49.62 | 3:58.70 | 152237 | 170156
10 | 37:48.57 | 4:21.41 | 170157 | 189772
11 | 42:10.23 | 5:26.69 | 189773 | 214291
12 | 47:37.17 | 4:43.39 | 214292 | 235555

Track 1

Filename C:\Documents and Settings\johnsod\Desktop\The Fratellis\[2008] Here We Stand\01 - The Fratellis - My Friend John.wav

Pre-gap length 0:00:02.00

Peak level 98.8 %
Track quality 100.0 %
Test CRC 0C887F3F
Copy CRC 0C887F3F
Copy OK

Track 2

Filename C:\Documents and Settings\johnsod\Desktop\The Fratellis\[2008] Here We Stand\02 - The Fratellis - A Heady Tale.wav

Peak level 98.8 %
Track quality 100.0 %
Test CRC 85ACF100
Copy CRC 85ACF100
Copy OK

Track 3

Filename C:\Documents and Settings\johnsod\Desktop\The Fratellis\[2008] Here We Stand\03 - The Fratellis - Shameless.wav

Peak level 98.8 %
Track quality 100.0 %
Test CRC 12E04118
Copy CRC 12E04118
Copy OK

Track 4

Filename C:\Documents and Settings\johnsod\Desktop\The Fratellis\[2008] Here We Stand\04 - The Fratellis - Look Out Sunshine!.wav

Pre-gap length 0:00:01.32

Peak level 98.8 %
Track quality 100.0 %
Test CRC C285FF1E
Copy CRC C285FF1E
Copy OK

Track 5

Filename C:\Documents and Settings\johnsod\Desktop\The Fratellis\[2008] Here We Stand\05 - The Fratellis - Stragglers Moon.wav

Pre-gap length 0:00:01.08

Peak level 98.8 %
Track quality 99.9 %
Test CRC B4C11D46
Copy CRC B4C11D46
Copy OK

Track 6

Filename C:\Documents and Settings\johnsod\Desktop\The Fratellis\[2008] Here We Stand\06 - The Fratellis - Mistress Mabel.wav

Pre-gap length 0:00:00.20

Peak level 98.8 %
Track quality 99.9 %
Test CRC 8440150C
Copy CRC 8440150C
Copy OK

Track 7

Filename C:\Documents and Settings\johnsod\Desktop\The Fratellis\[2008] Here We Stand\07 - The Fratellis - Jesus Stole My Baby.wav

Pre-gap length 0:00:02.46

Peak level 100.0 %
Track quality 100.0 %
Test CRC 1C7CED69
Copy CRC 1C7CED69
Copy OK

Track 8

Filename C:\Documents and Settings\johnsod\Desktop\The Fratellis\[2008] Here We Stand\08 - The Fratellis - Babydoll.wav

Pre-gap length 0:00:01.02

Peak level 98.8 %
Track quality 100.0 %
Test CRC 50B7F912
Copy CRC 50B7F912
Copy OK

Track 9

Filename C:\Documents and Settings\johnsod\Desktop\The Fratellis\[2008] Here We Stand\09 - The Fratellis - Tell Me A Lie.wav

Pre-gap length 0:00:00.69

Peak level 98.8 %
Track quality 100.0 %
Test CRC C2B01AE9
Copy CRC C2B01AE9
Copy OK

Track 10

Filename C:\Documents and Settings\johnsod\Desktop\The Fratellis\[2008] Here We Stand\10 - The Fratellis - Acid Jazz Singer.wav

Pre-gap length 0:00:00.10

Peak level 98.8 %
Track quality 100.0 %
Test CRC 00F5E21D
Copy CRC 00F5E21D
Copy OK

Track 11

Filename C:\Documents and Settings\johnsod\Desktop\The Fratellis\[2008] Here We Stand\11 - The Fratellis - Lupe Brown.wav

Peak level 98.8 %
Track quality 99.9 %
Test CRC C069663D
Copy CRC C069663D
Copy OK

Track 12

Filename C:\Documents and Settings\johnsod\Desktop\The Fratellis\[2008] Here We Stand\12 - The Fratellis - Milk And Money.wav

Peak level 98.8 %
Track quality 100.0 %
Test CRC 0F009268
Copy CRC 0F009268
Copy OK

No errors occurred

End of status report
info [Профиль]  [ЛС] 
Показать сообщения:    
Ответить на тему

Текущее время: 07-Дек 01:52

Часовой пояс: GMT + 4



Вы не можете начинать темы
Вы не можете отвечать на сообщения
Вы не можете редактировать свои сообщения
Вы не можете удалять свои сообщения
Вы не можете голосовать в опросах
Вы не можете прикреплять файлы к сообщениям
Вы не можете скачивать файлы