Ошибка

Поездка в Америку 2 / Coming 2 America (Крэйг Брюэр) [2021, комедия, WEB-DL 1080p] [Jaskier]

Ответить на тему
 
Автор Сообщение

DENZEL519

Пол: Пол:Муж

Стаж: 9 лет 9 месяцев

Сообщений: 3867

Саудовская Аравия
Рейтинг

post 09-Мар-2021 19:11 0[+]

[Цитировать] 

Поездка в Америку 2 / Coming 2 America
«A sequel is in the heir»

Год выпуска: 2021
Страна: США
Жанр: комедия
Продолжительность: 01:48:32
Перевод: Профессиональный многоголосый [Jaskier]
Субтитры: Русские (Full), английские
Режиссер: Крэйг Брюэр
Сценарий: Бэрри В. Блауштейн, Дэвид Шеффилд, Кенья Беррис
Продюсер: Кевин Мишер, Эдди Мёрфи, Valerii An
Оператор: Джо Уильямс
Композитор: Джёрмэйн Стеголл
Художник: Джефферсон Сэйдж, Кристен Шервин, Томас Валентайн
Монтаж: Дэвид С. Кларк, Билли Фокс, Дебра Нил Фишер
В ролях: Эдди Мёрфи (Prince Akeem / Clarence / Saul / Randy Watson), Арсенио Холл (Semmi / Morris / Reverend Brown / Baba), Жермен Фаулер (Lavelle Junson), Лесли Джонс (Mary Junson), Трэйси Морган (Uncle Reem), Кики Лэйн (Meeka), Шэри Хидли (Lisa), Уэсли Снайпс (General Izzi), Джеймс Эрл Джонс (King Jaffe Joffer), Джон Эймос (Cleo McDowell), Тейяна Тейлор (Bopoto), Ванесса Белл Кэллоуэй (Imani Izzi)



Описание: Аким вынужден вернуться в Штаты, так как узнает, что там живёт его давно потерянный сын, наследник престола Замунды.


Качество: WEB-DL 1080p
Формат: MKV
Видео кодек: AVC
Аудио кодек: AC3
Видео: 1920x960 (2.000:1), 23.976 fps, AVC, 9 061 Kbps
Аудио: Аудио #1: AC3, 640 Kbps, 48.0 KHz, 6 ch [Rus]
Аудио #2: AC3+, 640 Kbps, 48.0 KHz, 6 ch [Eng]


Код:

General
Unique ID : 200539916340964168143171819684097162159 (0x96DE953F00BBAA38B37AC1BDA1E3FBAF)
Complete name : TriptoAmerica2.2021.MVO.1080p.WEB.ExKinoRay.mkv
Format : Matroska
Format version : Version 2
File size : 8.00 GiB
Duration : 1h 48mn
Overall bit rate : 10.6 Mbps
Movie name : Coming 2 America 2021 from ExKinoRay
Encoded date : UTC 2021-03-09 02:24:08
Writing application : mkvmerge v5.6.0 ('Kenya Kane') built on May 27 2012 16:44:04
Writing library : libebml v1.2.3 + libmatroska v1.3.0

Video
ID : 1
Format : AVC
Format/Info : Advanced Video Codec
Format profile : High@L4.0
Format settings, CABAC : Yes
Format settings, ReFrames : 4 frames
Codec ID : V_MPEG4/ISO/AVC
Duration : 1h 48mn
Bit rate mode : Constant
Bit rate : 9 061 Kbps
Nominal bit rate : 10 000 Kbps
Width : 1 920 pixels
Height : 960 pixels
Display aspect ratio : 2.000
Frame rate mode : Constant
Frame rate : 23.976 fps
Color space : YUV
Chroma subsampling : 4:2:0
Bit depth : 8 bits
Scan type : Progressive
Bits/(Pixel*Frame) : 0.205
Stream size : 6.87 GiB (86%)
Language : English
Default : Yes
Forced : No
Color primaries : BT.709
Transfer characteristics : BT.709
Matrix coefficients : BT.709

Audio #1
ID : 2
Format : AC-3
Format/Info : Audio Coding 3
Mode extension : CM (complete main)
Format settings, Endianness : Big
Codec ID : A_AC3
Duration : 1h 48mn
Bit rate mode : Constant
Bit rate : 640 Kbps
Channel(s) : 6 channels
Channel positions : Front: L C R, Side: L R, LFE
Sampling rate : 48.0 KHz
Bit depth : 16 bits
Compression mode : Lossy
Stream size : 497 MiB (6%)
Title : MVO (Jaskier)
Language : Russian
Default : Yes
Forced : No

Audio #2
ID : 3
Format : E-AC-3
Format/Info : Audio Coding 3
Format settings, Endianness : Big
Codec ID : A_EAC3
Duration : 1h 48mn
Bit rate mode : Constant
Bit rate : 640 Kbps
Channel(s) : 6 channels
Channel positions : Front: L C R, Side: L R, LFE
Sampling rate : 48.0 KHz
Compression mode : Lossy
Stream size : 497 MiB (6%)
Language : English
Default : No
Forced : No

Text #1
ID : 4
Format : UTF-8
Codec ID : S_TEXT/UTF8
Codec ID/Info : UTF-8 Plain Text
Title : Russian
Language : Russian
Default : No
Forced : No

Text #2
ID : 5
Format : UTF-8
Codec ID : S_TEXT/UTF8
Codec ID/Info : UTF-8 Plain Text
Title : English
Language : English
Default : No
Forced : No

Премьера (мир): 5 марта 2021



info [Профиль]  [ЛС] 

Kartohka

Стаж: 11 лет

Сообщений: 45

Австралия
Рейтинг

post 09-Мар-2021 20:13 (спустя 1 час 2 минуты) [-]5[+]

[Цитировать] 

шо за дискриминация в актёрском составееееее bg
info [Профиль]  [ЛС] 

alconautilus

Пол: Пол:Муж

Стаж: 1 год 8 месяцев

Сообщений: 89

Россия
Рейтинг

post 09-Мар-2021 20:48 (спустя 34 минуты) [-]3[+]

[Цитировать] 

Что этот снежок (Kartohka) себе позволяет? ag

_________________
x570 aorus elite, 3700x, rx5700xt, 32gb 3466mHz, 256nvme, 512ssd, 1tb+1tb+2tb+2tb hdd, win10x64
info [Профиль]  [ЛС] 

Gothic_wolf

Пол: Пол:Муж

Стаж: 7 лет 11 месяцев

Сообщений: 171

США
Рейтинг

post 09-Мар-2021 22:25 (спустя 1 час 37 минут) [-]2[+]

[Цитировать] 

мдя...по сравнению с первой частью эта где-то на уровне дна.

_________________
Гидра Доминатус!
info [Профиль]  [ЛС] 

apollo90 ua

Пол: Пол:Муж

Стаж: 11 лет

Сообщений: 697

Рейтинг

post 09-Мар-2021 22:52 (спустя 26 минут) [-]2[+]

[Цитировать] 

По сравнению с первой частью вторая оказалась стыд и позор. Сюжет высосан из пальца. Чуть не уснул при просмотре...

_________________
PS4 Pro 6.72 HEN, PS4 Pro OFW, PS3 Slim CFW 4.84 Rebug, PS Vita Fat Wi-fi Henkaku Enso 3.65, PS One Slim, PS2 Fat FMCB, Xbox 360 Slim Freeboot, Nintendo Wii 4.2 Softmod, old 3ds CFW Luma, New 2ds XL CFW Luma, Dsi R4, Dsi XL DSTWO, DS Lite R4, DS Fat R4, GBA Sp EZ Flash Omega, GBA Fat, Switch CFW Atmosphere
info [Профиль]  [ЛС] 

grey77ru

Пол: Пол:Муж

Стаж: 9 лет 2 месяца

Сообщений: 102

Россия
Рейтинг

post 09-Мар-2021 23:45 (спустя 53 минуты) [-]1[+]

[Цитировать] 

Если первая часть была романтичной, тот тут просто шлак(. В начале просмотра порадовало, что собрали почти весь предыдущий актерский состав, но потом все скатилось на дно, а потом стало опускаться еще ниже(.
info [Профиль]  [ЛС] 

egorikSTAIL

Стаж: 11 лет

Сообщений: 475

Рейтинг

post 10-Мар-2021 05:44 (спустя 5 часов) [-]3[+]

[Цитировать] 

Не одного белого?? Дискриминация! kolob_160
info [Профиль]  [ЛС] 

RShM

Стаж: 5 месяцев 15 дней

Сообщений: 23

Россия
Рейтинг

post 11-Мар-2021 08:41 (спустя 1 день 2 часа) [-]2[+]

[Цитировать] 

скучно и предсказуемо. и правда, одни нигросы в кадре kolob_126 ,аж мерзко.
info [Профиль]  [ЛС] 

MrZipka

Пол: Пол:Муж

Стаж: 3 года 6 месяцев

Сообщений: 52

Россия
Рейтинг

post 13-Мар-2021 20:14 (спустя 2 дня 11 часов) [-]0[+]

[Цитировать] 

Первая часть прикольная, эта...ну как то скучно, мне не понравился фильм, не досмотрел.. выключил после середины.

_________________
Все что ни делается, все к лучшему.

[/URL]
info [Профиль]  [ЛС] 
Показать сообщения:    
Ответить на тему

Текущее время: 14-Апр 03:25

Часовой пояс: GMT + 4



Вы не можете начинать темы
Вы не можете отвечать на сообщения
Вы не можете редактировать свои сообщения
Вы не можете удалять свои сообщения
Вы не можете голосовать в опросах
Вы не можете прикреплять файлы к сообщениям
Вы не можете скачивать файлы