Ошибка

(Psychedelic / Goa Trance) Infected Mushroom - Дискография - (17CD) (1999-2009), FLAC (tracks+.cue), lossless

Ответить на тему
 
Автор Сообщение

cybpsy

Пол: Пол:Муж

Стаж: 7 лет 6 месяцев

Сообщений: 463

Россия
Рейтинг

post 22-Янв-2010 13:33 2[+]

[Цитировать] 

Infected Mushroom
дискография

Жанр: Psychedelic / Goa Trance
Охваченный период творчества: 1999-2009
Страна: Израиль
Формат: FLAC (tracks+.cue)
Битрейт аудио: lossless
Продолжительность: 17 CD
Происхождение релиза: вафли, вата и прочие просторы интернета
Немного о...
Infected Mushroom — израильский электронный дуэт. Участники дуэта Эрез Айзен и Амит Дувдевани имеют классическое музыкальное образование.
Эрез Айзен родился в 1980 году и с ранних лет получил музыкальное образование. Уже в 4 года Эрез научился играть на органе, а в 8 лет начал обучаться игре на фортепьяно в Хайфской Консерватории. В 11 лет решил попробовать себя в электронной музыке с помощью Impulse Tracker. С 16 лет сотрудничал с различными диджеями, в том числе с DJ Jorg в составе проекта Shiva Shidapu. Слово Shidapu появилось случайно — из-за помех при телефонном разговоре с Йоргом. Эрез хотел взять псевдоним Sidpao, но Йорг расслышал Shidapu.

Амит Дувдевани родился в 1974 году и получил схожее музыкальное образование. С семи лет начал играть на фортепьяно, позже увлёкся тяжёлым металлом и панк роком. Амит играл на синтезаторе и писал лирику для местной панк-группы Enzyme. На транс-тусовку Амит попал впервые в 1991 году за неделю до призыва в армию (где он получил кличку Duvdev), что сильно изменило его жизнь. С тех пор он думал только о транс-музыке. После службы Амит провёл год в Индии, в основном в штате Гоа, что окончательно определило его направление в музыке.

Играть вместе Эрез и Амит начали в 1998 году и первые несколько треков они выпустили под псевдонимами Shidapu & Duvdev. Позже они сформировали дуэт Infected Mushroom и начали работать над своим первым альбомом. Название было выбрано в честь панк-рок группы, существовавшей с 1989 по 1993 года, которой восхищался Амит.

26 марта 2007 года был выпущен новый альбом группы под названием Vicious Delicious, однако предзаказы можно было оформлять уже 16 марта. Альбом доступен в двух версиях: обычная и Limited Edition отличающиеся упаковкой — Limited Edition поставляется в специальном пластиковом полупрозрачном кожухе с иллюстрацией. Также в коробках проломаны зубчики держащие диск, что символизирует выбитые зубы из клипа Becoming Insane.

8 сентября 2009 года на прилавках музыкальных магазинов появилась последняя на данный момент пластинка «Грибов» Legend of the Black Shawarma (Легенда о Черной Шаурме). Альбом был записан в собственной студии Infected Mushroom Laboratory в Лос-Анджелесе. В записи композиции «Smashing the Opponent» принял участие Джонатан Дэвис из группы Korn.
01. Release Me (8:29)
02. The Gathering (7:44)
03. Return of the Shadows (8:13)
04. Blue Muppet (8:09)
05. Psycho (8:38)
06. Montoya (Remix) (8:20)
07. Tommy the Bat (7:29)
08. Virtual Voyage (8:24)
09. Over Mode (8:36)

Код:

Exact Audio Copy V0.99 prebeta 4 from 23. January 2008

EAC extraction logfile from 3. August 2008, 14:40

Infected Mushroom / The Gathering

Used drive  : _NEC    DVD_RW ND-2510A   Adapter: 0  ID: 1

Read mode               : Secure
Utilize accurate stream : Yes
Defeat audio cache      : No
Make use of C2 pointers : No

Read offset correction                      : 48
Overread into Lead-In and Lead-Out          : No
Fill up missing offset samples with silence : Yes
Delete leading and trailing silent blocks   : No
Null samples used in CRC calculations       : Yes
Used interface                              : Native Win32 interface for Win NT & 2000
Gap handling                                : Appended to previous track

Used output format              : User Defined Encoder
Selected bitrate                : 128 kBit/s
Quality                         : High
Add ID3 tag                     : No
Command line compressor         : C:\Program Files\Exact Audio Copy\Flac\flac.exe
Additional command line options : -V -8 -T "artist=%a" -T "title=%t" -T "album=%g" -T "date=%y" -T "tracknumber=%n" -T "genre=%m" %s 

TOC of the extracted CD

     Track |   Start  |  Length  | Start sector | End sector
    ---------------------------------------------------------
        1  |  0:00.00 |  8:28.57 |         0    |    38156   
        2  |  8:28.57 |  7:43.45 |     38157    |    72926   
        3  | 16:12.27 |  8:13.10 |     72927    |   109911   
        4  | 24:25.37 |  8:08.38 |    109912    |   146549   
        5  | 32:34.00 |  8:38.36 |    146550    |   185435   
        6  | 41:12.36 |  8:20.04 |    185436    |   222939   
        7  | 49:32.40 |  7:29.09 |    222940    |   256623   
        8  | 57:01.49 |  8:24.31 |    256624    |   294454   
        9  | 65:26.05 |  8:35.54 |    294455    |   333133   

Track  1

     Filename E:\cd rip\01 Infected Mushroom - Release Me.wav

     Pre-gap length  0:00:02.00

     Peak level 98.8 %
     Track quality 100.0 %
     Test CRC 227930A2
     Copy CRC 227930A2
     Accurately ripped (confidence 26)  [6D0433BF]
     Copy OK

Track  2

     Filename E:\cd rip\02 Infected Mushroom - The Gathering.wav

     Peak level 98.8 %
     Track quality 100.0 %
     Test CRC 36FC1E75
     Copy CRC 36FC1E75
     Accurately ripped (confidence 24)  [433DE084]
     Copy OK

Track  3

     Filename E:\cd rip\03 Infected Mushroom - Return of the Shadows.wav

     Peak level 98.6 %
     Track quality 99.9 %
     Test CRC EB493A48
     Copy CRC EB493A48
     Accurately ripped (confidence 25)  [F4375530]
     Copy OK

Track  4

     Filename E:\cd rip\04 Infected Mushroom - Blue Muppet.wav

     Peak level 98.8 %
     Track quality 100.0 %
     Test CRC 41F08337
     Copy CRC 41F08337
     Accurately ripped (confidence 25)  [925DB441]
     Copy OK

Track  5

     Filename E:\cd rip\05 Infected Mushroom - Psycho.wav

     Peak level 89.2 %
     Track quality 100.0 %
     Test CRC A5A915CE
     Copy CRC A5A915CE
     Accurately ripped (confidence 25)  [0B66B348]
     Copy OK

Track  6

     Filename E:\cd rip\06 Infected Mushroom - Montoya (Remix).wav

     Peak level 95.6 %
     Track quality 100.0 %
     Test CRC FB85213E
     Copy CRC FB85213E
     Accurately ripped (confidence 25)  [C46DEB19]
     Copy OK

Track  7

     Filename E:\cd rip\07 Infected Mushroom - Tommy the Bat.wav

     Peak level 89.7 %
     Track quality 100.0 %
     Test CRC 9273214A
     Copy CRC 9273214A
     Accurately ripped (confidence 25)  [C7AF634B]
     Copy OK

Track  8

     Filename E:\cd rip\08 Infected Mushroom - Virtual Voyage.wav

     Peak level 98.8 %
     Track quality 99.9 %
     Test CRC 66302587
     Copy CRC 66302587
     Accurately ripped (confidence 24)  [A13EB44C]
     Copy OK

Track  9

     Filename E:\cd rip\09 Infected Mushroom - Over Mode.wav

     Peak level 98.8 %
     Track quality 99.9 %
     Test CRC CCE5ED9E
     Copy CRC CCE5ED9E
     Accurately ripped (confidence 25)  [761345D4]
     Copy OK

All tracks accurately ripped

No errors occurred

End of status report

Код:

REM GENRE Psytrance
REM DATE 1999
REM DISCID 8C115909
REM COMMENT "ExactAudioCopy v0.99pb4"
PERFORMER "Infected Mushroom"
TITLE "The Gathering"
FILE "01 Infected Mushroom - Release Me.wav" WAVE
  TRACK 01 AUDIO
    TITLE "Release Me"
    PERFORMER "Infected Mushroom"
    INDEX 01 00:00:00
FILE "02 Infected Mushroom - The Gathering.wav" WAVE
  TRACK 02 AUDIO
    TITLE "The Gathering"
    PERFORMER "Infected Mushroom"
    INDEX 01 00:00:00
FILE "03 Infected Mushroom - Return of the Shadows.wav" WAVE
  TRACK 03 AUDIO
    TITLE "Return of the Shadows"
    PERFORMER "Infected Mushroom"
    INDEX 01 00:00:00
FILE "04 Infected Mushroom - Blue Muppet.wav" WAVE
  TRACK 04 AUDIO
    TITLE "Blue Muppet"
    PERFORMER "Infected Mushroom"
    INDEX 01 00:00:00
FILE "05 Infected Mushroom - Psycho.wav" WAVE
  TRACK 05 AUDIO
    TITLE "Psycho"
    PERFORMER "Infected Mushroom"
    INDEX 01 00:00:00
FILE "06 Infected Mushroom - Montoya (Remix).wav" WAVE
  TRACK 06 AUDIO
    TITLE "Montoya (Remix)"
    PERFORMER "Infected Mushroom"
    INDEX 01 00:00:00
FILE "07 Infected Mushroom - Tommy the Bat.wav" WAVE
  TRACK 07 AUDIO
    TITLE "Tommy the Bat"
    PERFORMER "Infected Mushroom"
    INDEX 01 00:00:00
FILE "08 Infected Mushroom - Virtual Voyage.wav" WAVE
  TRACK 08 AUDIO
    TITLE "Virtual Voyage"
    PERFORMER "Infected Mushroom"
    INDEX 01 00:00:00
FILE "09 Infected Mushroom - Over Mode.wav" WAVE
  TRACK 09 AUDIO
    TITLE "Over Mode"
    PERFORMER "Infected Mushroom"
    INDEX 01 00:00:00
01. Bust A Move (8:22)
02. None of This Is Real (6:22)
03. Sailing In The Sea Of Mushroom (8:18)
04. The Shen (8:33)
05. Disco Mushroom (8:46)
06. Dracul (8:00)
07. Nothing Comes Easy (7:26)
08. Mush Mushi (7:37)
09. The Missed Symphony (10:26)

Код:

EAC extraction logfile from 5. September 2005, 19:05 for CD
Infected Mushroom / Classical Mushroom [YOYO38]

Used drive  : PLEXTOR CD-R   PX-320A   Adapter: 0  ID: 3
Read mode   : Secure with NO C2, accurate stream, disable cache
Read offset correction : 98
Overread into Lead-In and Lead-Out : Yes

Used output format : Internal WAV Routines
                     44.100 Hz; 16 Bit; Stereo

Other options      :
    Fill up missing offset samples with silence : Yes
    Delete leading and trailing silent blocks : No
    Native Win32 interface for Win NT & 2000

Track  1
     Filename H:\images\Infected Mushroom - Classical Mushroom (2000) [FLAC]\01 - Bust a Move.wav

     Pre-gap length  0:00:02.00

     Peak level 100.0 %
     Track quality 100.0 %
     Test CRC DEA4915E
     Copy CRC DEA4915E
     Copy OK

Track  2
     Filename H:\images\Infected Mushroom - Classical Mushroom (2000) [FLAC]\02 - None of This is Real.wav

     Peak level 100.0 %
     Track quality 99.9 %
     Test CRC FA00CDD2
     Copy CRC FA00CDD2
     Copy OK

Track  3
     Filename H:\images\Infected Mushroom - Classical Mushroom (2000) [FLAC]\03 - Sailing in the Sea of Mushroom.wav

     Peak level 100.0 %
     Track quality 100.0 %
     Test CRC 59958AB0
     Copy CRC 59958AB0
     Copy OK

Track  4
     Filename H:\images\Infected Mushroom - Classical Mushroom (2000) [FLAC]\04 - The Shen.wav

     Peak level 100.0 %
     Track quality 100.0 %
     Test CRC 2F787399
     Copy CRC 2F787399
     Copy OK

Track  5
     Filename H:\images\Infected Mushroom - Classical Mushroom (2000) [FLAC]\05 - Disco Mushroom.wav

     Peak level 100.0 %
     Track quality 100.0 %
     Test CRC 0621B407
     Copy CRC 0621B407
     Copy OK

Track  6
     Filename H:\images\Infected Mushroom - Classical Mushroom (2000) [FLAC]\06 - Dracul.wav

     Peak level 100.0 %
     Track quality 100.0 %
     Test CRC 3390F06E
     Copy CRC 3390F06E
     Copy OK

Track  7
     Filename H:\images\Infected Mushroom - Classical Mushroom (2000) [FLAC]\07 - Nothing Comes Easy.wav

     Peak level 100.0 %
     Track quality 100.0 %
     Test CRC 681A4F2D
     Copy CRC 681A4F2D
     Copy OK

Track  8
     Filename H:\images\Infected Mushroom - Classical Mushroom (2000) [FLAC]\08 - Mush Mushi.wav

     Peak level 96.6 %
     Track quality 100.0 %
     Test CRC 65591E26
     Copy CRC 65591E26
     Copy OK

Track  9
     Filename H:\images\Infected Mushroom - Classical Mushroom (2000) [FLAC]\09 - The Missed Symphony.wav

     Peak level 100.0 %
     Track quality 100.0 %
     Test CRC 109C66B2
     Copy CRC 109C66B2
     Copy OK

No errors occured

End of status report

Код:

REM GENRE Electronic
REM DATE 2000
REM DISCID 7F114F09
REM COMMENT "ExactAudioCopy v0.95b2"
PERFORMER "Infected Mushroom"
TITLE "Classical Mushroom [YOYO38]"
FILE "01 - Bust a Move.wav" WAVE
  TRACK 01 AUDIO
    TITLE "Bust a Move"
    PERFORMER "Infected Mushroom"
    INDEX 01 00:00:00
FILE "02 - None of This is Real.wav" WAVE
  TRACK 02 AUDIO
    TITLE "None of This is Real"
    PERFORMER "Infected Mushroom"
    INDEX 01 00:00:00
FILE "03 - Sailing in the Sea of Mushroom.wav" WAVE
  TRACK 03 AUDIO
    TITLE "Sailing in the Sea of Mushroom"
    PERFORMER "Infected Mushroom"
    INDEX 01 00:00:00
FILE "04 - The Shen.wav" WAVE
  TRACK 04 AUDIO
    TITLE "The Shen"
    PERFORMER "Infected Mushroom"
    INDEX 01 00:00:00
FILE "05 - Disco Mushroom.wav" WAVE
  TRACK 05 AUDIO
    TITLE "Disco Mushroom"
    PERFORMER "Infected Mushroom"
    INDEX 01 00:00:00
FILE "06 - Dracul.wav" WAVE
  TRACK 06 AUDIO
    TITLE "Dracul"
    PERFORMER "Infected Mushroom"
    INDEX 01 00:00:00
FILE "07 - Nothing Comes Easy.wav" WAVE
  TRACK 07 AUDIO
    TITLE "Nothing Comes Easy"
    PERFORMER "Infected Mushroom"
    INDEX 01 00:00:00
FILE "08 - Mush Mushi.wav" WAVE
  TRACK 08 AUDIO
    TITLE "Mush Mushi"
    PERFORMER "Infected Mushroom"
    INDEX 01 00:00:00
FILE "09 - The Missed Symphony.wav" WAVE
  TRACK 09 AUDIO
    TITLE "The Missed Symphony"
    PERFORMER "Infected Mushroom"
    INDEX 01 00:00:00
01. Never Ever Land (7:47)
02. Unbalanced (Baby Killer Rmx) (7:16)
03. Spaniard (7:39)
04. B.P.Empire (7:26)
05. Funchameleon (6:55)
06. Tasty Mushroom (6:56)
07. Noise Maker (7:40)
08. P.G.M (7:22)
09. Dancing with Kadafi (10:22)

Код:

Exact Audio Copy V0.99 prebeta 4 from 23. January 2008

EAC extraction logfile from 12. April 2009, 17:18

Infected Mushroom / B.P.Empire

Used drive  : HL-DT-STDVDRAM GSA-H10N   Adapter: 3  ID: 1

Read mode               : Secure
Utilize accurate stream : Yes
Defeat audio cache      : Yes
Make use of C2 pointers : No

Read offset correction                      : 667
Overread into Lead-In and Lead-Out          : No
Fill up missing offset samples with silence : Yes
Delete leading and trailing silent blocks   : No
Null samples used in CRC calculations       : Yes
Used interface                              : Native Win32 interface for Win NT & 2000
Gap handling                                : Appended to previous track

Used output format              : User Defined Encoder
Selected bitrate                : 32 kBit/s
Quality                         : High
Add ID3 tag                     : No
Command line compressor         : J:\Programme\FLAC\flac.exe
Additional command line options : -V -8 -T "artist=%a" -T "title=%t" -T "album=%g" -T "date=%y" -T "tracknumber=%n" -T "genre=%m" %s

TOC of the extracted CD

     Track |   Start  |  Length  | Start sector | End sector
    ---------------------------------------------------------
        1  |  0:00.00 |  7:46.56 |         0    |    35005   
        2  |  7:46.56 |  7:15.47 |     35006    |    67677   
        3  | 15:02.28 |  7:38.45 |     67678    |   102072   
        4  | 22:40.73 |  7:26.12 |    102073    |   135534   
        5  | 30:07.10 |  6:55.25 |    135535    |   166684   
        6  | 37:02.35 |  6:56.25 |    166685    |   197909   
        7  | 43:58.60 |  7:39.63 |    197910    |   232397   
        8  | 51:38.48 |  7:21.38 |    232398    |   265510   
        9  | 59:00.11 | 10:21.73 |    265511    |   312158   

Track  1

     Filename C:\tmp\Infected Mushroom - 2001 - B.P.Empire\01 - Never Ever Land.wav

     Pre-gap length  0:00:02.00

     Peak level 100.0 %
     Track quality 100.0 %
     Test CRC 992F7982
     Copy CRC 992F7982
     Accurately ripped (confidence 32)  [260D9743]
     Copy OK

Track  2

     Filename C:\tmp\Infected Mushroom - 2001 - B.P.Empire\02 - Unbalanced (Baby Killer Rmx).wav

     Peak level 100.0 %
     Track quality 100.0 %
     Test CRC 0FD9D337
     Copy CRC 0FD9D337
     Accurately ripped (confidence 33)  [60F3652C]
     Copy OK

Track  3

     Filename C:\tmp\Infected Mushroom - 2001 - B.P.Empire\03 - Spaniard.wav

     Peak level 100.0 %
     Track quality 99.9 %
     Test CRC 3F485953
     Copy CRC 3F485953
     Accurately ripped (confidence 33)  [03336A58]
     Copy OK

Track  4

     Filename C:\tmp\Infected Mushroom - 2001 - B.P.Empire\04 - B.P.Empire.wav

     Peak level 76.3 %
     Track quality 100.0 %
     Test CRC 2A74D34D
     Copy CRC 2A74D34D
     Accurately ripped (confidence 33)  [8DC55389]
     Copy OK

Track  5

     Filename C:\tmp\Infected Mushroom - 2001 - B.P.Empire\05 - Funchameleon.wav

     Peak level 100.0 %
     Track quality 100.0 %
     Test CRC 799513AC
     Copy CRC 799513AC
     Accurately ripped (confidence 33)  [45DC7E1C]
     Copy OK

Track  6

     Filename C:\tmp\Infected Mushroom - 2001 - B.P.Empire\06 - Tasty Mushroom.wav

     Peak level 100.0 %
     Track quality 100.0 %
     Test CRC 6C9E19D1
     Copy CRC 6C9E19D1
     Accurately ripped (confidence 34)  [DD3258C5]
     Copy OK

Track  7

     Filename C:\tmp\Infected Mushroom - 2001 - B.P.Empire\07 - Noise Maker.wav

     Peak level 96.6 %
     Track quality 100.0 %
     Test CRC DFEA0DFA
     Copy CRC DFEA0DFA
     Accurately ripped (confidence 34)  [CB2D7A9A]
     Copy OK

Track  8

     Filename C:\tmp\Infected Mushroom - 2001 - B.P.Empire\08 - P.G.M.wav

     Pre-gap length  0:00:00.20

     Peak level 100.0 %
     Track quality 100.0 %
     Test CRC 27BE02EE
     Copy CRC 27BE02EE
     Accurately ripped (confidence 33)  [01544476]
     Copy OK

Track  9

     Filename C:\tmp\Infected Mushroom - 2001 - B.P.Empire\09 - Dancing with Kadafi.wav

     Peak level 96.6 %
     Track quality 99.9 %
     Test CRC 7FE19C1F
     Copy CRC 7FE19C1F
     Accurately ripped (confidence 32)  [F7E26E06]
     Copy OK

All tracks accurately ripped

No errors occurred

End of status report

Код:

REM GENRE Goa
REM DATE 2001
REM DISCID 67104209
REM COMMENT "ExactAudioCopy v0.99pb4"
PERFORMER "Infected Mushroom"
TITLE "B.P.Empire"
FILE "01 - Never Ever Land.wav" WAVE
  TRACK 01 AUDIO
    TITLE "Never Ever Land"
    PERFORMER "Infected Mushroom"
    INDEX 01 00:00:00
FILE "02 - Unbalanced (Baby Killer Rmx).wav" WAVE
  TRACK 02 AUDIO
    TITLE "Unbalanced (Baby Killer Rmx)"
    PERFORMER "Infected Mushroom"
    INDEX 01 00:00:00
FILE "03 - Spaniard.wav" WAVE
  TRACK 03 AUDIO
    TITLE "Spaniard"
    PERFORMER "Infected Mushroom"
    INDEX 01 00:00:00
FILE "04 - B.P.Empire.wav" WAVE
  TRACK 04 AUDIO
    TITLE "B.P.Empire"
    PERFORMER "Infected Mushroom"
    INDEX 01 00:00:00
FILE "05 - Funchameleon.wav" WAVE
  TRACK 05 AUDIO
    TITLE "Funchameleon"
    PERFORMER "Infected Mushroom"
    INDEX 01 00:00:00
FILE "06 - Tasty Mushroom.wav" WAVE
  TRACK 06 AUDIO
    TITLE "Tasty Mushroom"
    PERFORMER "Infected Mushroom"
    INDEX 01 00:00:00
FILE "07 - Noise Maker.wav" WAVE
  TRACK 07 AUDIO
    TITLE "Noise Maker"
    PERFORMER "Infected Mushroom"
    INDEX 01 00:00:00
  TRACK 08 AUDIO
    TITLE "P.G.M"
    PERFORMER "Infected Mushroom"
    INDEX 00 07:39:43
FILE "08 - P.G.M.wav" WAVE
    INDEX 01 00:00:00
FILE "09 - Dancing with Kadafi.wav" WAVE
  TRACK 09 AUDIO
    TITLE "Dancing with Kadafi"
    PERFORMER "Infected Mushroom"
    INDEX 01 00:00:00
CD1 (Trance Side):
01. Albibeno (7:03)
02. Hush Mail (7:01)
03. Apogiffa Night (8:08)
04. Song Pong (8:37)
05. Chaplin (6:55)
06. Echonomix (7:44)
07. Scorpion Frog (8:00)
08. Deeply Disturbed (8:26)
09. Semi Nice (6:10)
10. Yanko Pitch (8:13)

CD2 (Other Side):
01. Converting Vegetarians (5:40)
02. Elation Station (5:36)
03. Drop Out (5:15)
04. Avratz (10:24)
05. Blink (5:32)
06. Shakawkaw (4:09)
07. Pletztubra (6:45)
08. I Wish (3:01)
09. Ballerium (7:18)
10. Selecta (5:22)
11. Illuminaugthy (4:50)
12. Jeenge (7:03)
13. Elevation (5:16)

Код:

EAC extraction logfile from 18. May 2006, 23:00 for CD
Infected Mushroom / Converting Vegetarians (Disc1 - Trance Side)

Used drive  : TSSTcorpCD/DVDW TS-L532A   Adapter: 0  ID: 1
Read mode   : Secure with NO C2, accurate stream, disable cache
Read offset correction : 116
Overread into Lead-In and Lead-Out : No

Used output format : C:\Program Files\FLAC\flac.exe   (User Defined Encoder)
                     128 kBit/s
                     Additional command line options :  -5 -V -T "ARTIST=%a" -T "TITLE=%t" -T "ALBUM=%g" -T "DATE=%y" -T "TRACKNUMBER=%n" -T "GENRE=%m" -T "COMMENT=EAC Flac 1.1.2 -5" %s

Other options      :
    Fill up missing offset samples with silence : Yes
    Delete leading and trailing silent blocks : No
    Native Win32 interface for Win NT & 2000

Track  1
     Filename C:\Documents and Settings\Martin\Desktop\Infected Mushroom - Converting Vegetarians (2003) [FLAC]\Disc 1\01 - Albibeno.wav

     Pre-gap length  0:00:02.00

     Peak level 96.6 %
     Track quality 100.0 %
     Test CRC 85BE8B6A
     Copy CRC 85BE8B6A
     Copy OK

Track  2
     Filename C:\Documents and Settings\Martin\Desktop\Infected Mushroom - Converting Vegetarians (2003) [FLAC]\Disc 1\02 - Hush Mail.wav

     Peak level 96.6 %
     Track quality 100.0 %
     Test CRC 4C2ED955
     Copy CRC 4C2ED955
     Copy OK

Track  3
     Filename C:\Documents and Settings\Martin\Desktop\Infected Mushroom - Converting Vegetarians (2003) [FLAC]\Disc 1\03 - Apogiffa Night.wav

     Peak level 98.8 %
     Track quality 100.0 %
     Test CRC AB2DAFA7
     Copy CRC AB2DAFA7
     Copy OK

Track  4
     Filename C:\Documents and Settings\Martin\Desktop\Infected Mushroom - Converting Vegetarians (2003) [FLAC]\Disc 1\04 - Song Pong.wav

     Peak level 96.6 %
     Track quality 100.0 %
     Test CRC D2CF2EA3
     Copy CRC D2CF2EA3
     Copy OK

Track  5
     Filename C:\Documents and Settings\Martin\Desktop\Infected Mushroom - Converting Vegetarians (2003) [FLAC]\Disc 1\05 - Chaplin.wav

     Peak level 96.6 %
     Track quality 100.0 %
     Test CRC 20E36E5D
     Copy CRC 20E36E5D
     Copy OK

Track  6
     Filename C:\Documents and Settings\Martin\Desktop\Infected Mushroom - Converting Vegetarians (2003) [FLAC]\Disc 1\06 - Echonomix.wav

     Peak level 99.9 %
     Track quality 100.0 %
     Test CRC 2F8A452A
     Copy CRC 2F8A452A
     Copy OK

Track  7
     Filename C:\Documents and Settings\Martin\Desktop\Infected Mushroom - Converting Vegetarians (2003) [FLAC]\Disc 1\07 - Scorpion Frog.wav

     Peak level 96.6 %
     Track quality 100.0 %
     Test CRC 472EE3D3
     Copy CRC 472EE3D3
     Copy OK

Track  8
     Filename C:\Documents and Settings\Martin\Desktop\Infected Mushroom - Converting Vegetarians (2003) [FLAC]\Disc 1\08 - Deeply Disturbed.wav

     Peak level 99.9 %
     Track quality 100.0 %
     Test CRC 7F68E7E4
     Copy CRC 7F68E7E4
     Copy OK

Track  9
     Filename C:\Documents and Settings\Martin\Desktop\Infected Mushroom - Converting Vegetarians (2003) [FLAC]\Disc 1\09 - Semi Nice.wav

     Peak level 99.9 %
     Track quality 99.9 %
     Test CRC 424C5825
     Copy CRC 424C5825
     Copy OK

Track 10
     Filename C:\Documents and Settings\Martin\Desktop\Infected Mushroom - Converting Vegetarians (2003) [FLAC]\Disc 1\10 - Yanko Pitch.wav

     Peak level 96.6 %
     Track quality 100.0 %
     Test CRC 57E67AC4
     Copy CRC 57E67AC4
     Copy OK

No errors occured

End of status report

Код:

REM GENRE PsyTrance
REM DATE 2003
REM DISCID 8611E10A
REM COMMENT "ExactAudioCopy v0.95b4"
PERFORMER "Infected Mushroom"
TITLE "Converting Vegetarians (Disc1 - Trance Side)"
FILE "01 - Albibeno.wav" WAVE
  TRACK 01 AUDIO
    TITLE "Albibeno"
    PERFORMER "Infected Mushroom"
    INDEX 01 00:00:00
FILE "02 - Hush Mail.wav" WAVE
  TRACK 02 AUDIO
    TITLE "Hush Mail"
    PERFORMER "Infected Mushroom"
    INDEX 01 00:00:00
FILE "03 - Apogiffa Night.wav" WAVE
  TRACK 03 AUDIO
    TITLE "Apogiffa Night"
    PERFORMER "Infected Mushroom"
    INDEX 01 00:00:00
FILE "04 - Song Pong.wav" WAVE
  TRACK 04 AUDIO
    TITLE "Song Pong"
    PERFORMER "Infected Mushroom"
    INDEX 01 00:00:00
FILE "05 - Chaplin.wav" WAVE
  TRACK 05 AUDIO
    TITLE "Chaplin"
    PERFORMER "Infected Mushroom"
    INDEX 01 00:00:00
FILE "06 - Echonomix.wav" WAVE
  TRACK 06 AUDIO
    TITLE "Echonomix"
    PERFORMER "Infected Mushroom"
    INDEX 01 00:00:00
FILE "07 - Scorpion Frog.wav" WAVE
  TRACK 07 AUDIO
    TITLE "Scorpion Frog"
    PERFORMER "Infected Mushroom"
    INDEX 01 00:00:00
FILE "08 - Deeply Disturbed.wav" WAVE
  TRACK 08 AUDIO
    TITLE "Deeply Disturbed"
    PERFORMER "Infected Mushroom"
    INDEX 01 00:00:00
FILE "09 - Semi Nice.wav" WAVE
  TRACK 09 AUDIO
    TITLE "Semi Nice"
    PERFORMER "Infected Mushroom"
    INDEX 01 00:00:00
FILE "10 - Yanko Pitch.wav" WAVE
  TRACK 10 AUDIO
    TITLE "Yanko Pitch"
    PERFORMER "Infected Mushroom"
    INDEX 01 00:00:00

Код:

EAC extraction logfile from 19. May 2006, 0:09 for CD
Infected Mushroom / Converting Vegetarians (Disc2 - Other Side)

Used drive  : TSSTcorpCD/DVDW TS-L532A   Adapter: 0  ID: 1
Read mode   : Secure with NO C2, accurate stream, disable cache
Read offset correction : 116
Overread into Lead-In and Lead-Out : No

Used output format : C:\Program Files\FLAC\flac.exe   (User Defined Encoder)
                     128 kBit/s
                     Additional command line options :  -5 -V -T "ARTIST=%a" -T "TITLE=%t" -T "ALBUM=%g" -T "DATE=%y" -T "TRACKNUMBER=%n" -T "GENRE=%m" -T "COMMENT=EAC Flac 1.1.2 -5" %s

Other options      :
    Fill up missing offset samples with silence : Yes
    Delete leading and trailing silent blocks : No
    Native Win32 interface for Win NT & 2000

Track  1
     Filename C:\Documents and Settings\Martin\Desktop\Infected Mushroom - Converting Vegetarians (2003) [FLAC]\Disc 2\01 - Converting Vegetarians.wav

     Pre-gap length  0:00:02.00

     Peak level 96.6 %
     Track quality 100.0 %
     Test CRC C877FA80
     Copy CRC C877FA80
     Copy OK

Track  2
     Filename C:\Documents and Settings\Martin\Desktop\Infected Mushroom - Converting Vegetarians (2003) [FLAC]\Disc 2\02 - Elation Station.wav

     Peak level 96.6 %
     Track quality 100.0 %
     Test CRC 8350658B
     Copy CRC 8350658B
     Copy OK

Track  3
     Filename C:\Documents and Settings\Martin\Desktop\Infected Mushroom - Converting Vegetarians (2003) [FLAC]\Disc 2\03 - Drop Out.wav

     Peak level 96.6 %
     Track quality 99.9 %
     Test CRC DA212C80
     Copy CRC DA212C80
     Copy OK

Track  4
     Filename C:\Documents and Settings\Martin\Desktop\Infected Mushroom - Converting Vegetarians (2003) [FLAC]\Disc 2\04 - Avratz.wav

     Peak level 96.6 %
     Track quality 99.9 %
     Test CRC 5E48A230
     Copy CRC 5E48A230
     Copy OK

Track  5
     Filename C:\Documents and Settings\Martin\Desktop\Infected Mushroom - Converting Vegetarians (2003) [FLAC]\Disc 2\05 - Blink.wav

     Peak level 91.8 %
     Track quality 99.9 %
     Test CRC B8072B9A
     Copy CRC B8072B9A
     Copy OK

Track  6
     Filename C:\Documents and Settings\Martin\Desktop\Infected Mushroom - Converting Vegetarians (2003) [FLAC]\Disc 2\11\06 - Shakawkaw.wav

     Peak level 96.6 %
     Track quality 100.0 %
     Test CRC 6A87BF75
     Copy CRC 6A87BF75
     Copy OK

Track  7
     Filename C:\Documents and Settings\Martin\Desktop\Infected Mushroom - Converting Vegetarians (2003) [FLAC]\Disc 2\07 - Pletztubra.wav

     Peak level 96.6 %
     Track quality 100.0 %
     Test CRC AA3D8C83
     Copy CRC AA3D8C83
     Copy OK

Track  8
     Filename C:\Documents and Settings\Martin\Desktop\Infected Mushroom - Converting Vegetarians (2003) [FLAC]\Disc 2\08 - I Wish.wav

     Peak level 96.6 %
     Track quality 100.0 %
     Test CRC 1A2129A3
     Copy CRC 1A2129A3
     Copy OK

Track  9
     Filename C:\Documents and Settings\Martin\Desktop\Infected Mushroom - Converting Vegetarians (2003) [FLAC]\Disc 2\11\09 - Ballerium.wav

     Peak level 88.5 %
     Track quality 100.0 %
     Test CRC A5A5EB06
     Copy CRC A5A5EB06
     Copy OK

Track 10
     Filename C:\Documents and Settings\Martin\Desktop\Infected Mushroom - Converting Vegetarians (2003) [FLAC]\Disc 2\10 - Selecta.wav

     Peak level 97.7 %
     Track quality 100.0 %
     Test CRC 2B15F413
     Copy CRC 2B15F413
     Copy OK

Track 11
     Filename C:\Documents and Settings\Martin\Desktop\Infected Mushroom - Converting Vegetarians (2003) [FLAC]\Disc 2\11 - Illuminaugthy.wav

     Peak level 96.6 %
     Track quality 100.0 %
     Test CRC 9FD730AD
     Copy CRC 9FD730AD
     Copy OK

Track 12
     Filename C:\Documents and Settings\Martin\Desktop\Infected Mushroom - Converting Vegetarians (2003) [FLAC]\Disc 2\12 - Jeenge.wav

     Peak level 96.6 %
     Track quality 99.9 %
     Test CRC 120C9DA2
     Copy CRC 120C9DA2
     Copy OK

Track 13
     Filename C:\Documents and Settings\Martin\Desktop\Infected Mushroom - Converting Vegetarians (2003) [FLAC]\Disc 2\13 - Elevation.wav

     Peak level 97.7 %
     Track quality 100.0 %
     Test CRC 4E6DA2FF
     Copy CRC 4E6DA2FF
     Copy OK

No errors occured

End of status report

Код:

REM GENRE Psychedelic
REM DATE 2003
REM DISCID BB11D80D
REM COMMENT "ExactAudioCopy v0.95b4"
PERFORMER "Infected Mushroom"
TITLE "Converting Vegetarians (Disc2 - Other Side)"
FILE "01 - Converting Vegetarians.wav" WAVE
  TRACK 01 AUDIO
    TITLE "Converting Vegetarians"
    PERFORMER "Infected Mushroom"
    INDEX 01 00:00:00
FILE "02 - Elation Station.wav" WAVE
  TRACK 02 AUDIO
    TITLE "Elation Station"
    PERFORMER "Infected Mushroom"
    INDEX 01 00:00:00
FILE "03 - Drop Out.wav" WAVE
  TRACK 03 AUDIO
    TITLE "Drop Out"
    PERFORMER "Infected Mushroom"
    INDEX 01 00:00:00
FILE "04 - Avratz.wav" WAVE
  TRACK 04 AUDIO
    TITLE "Avratz"
    PERFORMER "Infected Mushroom"
    INDEX 01 00:00:00
FILE "05 - Blink.wav" WAVE
  TRACK 05 AUDIO
    TITLE "Blink"
    PERFORMER "Infected Mushroom"
    INDEX 01 00:00:00
FILE "06 - Shakawkaw.wav" WAVE
  TRACK 06 AUDIO
    TITLE "Shakawkaw"
    PERFORMER "Infected Mushroom"
    INDEX 01 00:00:00
FILE "07 - Pletztubra.wav" WAVE
  TRACK 07 AUDIO
    TITLE "Pletztubra"
    PERFORMER "Infected Mushroom"
    INDEX 01 00:00:00
FILE "08 - I Wish.wav" WAVE
  TRACK 08 AUDIO
    TITLE "I Wish"
    PERFORMER "Infected Mushroom"
    INDEX 01 00:00:00
FILE "09 - Ballerium.wav" WAVE
  TRACK 09 AUDIO
    TITLE "Ballerium"
    PERFORMER "Infected Mushroom"
    INDEX 01 00:00:00
FILE "10 - Selecta.wav" WAVE
  TRACK 10 AUDIO
    TITLE "Selecta"
    PERFORMER "Infected Mushroom"
    INDEX 01 00:00:00
FILE "11 - Illuminaugthy.wav" WAVE
  TRACK 11 AUDIO
    TITLE "Illuminaugthy"
    PERFORMER "Infected Mushroom"
    INDEX 01 00:00:00
FILE "12 - Jeenge.wav" WAVE
  TRACK 12 AUDIO
    TITLE "Jeenge"
    PERFORMER "Infected Mushroom"
    INDEX 01 00:00:00
FILE "13 - Elevation.wav" WAVE
  TRACK 13 AUDIO
    TITLE "Elevation"
    PERFORMER "Infected Mushroom"
    INDEX 01 00:00:00
01. IM The Supervisor (8:32)
02. Ratio Shmatio (6:30)
03. Muse Breaks RMX (7:09)
04. Meduzz (6:42)
05. Cities Of The Future (7:00)
06. Horus The Chorus (7:40)
07. Frog Machine (6:11)
08. Noon (6:07)
09. Bombat (8:18)
10. Stretched (7:22)

Код:

Exact Audio Copy V0.99 prebeta 4 from 23. January 2008

EAC extraction logfile from 12. April 2009, 18:29

Infected Mushroom / IM The Supervisor

Used drive  : HL-DT-STDVDRAM GSA-H10N   Adapter: 3  ID: 1

Read mode               : Secure
Utilize accurate stream : Yes
Defeat audio cache      : Yes
Make use of C2 pointers : No

Read offset correction                      : 667
Overread into Lead-In and Lead-Out          : No
Fill up missing offset samples with silence : Yes
Delete leading and trailing silent blocks   : No
Null samples used in CRC calculations       : Yes
Used interface                              : Native Win32 interface for Win NT & 2000
Gap handling                                : Appended to previous track

Used output format              : User Defined Encoder
Selected bitrate                : 32 kBit/s
Quality                         : High
Add ID3 tag                     : No
Command line compressor         : J:\Programme\FLAC\flac.exe
Additional command line options : -V -8 -T "artist=%a" -T "title=%t" -T "album=%g" -T "date=%y" -T "tracknumber=%n" -T "genre=%m" %s

TOC of the extracted CD

     Track |   Start  |  Length  | Start sector | End sector
    ---------------------------------------------------------
        1  |  0:00.00 |  8:32.36 |         0    |    38435   
        2  |  8:32.36 |  6:29.41 |     38436    |    67651   
        3  | 15:02.02 |  7:09.02 |     67652    |    99828   
        4  | 22:11.04 |  6:42.06 |     99829    |   129984   
        5  | 28:53.10 |  6:59.54 |    129985    |   161463   
        6  | 35:52.64 |  7:39.69 |    161464    |   195957   
        7  | 43:32.58 |  6:10.60 |    195958    |   223767   
        8  | 49:43.43 |  6:07.33 |    223768    |   251325   
        9  | 55:51.01 |  8:17.74 |    251326    |   288674   
       10  | 64:09.00 |  7:22.06 |    288675    |   321830   

Track  1

     Filename C:\tmp\Infected Mushroom - 2004 - IM The Supervisor\01 - IM The Supervisor.wav

     Pre-gap length  0:00:02.00

     Peak level 96.1 %
     Track quality 100.0 %
     Test CRC 2022B4D9
     Copy CRC 2022B4D9
     Accurately ripped (confidence 28)  [5A5A9B8C]
     Copy OK

Track  2

     Filename C:\tmp\Infected Mushroom - 2004 - IM The Supervisor\02 - Ratio Shmatio.wav

     Peak level 97.1 %
     Track quality 100.0 %
     Test CRC 64AB9C39
     Copy CRC 64AB9C39
     Accurately ripped (confidence 27)  [707393FD]
     Copy OK

Track  3

     Filename C:\tmp\Infected Mushroom - 2004 - IM The Supervisor\03 - Muse Breaks RMX.wav

     Peak level 97.1 %
     Track quality 99.9 %
     Test CRC 4B56A0CA
     Copy CRC 4B56A0CA
     Accurately ripped (confidence 26)  [1F903B4B]
     Copy OK

Track  4

     Filename C:\tmp\Infected Mushroom - 2004 - IM The Supervisor\04 - Meduzz.wav

     Peak level 98.1 %
     Track quality 100.0 %
     Test CRC C7A7E77F
     Copy CRC C7A7E77F
     Accurately ripped (confidence 26)  [C7E8F21E]
     Copy OK

Track  5

     Filename C:\tmp\Infected Mushroom - 2004 - IM The Supervisor\05 - Cities Of The Future.wav

     Peak level 96.7 %
     Track quality 99.9 %
     Test CRC C3CA0826
     Copy CRC C3CA0826
     Accurately ripped (confidence 26)  [0BF3E984]
     Copy OK

Track  6

     Filename C:\tmp\Infected Mushroom - 2004 - IM The Supervisor\06 - Horus The Chorus.wav

     Peak level 96.7 %
     Track quality 99.9 %
     Test CRC 6BED7B62
     Copy CRC 6BED7B62
     Accurately ripped (confidence 26)  [1451BEA9]
     Copy OK

Track  7

     Filename C:\tmp\Infected Mushroom - 2004 - IM The Supervisor\07 - Frog Machine.wav

     Peak level 96.1 %
     Track quality 100.0 %
     Test CRC 4AA2CC89
     Copy CRC 4AA2CC89
     Accurately ripped (confidence 26)  [CF56933A]
     Copy OK

Track  8

     Filename C:\tmp\Infected Mushroom - 2004 - IM The Supervisor\08 - Noon.wav

     Peak level 96.7 %
     Track quality 100.0 %
     Test CRC 5E2B1B8F
     Copy CRC 5E2B1B8F
     Accurately ripped (confidence 26)  [1DA0A273]
     Copy OK

Track  9

     Filename C:\tmp\Infected Mushroom - 2004 - IM The Supervisor\09 - Bombat.wav

     Peak level 96.1 %
     Track quality 100.0 %
     Test CRC A93647B8
     Copy CRC A93647B8
     Accurately ripped (confidence 26)  [ED150F46]
     Copy OK

Track 10

     Filename C:\tmp\Infected Mushroom - 2004 - IM The Supervisor\10 - Stretched.wav

     Peak level 96.1 %
     Track quality 100.0 %
     Test CRC AD3399E2
     Copy CRC AD3399E2
     Accurately ripped (confidence 24)  [2DFD2A1A]
     Copy OK

All tracks accurately ripped

No errors occurred

End of status report

Код:

REM GENRE Goa
REM DATE 2004
REM DISCID 8310C30A
REM COMMENT "ExactAudioCopy v0.99pb4"
PERFORMER "Infected Mushroom"
TITLE "IM The Supervisor"
FILE "01 - IM The Supervisor.wav" WAVE
  TRACK 01 AUDIO
    TITLE "IM The Supervisor"
    PERFORMER "Infected Mushroom"
    INDEX 01 00:00:00
FILE "02 - Ratio Shmatio.wav" WAVE
  TRACK 02 AUDIO
    TITLE "Ratio Shmatio"
    PERFORMER "Infected Mushroom"
    INDEX 01 00:00:00
FILE "03 - Muse Breaks RMX.wav" WAVE
  TRACK 03 AUDIO
    TITLE "Muse Breaks RMX"
    PERFORMER "Infected Mushroom"
    INDEX 01 00:00:00
FILE "04 - Meduzz.wav" WAVE
  TRACK 04 AUDIO
    TITLE "Meduzz"
    PERFORMER "Infected Mushroom"
    INDEX 01 00:00:00
FILE "05 - Cities Of The Future.wav" WAVE
  TRACK 05 AUDIO
    TITLE "Cities Of The Future"
    PERFORMER "Infected Mushroom"
    INDEX 01 00:00:00
FILE "06 - Horus The Chorus.wav" WAVE
  TRACK 06 AUDIO
    TITLE "Horus The Chorus"
    PERFORMER "Infected Mushroom"
    INDEX 01 00:00:00
FILE "07 - Frog Machine.wav" WAVE
  TRACK 07 AUDIO
    TITLE "Frog Machine"
    PERFORMER "Infected Mushroom"
    INDEX 01 00:00:00
FILE "08 - Noon.wav" WAVE
  TRACK 08 AUDIO
    TITLE "Noon"
    PERFORMER "Infected Mushroom"
    INDEX 01 00:00:00
FILE "09 - Bombat.wav" WAVE
  TRACK 09 AUDIO
    TITLE "Bombat"
    PERFORMER "Infected Mushroom"
    INDEX 01 00:00:00
FILE "10 - Stretched.wav" WAVE
  TRACK 10 AUDIO
    TITLE "Stretched"
    PERFORMER "Infected Mushroom"
    INDEX 01 00:00:00
01. Becoming Insane (7:20)
02. Artillery (4:28)
03. Vicious Delicious (7:25)
04. Heavyweight (8:41)
05. Suliman (6:11)
06. Forgive Me (3:29)
07. Special Place (6:53)
08. In Front Of Me (4:29)
09. Eat It Raw (6:31)
10. Change The Formality (7:44)
11. Before (6:57)

Код:

Exact Audio Copy V0.99 prebeta 5 from 4. May 2009

EAC extraction logfile from 23. October 2009, 18:56

Infected Mushroom / Vicious Delicious

Used drive  : TSSTcorpCDDVDW SH-S223B   Adapter: 1  ID: 0

Read mode               : Secure
Utilize accurate stream : Yes
Defeat audio cache      : Yes
Make use of C2 pointers : No

Read offset correction                      : 6
Overread into Lead-In and Lead-Out          : No
Fill up missing offset samples with silence : Yes
Delete leading and trailing silent blocks   : No
Null samples used in CRC calculations       : Yes
Used interface                              : Native Win32 interface for Win NT & 2000
Gap handling                                : Appended to previous track

Used output format              : User Defined Encoder
Selected bitrate                : 768 kBit/s
Quality                         : High
Add ID3 tag                     : No
Command line compressor         : C:\Program Files\Exact Audio Copy\FLAC\FLAC.EXE
Additional command line options : -V -8 -T "artist=%a" -T "title=%t" -T "album=%g" -T "date=%y" -T "tracknumber=%n" -T "genre=%m" %s 

TOC of the extracted CD

     Track |   Start  |  Length  | Start sector | End sector
    ---------------------------------------------------------
        1  |  0:00.00 |  7:20.20 |         0    |    33019   
        2  |  7:20.20 |  4:28.09 |     33020    |    53128   
        3  | 11:48.29 |  7:24.68 |     53129    |    86496   
        4  | 19:13.22 |  8:41.01 |     86497    |   125572   
        5  | 27:54.23 |  6:10.57 |    125573    |   153379   
        6  | 34:05.05 |  3:29.33 |    153380    |   169087   
        7  | 37:34.38 |  6:53.35 |    169088    |   200097   
        8  | 44:27.73 |  4:28.49 |    200098    |   220246   
        9  | 48:56.47 |  6:30.45 |    220247    |   249541   
       10  | 55:27.17 |  7:44.02 |    249542    |   284343   
       11  | 63:11.19 |  6:57.06 |    284344    |   315624   

Track  1

     Filename Z:\storage\mp3\newrips\Infected Mushroom - Vicious Delicious\01 Becoming Insane.wav

     Pre-gap length  0:00:02.00

     Peak level 97.7 %
     Track quality 100.0 %
     Test CRC 7ED4FBAC
     Copy CRC 7ED4FBAC
     Accurately ripped (confidence 7)  [AD8E752B]
     Copy OK

Track  2

     Filename Z:\storage\mp3\newrips\Infected Mushroom - Vicious Delicious\02 Artillery.wav

     Peak level 97.7 %
     Track quality 100.0 %
     Test CRC 3CF0AEE7
     Copy CRC 3CF0AEE7
     Accurately ripped (confidence 7)  [0AF08E2D]
     Copy OK

Track  3

     Filename Z:\storage\mp3\newrips\Infected Mushroom - Vicious Delicious\03 Vicious Delicious.wav

     Peak level 97.7 %
     Track quality 100.0 %
     Test CRC 33862AD8
     Copy CRC 33862AD8
     Accurately ripped (confidence 7)  [C26BBBE5]
     Copy OK

Track  4

     Filename Z:\storage\mp3\newrips\Infected Mushroom - Vicious Delicious\04 Heavyweight.wav

     Peak level 97.7 %
     Track quality 99.9 %
     Test CRC 5552B5AB
     Copy CRC 5552B5AB
     Accurately ripped (confidence 7)  [B8869E6C]
     Copy OK

Track  5

     Filename Z:\storage\mp3\newrips\Infected Mushroom - Vicious Delicious\05 Suliman.wav

     Peak level 97.7 %
     Track quality 100.0 %
     Test CRC 3E393E09
     Copy CRC 3E393E09
     Accurately ripped (confidence 7)  [B1271F0C]
     Copy OK

Track  6

     Filename Z:\storage\mp3\newrips\Infected Mushroom - Vicious Delicious\06 Forgive Me.wav

     Peak level 97.7 %
     Track quality 100.0 %
     Test CRC 3595C028
     Copy CRC 3595C028
     Accurately ripped (confidence 7)  [EEA8F42E]
     Copy OK

Track  7

     Filename Z:\storage\mp3\newrips\Infected Mushroom - Vicious Delicious\07 Special Place.wav

     Peak level 97.7 %
     Track quality 100.0 %
     Test CRC DCB22D15
     Copy CRC DCB22D15
     Accurately ripped (confidence 7)  [25A0E38E]
     Copy OK

Track  8

     Filename Z:\storage\mp3\newrips\Infected Mushroom - Vicious Delicious\08 In Front Of Me.wav

     Peak level 97.7 %
     Track quality 99.9 %
     Test CRC FB0AF254
     Copy CRC FB0AF254
     Accurately ripped (confidence 7)  [27E7EC05]
     Copy OK

Track  9

     Filename Z:\storage\mp3\newrips\Infected Mushroom - Vicious Delicious\09 Eat It Raw.wav

     Peak level 97.7 %
     Track quality 100.0 %
     Test CRC 39261BC8
     Copy CRC 39261BC8
     Accurately ripped (confidence 7)  [141C8002]
     Copy OK

Track 10

     Filename Z:\storage\mp3\newrips\Infected Mushroom - Vicious Delicious\10 Change The Formality.wav

     Peak level 97.7 %
     Track quality 100.0 %
     Test CRC C52AF280
     Copy CRC C52AF280
     Accurately ripped (confidence 7)  [A622A166]
     Copy OK

Track 11

     Filename Z:\storage\mp3\newrips\Infected Mushroom - Vicious Delicious\11 Before.wav

     Peak level 97.7 %
     Track quality 99.9 %
     Test CRC 0628B20C
     Copy CRC 0628B20C
     Accurately ripped (confidence 7)  [F4222F58]
     Copy OK

All tracks accurately ripped

No errors occurred

End of status report

Код:

REM GENRE Goa
REM DATE 2007
REM DISCID A410700B
REM COMMENT "ExactAudioCopy v0.99pb5"
PERFORMER "Infected Mushroom"
TITLE "Vicious Delicious"
FILE "Infected Mushroom - Vicious Delicious\01 Becoming Insane.wav" WAVE
  TRACK 01 AUDIO
    TITLE "Becoming Insane"
    PERFORMER "Infected Mushroom"
    INDEX 01 00:00:00
FILE "Infected Mushroom - Vicious Delicious\02 Artillery.wav" WAVE
  TRACK 02 AUDIO
    TITLE "Artillery"
    PERFORMER "Infected Mushroom"
    INDEX 01 00:00:00
FILE "Infected Mushroom - Vicious Delicious\03 Vicious Delicious.wav" WAVE
  TRACK 03 AUDIO
    TITLE "Vicious Delicious"
    PERFORMER "Infected Mushroom"
    INDEX 01 00:00:00
FILE "Infected Mushroom - Vicious Delicious\04 Heavyweight.wav" WAVE
  TRACK 04 AUDIO
    TITLE "Heavyweight"
    PERFORMER "Infected Mushroom"
    INDEX 01 00:00:00
FILE "Infected Mushroom - Vicious Delicious\05 Suliman.wav" WAVE
  TRACK 05 AUDIO
    TITLE "Suliman"
    PERFORMER "Infected Mushroom"
    INDEX 01 00:00:00
FILE "Infected Mushroom - Vicious Delicious\06 Forgive Me.wav" WAVE
  TRACK 06 AUDIO
    TITLE "Forgive Me"
    PERFORMER "Infected Mushroom"
    INDEX 01 00:00:00
FILE "Infected Mushroom - Vicious Delicious\07 Special Place.wav" WAVE
  TRACK 07 AUDIO
    TITLE "Special Place"
    PERFORMER "Infected Mushroom"
    INDEX 01 00:00:00
FILE "Infected Mushroom - Vicious Delicious\08 In Front Of Me.wav" WAVE
  TRACK 08 AUDIO
    TITLE "In Front Of Me"
    PERFORMER "Infected Mushroom"
    INDEX 01 00:00:00
FILE "Infected Mushroom - Vicious Delicious\09 Eat It Raw.wav" WAVE
  TRACK 09 AUDIO
    TITLE "Eat It Raw"
    PERFORMER "Infected Mushroom"
    INDEX 01 00:00:00
FILE "Infected Mushroom - Vicious Delicious\10 Change The Formality.wav" WAVE
  TRACK 10 AUDIO
    TITLE "Change The Formality"
    PERFORMER "Infected Mushroom"
    INDEX 01 00:00:00
FILE "Infected Mushroom - Vicious Delicious\11 Before.wav" WAVE
  TRACK 11 AUDIO
    TITLE "Before"
    PERFORMER "Infected Mushroom"
    INDEX 01 00:00:00
01. Poquito Mas (3:39)
02. Sa'eed (7:04)
03. End of the Road (6:47)
04. Smashing the Opponent (feat. Jonathan Davis) (4:10)
05. Can't Stop (7:24)
06. Herbert the Pervert (7:17)
07. Killing Time (feat. Perry Ferrell) (3:04)
08. Project 100 (9:38)
09. Franks (8:05)
10. Slowly (9:00)
11. The Legend of the Black Shawarma (7:12)
12. Riders on the Storm (Infected Mushroom Remix) (4:29)

Код:

Exact Audio Copy V0.99 prebeta 5 from 4. May 2009

EAC extraction logfile from 27. August 2009, 10:34

Infected Mushroom / Legend of the Black Shawarma

Used drive  : HL-DT-STDVDRAM GH20NS15   Adapter: 3  ID: 2

Read mode               : Secure
Utilize accurate stream : Yes
Defeat audio cache      : Yes
Make use of C2 pointers : No

Read offset correction                      : 667
Overread into Lead-In and Lead-Out          : No
Fill up missing offset samples with silence : Yes
Delete leading and trailing silent blocks   : No
Null samples used in CRC calculations       : Yes
Used interface                              : Native Win32 interface for Win NT & 2000
Gap handling                                : Appended to previous track

Used output format              : User Defined Encoder
Selected bitrate                : 768 kBit/s
Quality                         : High
Add ID3 tag                     : No
Command line compressor         : C:\Program Files\Exact Audio Copy\FLAC\FLAC.EXE
Additional command line options : -V -8 -T "artist=%a" -T "title=%t" -T "album=%g" -T "date=%y" -T "tracknumber=%n" -T "genre=%m" %s

TOC of the extracted CD

     Track |   Start  |  Length  | Start sector | End sector
    ---------------------------------------------------------
        1  |  0:00.00 |  3:39.30 |         0    |    16454   
        2  |  3:39.30 |  7:03.54 |     16455    |    48233   
        3  | 10:43.09 |  6:47.13 |     48234    |    78771   
        4  | 17:30.22 |  4:09.74 |     78772    |    97520   
        5  | 21:40.21 |  7:23.43 |     97521    |   130788   
        6  | 29:03.64 |  7:17.36 |    130789    |   163599   
        7  | 36:21.25 |  3:04.30 |    163600    |   177429   
        8  | 39:25.55 |  9:38.19 |    177430    |   220798   
        9  | 49:03.74 |  8:05.24 |    220799    |   257197   
       10  | 57:09.23 |  9:00.09 |    257198    |   297706   
       11  | 66:09.32 |  7:11.52 |    297707    |   330083   
       12  | 73:21.09 |  4:29.16 |    330084    |   350274   

Track  1

     Filename C:\Temp\New Rips\Infected Mushroom - Legend of the Black Shawarma - 01 - Poquito Mas.wav

     Pre-gap length  0:00:02.00

     Peak level 97.7 %
     Track quality 100.0 %
     Test CRC A1D45649
     Copy CRC A1D45649
     Track not present in AccurateRip database
     Copy OK

Track  2

     Filename C:\Temp\New Rips\Infected Mushroom - Legend of the Black Shawarma - 02 - Sa'eed.wav

     Peak level 97.7 %
     Track quality 99.9 %
     Test CRC 25BC74FC
     Copy CRC 25BC74FC
     Track not present in AccurateRip database
     Copy OK

Track  3

     Filename C:\Temp\New Rips\Infected Mushroom - Legend of the Black Shawarma - 03 - End of the Road.wav

     Peak level 97.7 %
     Track quality 99.9 %
     Test CRC B65BCFB4
     Copy CRC B65BCFB4
     Track not present in AccurateRip database
     Copy OK

Track  4

     Filename C:\Temp\New Rips\Infected Mushroom - Legend of the Black Shawarma - 04 - Smashing the Opponent (feat. Jonathan Davis).wav

     Peak level 97.7 %
     Track quality 99.5 %
     Test CRC A877ADEE
     Copy CRC A877ADEE
     Track not present in AccurateRip database
     Copy OK

Track  5

     Filename C:\Temp\New Rips\Infected Mushroom - Legend of the Black Shawarma - 05 - Can't Stop.wav

     Peak level 97.7 %
     Track quality 100.0 %
     Test CRC 3C33C45E
     Copy CRC 3C33C45E
     Track not present in AccurateRip database
     Copy OK

Track  6

     Filename C:\Temp\New Rips\Infected Mushroom - Legend of the Black Shawarma - 06 - Herbert the Pervert.wav

     Suspicious position 0:02:08
     Suspicious position 0:02:21

     Peak level 97.7 %
     Track quality 99.6 %
     Test CRC 6E3C8013
     Copy CRC D8D2AFA0
     Track not present in AccurateRip database
     Copy finished

Track  7

     Filename C:\Temp\New Rips\Infected Mushroom - Legend of the Black Shawarma - 07 - Killing Time (feat. Perry Ferrell).wav

     Peak level 97.7 %
     Track quality 100.0 %
     Test CRC 8D1321C5
     Copy CRC 8D1321C5
     Track not present in AccurateRip database
     Copy OK

Track  8

     Filename C:\Temp\New Rips\Infected Mushroom - Legend of the Black Shawarma - 08 - Project 100.wav

     Peak level 100.0 %
     Track quality 99.9 %
     Test CRC 988F3118
     Copy CRC FE4B3FBB
     Track not present in AccurateRip database
     Copy OK

Track  9

     Filename C:\Temp\New Rips\Infected Mushroom - Legend of the Black Shawarma - 09 - Franks.wav

     Peak level 88.7 %
     Track quality 99.9 %
     Test CRC B7505323
     Copy CRC F8C2E6A0
     Track not present in AccurateRip database
     Copy OK

Track 10

     Filename C:\Temp\New Rips\Infected Mushroom - Legend of the Black Shawarma - 10 - Slowly.wav

     Suspicious position 0:06:11
     Suspicious position 0:07:44

     Peak level 97.7 %
     Track quality 99.7 %
     Test CRC 8AB2D09B
     Copy CRC 033F69FE
     Track not present in AccurateRip database
     Copy finished

Track 11

     Filename C:\Temp\New Rips\Infected Mushroom - Legend of the Black Shawarma - 11 - The Legend of the Black Shawarma.wav

     Peak level 97.7 %
     Track quality 99.9 %
     Test CRC 10A21D22
     Copy CRC 10A21D22
     Track not present in AccurateRip database
     Copy OK

Track 12

     Filename C:\Temp\New Rips\Infected Mushroom - Legend of the Black Shawarma - 12 - Riders on the Storm (Infected Mushroom Remix).wav

     Pre-gap length  0:00:00.98

     Peak level 97.7 %
     Track quality 100.0 %
     Test CRC A3F6FD69
     Copy CRC A3F6FD69
     Track not present in AccurateRip database
     Copy OK

None of the tracks are present in the AccurateRip database

There were errors

End of status report

------------------------------------------------------------

Exact Audio Copy V0.99 prebeta 5 from 4. May 2009

EAC extraction logfile from 28. August 2009, 22:28

Infected Mushroom / Legend of the Black Shawarma

Used drive  : LITE-ON DVDRW LH-20A1S   Adapter: 3  ID: 0

Read mode               : Secure
Utilize accurate stream : Yes
Defeat audio cache      : Yes
Make use of C2 pointers : No

Read offset correction                      : 6
Overread into Lead-In and Lead-Out          : No
Fill up missing offset samples with silence : Yes
Delete leading and trailing silent blocks   : No
Null samples used in CRC calculations       : Yes
Used interface                              : Installed external ASPI interface
Gap handling                                : Appended to previous track

Used output format              : User Defined Encoder
Selected bitrate                : 768 kBit/s
Quality                         : High
Add ID3 tag                     : No
Command line compressor         : C:\Program Files\Exact Audio Copy\FLAC\FLAC.EXE
Additional command line options : -V -8 -T "artist=%a" -T "title=%t" -T "album=%g" -T "date=%y" -T "tracknumber=%n" -T "genre=%m" %s

TOC of the extracted CD

     Track |   Start  |  Length  | Start sector | End sector
    ---------------------------------------------------------
        1  |  0:00.00 |  3:39.30 |         0    |    16454   
        2  |  3:39.30 |  7:03.54 |     16455    |    48233   
        3  | 10:43.09 |  6:47.13 |     48234    |    78771   
        4  | 17:30.22 |  4:09.74 |     78772    |    97520   
        5  | 21:40.21 |  7:23.43 |     97521    |   130788   
        6  | 29:03.64 |  7:17.36 |    130789    |   163599   
        7  | 36:21.25 |  3:04.30 |    163600    |   177429   
        8  | 39:25.55 |  9:38.19 |    177430    |   220798   
        9  | 49:03.74 |  8:05.24 |    220799    |   257197   
       10  | 57:09.23 |  9:00.09 |    257198    |   297706   
       11  | 66:09.32 |  7:11.52 |    297707    |   330083   
       12  | 73:21.09 |  4:29.16 |    330084    |   350274   

Track  1

     Filename C:\Temp\New Rips\Infected Mushroom - Legend of the Black Shawarma - 01 - Poquito Mas.wav

     Pre-gap length  0:00:02.00

     Peak level 97.7 %
     Track quality 100.0 %
     Test CRC A1D45649
     Copy CRC A1D45649
     Track not present in AccurateRip database
     Copy OK

Track  2

     Filename C:\Temp\New Rips\Infected Mushroom - Legend of the Black Shawarma - 02 - Sa'eed.wav

     Peak level 97.7 %
     Track quality 99.9 %
     Test CRC 25BC74FC
     Copy CRC 25BC74FC
     Track not present in AccurateRip database
     Copy OK

Track  3

     Filename C:\Temp\New Rips\Infected Mushroom - Legend of the Black Shawarma - 03 - End of the Road.wav

     Peak level 97.7 %
     Track quality 100.0 %
     Test CRC B65BCFB4
     Copy CRC B65BCFB4
     Track not present in AccurateRip database
     Copy OK

Track  4

     Filename C:\Temp\New Rips\Infected Mushroom - Legend of the Black Shawarma - 04 - Smashing the Opponent (feat. Jonathan Davis).wav

     Peak level 97.7 %
     Track quality 100.0 %
     Test CRC A877ADEE
     Copy CRC A877ADEE
     Track not present in AccurateRip database
     Copy OK

Track  5

     Filename C:\Temp\New Rips\Infected Mushroom - Legend of the Black Shawarma - 05 - Can't Stop.wav

     Peak level 97.7 %
     Track quality 100.0 %
     Test CRC 3C33C45E
     Copy CRC 3C33C45E
     Track not present in AccurateRip database
     Copy OK

Track  6

     Filename C:\Temp\New Rips\Infected Mushroom - Legend of the Black Shawarma - 06 - Herbert the Pervert.wav

     Peak level 97.7 %
     Track quality 100.0 %
     Test CRC 7540FC28
     Copy CRC 7540FC28
     Track not present in AccurateRip database
     Copy OK

Track  7

     Filename C:\Temp\New Rips\Infected Mushroom - Legend of the Black Shawarma - 07 - Killing Time (feat. Perry Ferrell).wav

     Peak level 97.7 %
     Track quality 100.0 %
     Test CRC 8D1321C5
     Copy CRC 8D1321C5
     Track not present in AccurateRip database
     Copy OK

Track  8

     Filename C:\Temp\New Rips\Infected Mushroom - Legend of the Black Shawarma - 08 - Project 100.wav

     Peak level 100.0 %
     Track quality 100.0 %
     Test CRC FE4B3FBB
     Copy CRC FE4B3FBB
     Track not present in AccurateRip database
     Copy OK

Track  9

     Filename C:\Temp\New Rips\Infected Mushroom - Legend of the Black Shawarma - 09 - Franks.wav

     Peak level 88.7 %
     Track quality 100.0 %
     Test CRC 8361A166
     Copy CRC 8361A166
     Track not present in AccurateRip database
     Copy OK

Track 10

     Filename C:\Temp\New Rips\Infected Mushroom - Legend of the Black Shawarma - 10 - Slowly.wav

     Peak level 97.7 %
     Track quality 100.0 %
     Test CRC 8AB2D09B
     Copy CRC 8AB2D09B
     Track not present in AccurateRip database
     Copy OK

Track 11

     Filename C:\Temp\New Rips\Infected Mushroom - Legend of the Black Shawarma - 11 - The Legend of the Black Shawarma.wav

     Peak level 97.7 %
     Track quality 99.9 %
     Test CRC 10A21D22
     Copy CRC 10A21D22
     Track not present in AccurateRip database
     Copy OK

Track 12

     Filename C:\Temp\New Rips\Infected Mushroom - Legend of the Black Shawarma - 12 - Riders on the Storm (Infected Mushroom Remix).wav

     Pre-gap length  0:00:00.98

     Peak level 97.7 %
     Track quality 100.0 %
     Test CRC AAC47787
     Copy CRC AAC47787
     Track not present in AccurateRip database
     Copy OK

None of the tracks are present in the AccurateRip database

No errors occurred

End of status report

Код:

REM GENRE Electronic
REM DATE 2009
REM DISCID 93123E0C
REM COMMENT "ExactAudioCopy v0.99pb5"
FILE "Infected Mushroom - Legend of the Black Shawarma - 01 - Poquito Mas.wav" WAVE
  TRACK 01 AUDIO
    INDEX 01 00:00:00
FILE "Infected Mushroom - Legend of the Black Shawarma - 02 - Sa'eed.wav" WAVE
  TRACK 02 AUDIO
    INDEX 01 00:00:00
FILE "Infected Mushroom - Legend of the Black Shawarma - 03 - End of the Road.wav" WAVE
  TRACK 03 AUDIO
    INDEX 01 00:00:00
FILE "Infected Mushroom - Legend of the Black Shawarma - 04 - Smashing the Opponent (feat. Jonathan Davis).wav" WAVE
  TRACK 04 AUDIO
    INDEX 01 00:00:00
FILE "Infected Mushroom - Legend of the Black Shawarma - 05 - Can't Stop.wav" WAVE
  TRACK 05 AUDIO
    INDEX 01 00:00:00
FILE "Infected Mushroom - Legend of the Black Shawarma - 06 - Herbert the Pervert.wav" WAVE
  TRACK 06 AUDIO
    INDEX 01 00:00:00
FILE "Infected Mushroom - Legend of the Black Shawarma - 07 - Killing Time (feat. Perry Ferrell).wav" WAVE
  TRACK 07 AUDIO
    INDEX 01 00:00:00
FILE "Infected Mushroom - Legend of the Black Shawarma - 08 - Project 100.wav" WAVE
  TRACK 08 AUDIO
    INDEX 01 00:00:00
FILE "Infected Mushroom - Legend of the Black Shawarma - 09 - Franks.wav" WAVE
  TRACK 09 AUDIO
    INDEX 01 00:00:00
FILE "Infected Mushroom - Legend of the Black Shawarma - 10 - Slowly.wav" WAVE
  TRACK 10 AUDIO
    INDEX 01 00:00:00
FILE "Infected Mushroom - Legend of the Black Shawarma - 11 - The Legend of the Black Shawarma.wav" WAVE
  TRACK 11 AUDIO
    INDEX 01 00:00:00
  TRACK 12 AUDIO
    INDEX 00 07:10:53
FILE "Infected Mushroom - Legend of the Black Shawarma - 12 - Riders on the Storm (Infected Mushroom Remix).wav" WAVE
    INDEX 01 00:00:00
01. B.P. Empire (Deep Mix) (7:37)
02. B.P. Empire (Original) (7:40)
03. Roll Us A Giant (10:36)

Код:

EAC extraction logfile from 15. August 2006, 14:51 for CD
Infected Mushroom / B.P. Empire [YOYO CS01]

Used drive  : PLEXTOR CD-R   PX-W4824A   Adapter: 0  ID: 0
Read mode   : Secure with C2, accurate stream, disable cache
Read offset correction : 98
Overread into Lead-In and Lead-Out : Yes

Used output format : C:\Program Files\FLAC\flac.exe   (User Defined Encoder)
                     320 kBit/s
                     Additional command line options : -V -8 -T "artist=%a" -T "title=%t" -T "album=%g" -T "date=%y" -T "tracknumber=%n" -T "genre=%m" %s

Other options      :
    Fill up missing offset samples with silence : Yes
    Delete leading and trailing silent blocks : No
    Native Win32 interface for Win NT & 2000

Track  1
     Filename D:\Infected Mushroom - B.P. Empire (EP)\01 - B.P. Empire (Deep Mix).wav

     Pre-gap length  0:00:02.00

     Peak level 96.6 %
     Track quality 100.0 %
     Test CRC D2037C6B
     Copy CRC D2037C6B
     Copy OK

Track  2
     Filename D:\Infected Mushroom - B.P. Empire (EP)\02 - B.P. Empire (Original).wav

     Pre-gap length  0:00:02.00

     Peak level 86.9 %
     Track quality 100.0 %
     Test CRC 7A682D80
     Copy CRC 7A682D80
     Copy OK

Track  3
     Filename D:\Infected Mushroom - B.P. Empire (EP)\03 - Roll Us A Giant.wav

     Pre-gap length  0:00:01.45

     Peak level 100.0 %
     Track quality 99.9 %
     Test CRC 062E8EB0
     Copy CRC 062E8EB0
     Copy OK

No errors occured

End of status report

Код:

REM GENRE Electronic
REM DATE 2001
REM DISCID 27061103
REM COMMENT "ExactAudioCopy v0.95b4"
PERFORMER "Infected Mushroom"
TITLE "B.P. Empire [YOYO CS01]"
FILE "01 - B.P. Empire (Deep Mix).wav" WAVE
  TRACK 01 AUDIO
    TITLE "B.P. Empire (Deep Mix)"
    PERFORMER "Infected Mushroom"
    INDEX 01 00:00:00
  TRACK 02 AUDIO
    TITLE "B.P. Empire (Original)"
    PERFORMER "Infected Mushroom"
    INDEX 00 07:35:09
FILE "02 - B.P. Empire (Original).wav" WAVE
    INDEX 01 00:00:00
  TRACK 03 AUDIO
    TITLE "Roll Us A Giant"
    PERFORMER "Infected Mushroom"
    INDEX 00 07:38:45
FILE "03 - Roll Us A Giant.wav" WAVE
    INDEX 01 00:00:00
01. Birthday (Infected Mushroom Remix) (4:49)
02. Statik Dancin' (4:43)
03. Deeply Disturbed (8:24)

Код:

Started at: четверг, 21. 01. 2010. - 20:12.51
3 files found

1 -===- Infected Mushroom\Singles\2002 - Birthday (Infected Mushroom & Berry_Sakharof)\01-Berry_Sakharof_-_Birthday_(Infected_Mushroom_Remix).flac
  Extracted successfully
  Conclusion: this track is CDDA with probability 100%
  Tempfile successfully deleted.

2 -===- Infected Mushroom\Singles\2002 - Birthday (Infected Mushroom & Berry_Sakharof)\02-Infected_Mushroom_And_Berry_Sakharof_-_Statik_Dancin'.flac
  Extracted successfully
  Conclusion: this track is CDDA with probability 100%
  Tempfile successfully deleted.

3 -===- Infected Mushroom\Singles\2002 - Birthday (Infected Mushroom & Berry_Sakharof)\03-Infected_Mushroom_-_Deeply_Disturbed.flac
  Extracted successfully
  Conclusion: this track is CDDA with probability 100%
  Tempfile successfully deleted.

Finished at: четверг, 21. 01. 2010. - 20:14.40 (operation time: 0:01.48)
CUE файла нет
01. Deeply Disturbed (Edit) (3:50)
02. Deeply Disturbed (Yahel Remix) (7:34)
03. Deeply Disturbed (Violet Vision Remix) (6:11)
04. Deeply Disturbed (Original) (8:22)
05. Drop Out (5:24)

Код:

EAC extraction logfile from 30. June 2008, 20:16 for CD
Infected Mushroom / Deeply Disturbed [EP]

Used drive  : Memorex DVD+-RAM 530L v1   Adapter: 7  ID: 0
Read mode   : Secure with NO C2, accurate stream, disable cache
Read offset correction : 6
Overread into Lead-In and Lead-Out : No

Used output format : F:\...\flac-1.1.4-win\bin\flac.exe   (User Defined Encoder)
                     320 kBit/s
                     Additional command line options : -8 -A tukey(0.25) -A gauss(0.1875) -b 4096 -V -T "artist=%a" -T "title=%t" -T "album=%g" -T "date=%y" -T "tracknumber=%n" -T "genre=%m" %s --sector-align

Other options      :
    Fill up missing offset samples with silence : Yes
    Delete leading and trailing silent blocks : No
    Native Win32 interface for Win NT & 2000

Track  1
     Filename F:\...\FLAC\Deeply Disturbed [EP]\01 - Infected Mushroom - Deeply Disturbed [Edit].wav

     Pre-gap length  0:00:02.00

     Peak level 96.6 %
     Track quality 99.9 %
     Test CRC C905F31F
     Copy CRC C905F31F
     Copy OK

Track  2
     Filename F:\...\FLAC\Deeply Disturbed [EP]\02 - Infected Mushroom - Deeply Disturbed [Yahel Remix].wav

     Peak level 96.6 %
     Track quality 100.0 %
     Test CRC C2FC76A4
     Copy CRC C2FC76A4
     Copy OK

Track  3
     Filename F:\...\FLAC\Deeply Disturbed [EP]\03 - Infected Mushroom - Deeply Disturbed [Violet Vision Remix].wav

     Pre-gap length  0:00:02.00

     Peak level 96.6 %
     Track quality 100.0 %
     Test CRC DF9DE18C
     Copy CRC DF9DE18C
     Copy OK

Track  4
     Filename F:\...\FLAC\Deeply Disturbed [EP]\04 - Infected Mushroom - Deeply Disturbed [Album Mix].wav

     Peak level 96.5 %
     Track quality 99.8 %
     Test CRC B04CC351
     Copy CRC B04CC351
     Copy OK

Track  5
     Filename F:\...\FLAC\Deeply Disturbed [EP]\05 - Infected Mushroom - Drop Out [Album Mix].wav

     Peak level 96.6 %
     Track quality 99.9 %
     Test CRC 0D90E70C
     Copy CRC 0D90E70C
     Copy OK

No errors occured

End of status report

Код:

REM GENRE Trance
REM DATE 2003
REM DISCID 3A075805
REM COMMENT "ExactAudioCopy v0.95b3"
PERFORMER "Infected Mushroom"
TITLE "Deeply Disturbed [EP]"
FILE "01 - Infected Mushroom - Deeply Disturbed [Edit].wav" WAVE
  TRACK 01 AUDIO
    TITLE "Deeply Disturbed [Edit]"
    PERFORMER "Infected Mushroom"
    INDEX 01 00:00:00
FILE "02 - Infected Mushroom - Deeply Disturbed [Yahel Remix].wav" WAVE
  TRACK 02 AUDIO
    TITLE "Deeply Disturbed [Yahel Remix]"
    PERFORMER "Infected Mushroom"
    INDEX 01 00:00:00
  TRACK 03 AUDIO
    TITLE "Deeply Disturbed [Violet Vision Remix]"
    PERFORMER "Infected Mushroom"
    INDEX 00 07:31:50
FILE "03 - Infected Mushroom - Deeply Disturbed [Violet Vision Remix].wav" WAVE
    INDEX 01 00:00:00
FILE "04 - Infected Mushroom - Deeply Disturbed [Album Mix].wav" WAVE
  TRACK 04 AUDIO
    TITLE "Deeply Disturbed [Album Mix]"
    PERFORMER "Infected Mushroom"
    INDEX 01 00:00:00
FILE "05 - Infected Mushroom - Drop Out [Album Mix].wav" WAVE
  TRACK 05 AUDIO
    TITLE "Drop Out [Album Mix]"
    PERFORMER "Infected Mushroom"
    INDEX 01 00:00:00
01. I Wish (3:03)
02. Blink (Radio Edit) (4:30)
03. Converting Vegetarians (Radio Edit) (3:38)
04. Illuminaughty (Radio Edit) (3:52)

Код:

Started at: четверг, 21. 01. 2010. - 20:21.13
4 files found

1 -===- Infected Mushroom\Singles\2003 - Songs From The Other Side (Infected Mushroom)\01-Infected_Mushroom_-_I_Wish.flac
  Extracted successfully
  Conclusion: this track is CDDA with probability 100%
  Tempfile successfully deleted.

2 -===- Infected Mushroom\Singles\2003 - Songs From The Other Side (Infected Mushroom)\02-Infected_Mushroom_-_Blink_(Radio_Edit).flac
  Extracted successfully
  Conclusion: this track is CDDA with probability 100%
  Tempfile successfully deleted.

3 -===- Infected Mushroom\Singles\2003 - Songs From The Other Side (Infected Mushroom)\03-Infected_Mushroom_-_Converting_Vegetarians_(Radio_Edit).flac
  Extracted successfully
  Conclusion: this track is CDDA with probability 100%
  Tempfile successfully deleted.

4 -===- Infected Mushroom\Singles\2003 - Songs From The Other Side (Infected Mushroom)\04-Infected_Mushroom_-_Illuminaughty_(Radio_Edit).flac
  Extracted successfully
  Conclusion: this track is CDDA with probability 100%
  Tempfile successfully deleted.

Finished at: четверг, 21. 01. 2010. - 20:22.42 (operation time: 0:01.29)
CUE файла нет
01. Cities Of The Future Radio Edit (3:50)
02. Cities Of The Future Original mix (7:01)
03. Cities Of The Future Violent Vision Remix (5:51)
04. Cream (7:48)

Код:

Started at: четверг, 21. 01. 2010. - 20:24.48
4 files found

1 -===- Infected Mushroom\Singles\2004 - Cities Of The Future EP (Infected Mushroom)\01 - Infected Mushroom - Cities Of The Future Radio Edit.flac
  Extracted successfully
  Conclusion: this track is CDDA with probability 100%
  Tempfile successfully deleted.

2 -===- Infected Mushroom\Singles\2004 - Cities Of The Future EP (Infected Mushroom)\02 - Infected Mushroom - Cities Of The Future Original mix.flac
  Extracted successfully
  Conclusion: this track is CDDA with probability 100%
  Tempfile successfully deleted.

3 -===- Infected Mushroom\Singles\2004 - Cities Of The Future EP (Infected Mushroom)\03 - Infected Mushroom - Cities Of The Future Violent Vision Remix.flac
  Extracted successfully
  Conclusion: this track is CDDA with probability 100%
  Tempfile successfully deleted.

4 -===- Infected Mushroom\Singles\2004 - Cities Of The Future EP (Infected Mushroom)\04 - Infected Mushroom - Cream.flac
  Extracted successfully
  Conclusion: this track is CDDA with probability 99%
  Tempfile successfully deleted.

Finished at: четверг, 21. 01. 2010. - 20:27.17 (operation time: 0:02.29)
CUE файла нет
01. ShakawKaw Live (7:23)
02. Streched (7:22)
03. Cities of the Future (TimeLock Remix) (7:30)
04. The Beauty and the Beat (8:10)

Код:

Exact Audio Copy V0.99 prebeta 4 from 23. January 2008

EAC extraction logfile from 8. May 2009, 10:54

Infected Mushroom / Streched

Used drive  : HL-DT-STDVDRAM GSA-H10A   Adapter: 1  ID: 0

Read mode               : Secure
Utilize accurate stream : Yes
Defeat audio cache      : Yes
Make use of C2 pointers : No

Read offset correction                      : 667
Overread into Lead-In and Lead-Out          : No
Fill up missing offset samples with silence : Yes
Delete leading and trailing silent blocks   : No
Null samples used in CRC calculations       : Yes
Used interface                              : Native Win32 interface for Win NT & 2000
Gap handling                                : Appended to previous track

Used output format              : User Defined Encoder
Selected bitrate                : 128 kBit/s
Quality                         : High
Add ID3 tag                     : No
Command line compressor         : C:\Program Files\FLAC\flac.exe
Additional command line options : -V -8 -T "artist=%a" -T "title=%t" -T "album=%g" -T "date=%y" -T "tracknumber=%n" -T "genre=%m" %s 

TOC of the extracted CD

     Track |   Start  |  Length  | Start sector | End sector
    ---------------------------------------------------------
        1  |  0:00.00 |  7:23.37 |         0    |    33261   
        2  |  7:23.37 |  7:22.30 |     33262    |    66441   
        3  | 14:45.67 |  7:29.64 |     66442    |   100180   
        4  | 22:15.56 |  8:09.72 |    100181    |   136927   

Track  1

     Filename I:\Infected Mushroom - Streched\01 - Infected Mushroom - ShakawKaw Live.wav

     Pre-gap length  0:00:02.00

     Peak level 96.2 %
     Track quality 100.0 %
     Test CRC CD5298E2
     Copy CRC CD5298E2
     Copy OK

Track  2

     Filename I:\Infected Mushroom - Streched\02 - Infected Mushroom - Streched.wav

     Peak level 96.1 %
     Track quality 100.0 %
     Test CRC 6A31B8C9
     Copy CRC 6A31B8C9
     Copy OK

Track  3

     Filename I:\Infected Mushroom - Streched\03 - Infected Mushroom - Cities of the Future (TimeLock Remix).wav

     Peak level 96.6 %
     Track quality 100.0 %
     Test CRC 77315C20
     Copy CRC 77315C20
     Copy OK

Track  4

     Filename I:\Infected Mushroom - Streched\04 - Infected Mushroom - The Beauty and the Beat.wav

     Peak level 95.9 %
     Track quality 100.0 %
     Test CRC 31C7FE93
     Copy CRC 31C7FE93
     Copy OK

No errors occurred

End of status report
CUE файла нет
01. Becoming Insane (Radio Mix) (3:12)
02. Becoming Insane (Album Mix) (7:29)
03. Deeply Disturbed (Infected Remix) (9:05)
04. Merlin (Infected Remix) (8:23)

Код:

EAC extraction logfile from 30. June 2008, 23:19 for CD
Infected Mushroom / Becoming Insane

Used drive  : Memorex DVD+-RAM 530L v1   Adapter: 7  ID: 0
Read mode   : Secure with NO C2, accurate stream, disable cache
Read offset correction : 6
Overread into Lead-In and Lead-Out : No

Used output format : F:\Media Tools\Tools\Audio\conversion\encoders\flac-1.1.4-win\bin\flac.exe   (User Defined Encoder)
                     320 kBit/s
                     Additional command line options : -8 -A tukey(0.25) -A gauss(0.1875) -b 4096 -V -T "artist=%a" -T "title=%t" -T "album=%g" -T "date=%y" -T "tracknumber=%n" -T "genre=%m" %s --sector-align

Other options      :
    Fill up missing offset samples with silence : Yes
    Delete leading and trailing silent blocks : No
    Native Win32 interface for Win NT & 2000

Track  1
     Filename F:\Media Library\Audio\FLAC\Becoming Insane\01 - Infected Mushroom - Becoming Insane (Radio Mix).wav

     Peak level 97.7 %
     Track quality 100.0 %
     Test CRC F2D9D881
     Copy CRC F2D9D881
     Copy OK

Track  2
     Filename F:\Media Library\Audio\FLAC\Becoming Insane\02 - Infected Mushroom - Becoming Insane (Album Mix).wav

     Peak level 97.7 %
     Track quality 100.0 %
     Test CRC 5A5ADC37
     Copy CRC 5A5ADC37
     Copy OK

Track  3
     Filename F:\Media Library\Audio\FLAC\Becoming Insane\03 - Infected Mushroom - Deeply Disturbed (Infected Remix).wav

     Peak level 100.0 %
     Track quality 100.0 %
     Test CRC D3C0235F
     Copy CRC D3C0235F
     Copy OK

Track  4
     Filename F:\Media Library\Audio\FLAC\Becoming Insane\04 - Infected Mushroom - Merlin (Infected Remix).wav

     Peak level 97.7 %
     Track quality 100.0 %
     Test CRC 257CFA8F
     Copy CRC 257CFA8F
     Copy OK

No errors occured

End of status report

Код:

REM GENRE Trance
REM DATE 2007
REM DISCID 3E083E05
REM COMMENT "ExactAudioCopy v0.95b3"
PERFORMER "Infected Mushroom"
TITLE "Becoming Insane"
FILE "01 - Infected Mushroom - Becoming Insane (Radio Mix).wav" WAVE
  TRACK 01 AUDIO
    TITLE "Becoming Insane (Radio Mix)"
    PERFORMER "Infected Mushroom"
    INDEX 01 00:00:00
  TRACK 02 AUDIO
    TITLE "Becoming Insane (Album Mix)"
    PERFORMER "Infected Mushroom"
    INDEX 00 03:10:29
FILE "02 - Infected Mushroom - Becoming Insane (Album Mix).wav" WAVE
    INDEX 01 00:00:00
  TRACK 03 AUDIO
    TITLE "Deeply Disturbed (Infected Remix)"
    PERFORMER "Infected Mushroom"
    INDEX 00 07:26:47
FILE "03 - Infected Mushroom - Deeply Disturbed (Infected Remix).wav" WAVE
    INDEX 01 00:00:00
  TRACK 04 AUDIO
    TITLE "Merlin (Infected Remix)"
    PERFORMER "Infected Mushroom"
    INDEX 00 09:02:72
FILE "04 - Infected Mushroom - Merlin (Infected Remix).wav" WAVE
    INDEX 01 00:00:00
  TRACK 05 MODEx/2xxx
    TITLE "Becoming Insane"
    PERFORMER "Infected Mushroom"
    INDEX 00 08:23:07
01. Infected Mushroom - Symphonatic (7:39)
02. Yahel - Reality (8:29)
CUE файла нет
01. Infected Mushroom & Yahel - Electro Panic (8:18)
02. Infected Mushroom & Yahel - Electro Panic (Eat Static Remix) (8:31)

Я не уверен в источнике этого рипа. Там где я качал данный альбом, ничего про источник не сказано. Но выходил альбом только на виниле, так что скорее всего и рип с него, хоть и не 24\96.
Started at: четверг, 21. 01. 2010. - 22:40.53
4 files found

1 -===- Infected Mushroom\Unreleased\2002 - Electro Panic (Infected Mushroom & Yahel)\Infected Mushroom & Yahel - Electro Panic (Eat Static Remix).flac
Extracted successfully
Conclusion: this track is CDDA with probability 99%
Tempfile successfully deleted.

2 -===- Infected Mushroom\Unreleased\2002 - Electro Panic (Infected Mushroom & Yahel)\Infected Mushroom & Yahel - Electro Panic.flac
Extracted successfully
Conclusion: this track is CDDA with probability 100%
Tempfile successfully deleted.

Finished at: четверг, 21. 01. 2010. - 22:44.24 (operation time: 0:03.31)
CUE файла нет
01. Smashing the Opponent (album mix) (4:10)
02. Smashing the Opponent (Timo Maas Mutant dub mix) (8:35)
03. Smashing the Opponent (Adam White Perfecto remix) (9:43)
04. Smashing the Opponent (Davis XI remix) (6:54)
05. Smashing the Opponent (Robert Vadney's Vicious remix) (6:48)
06. Smashing the Opponent (J.Viewz remix) (4:45)

Код:

Started at: четверг, 21. 01. 2010. - 23:05.59
6 files found

1 -===- Infected Mushroom\Unreleased\2009 - Smashing the Opponent Remixes (Infected Mushroom)\01-infected_mushroom-smashing_the_opponent_(album_mix).flac
  Extracted successfully
  Conclusion: this track is CDDA with probability 100%
  Tempfile successfully deleted.

2 -===- Infected Mushroom\Unreleased\2009 - Smashing the Opponent Remixes (Infected Mushroom)\02-infected_mushroom-smashing_the_opponent_(timo_maas_mutant_dub_mix).flac
  Extracted successfully
  Conclusion: this track is CDDA with probability 100%
  Tempfile successfully deleted.

3 -===- Infected Mushroom\Unreleased\2009 - Smashing the Opponent Remixes (Infected Mushroom)\03-infected_mushroom-smashing_the_opponent_(adam_white_perfecto_remix).flac
  Extracted successfully
  Conclusion: this track is CDDA with probability 100%
  Tempfile successfully deleted.

4 -===- Infected Mushroom\Unreleased\2009 - Smashing the Opponent Remixes (Infected Mushroom)\04-infected_mushroom-smashing_the_opponent_(davis_xi_remix).flac
  Extracted successfully
  Conclusion: this track is CDDA with probability 100%
  Tempfile successfully deleted.

5 -===- Infected Mushroom\Unreleased\2009 - Smashing the Opponent Remixes (Infected Mushroom)\05-infected_mushroom-smashing_the_opponent_(robert_vadneys_vicious_remix).flac
  Extracted successfully
  Conclusion: this track is CDDA with probability 99%
  Tempfile successfully deleted.

6 -===- Infected Mushroom\Unreleased\2009 - Smashing the Opponent Remixes (Infected Mushroom)\06-infected_mushroom-smashing_the_opponent_(j_viewz_remix).flac
  Extracted successfully
  Conclusion: this track is CDDA with probability 100%
  Tempfile successfully deleted.

Finished at: четверг, 21. 01. 2010. - 23:10.07 (operation time: 0:04.07)
CUE файла нет
info [Профиль]  [ЛС] 

FantasticMrFox

Пол: Пол:Муж

Стаж: 7 лет 8 месяцев

Сообщений: 631

Россия
Рейтинг

post 23-Янв-2010 15:09 (спустя 1 день 1 час) [-]0[+]

[Цитировать] 

2001 - B.P. Empire (сингл) - возможно неточный рип. [Secure with C2]
2002 - Birthday - возможно неточный рип. [Отсутствует .log и .cue]
2003 - Songs From The Other Side - возможно неточный рип. [Отсутствует .log и .cue]
2004 - Cities Of The Future - возможно неточный рип. [Отсутствует .log и .cue]
2005 - Streched - точный рип. [Отсутствует .cue]
2000 - Tsunami Sampler 2 - винил рип.
2002 - Electro Panic - винил рип.
2009 - Smashing the Opponent Remixes - возможно неточный рип. [Отсутствует .log и .cue]
Остальные диски - точные рипы.
info [Профиль]  [ЛС] 

4lovek184

Предупреждений: 1

Рейтинг

post 17-Фев-2010 11:17 (спустя 24 дня) [-]0[+]

[Цитировать] 

 !  FantasticMrFox:
Используйте кнопку "позвать скачавших", пожалуйста.
 

4lovek184

Предупреждений: 1

Рейтинг

post 20-Фев-2010 15:01 (спустя 3 дня) [-]1[+]

[Цитировать] 

поддайте газку пожалуйста
 

AlexNope

Пол: Пол:Муж

Стаж: 7 лет 2 месяца

Сообщений: 153

Россия
Рейтинг

post 15-Авг-2010 21:53 (спустя 5 месяцев 23 дня) [-]0[+]

[Цитировать] 

Отличная вещь.
info [Профиль]  [ЛС] 

kaktysymbo

Пол: Пол:Муж

Стаж: 6 лет 8 месяцев

Сообщений: 38

Россия
Рейтинг

post 15-Сен-2010 15:41 (спустя 30 дней) [-]0[+]

[Цитировать] 

встаньте кто-нибудь на раздачу плз!
info [Профиль]  [ЛС] 

boolyambrik

Пол: Пол:Муж

Стаж: 6 лет 3 месяца

Сообщений: 7

Россия
Рейтинг

post 18-Янв-2011 17:52 (спустя 4 месяца 3 дня) [-]0[+]

[Цитировать] 

могу дополнить коллекцию Unreleased лайвами, LP , и различными ещё дополнениями, если кого интересует - обращайтесь в личку, сделаю раздачу
info [Профиль]  [ЛС] 

Star-Gazer

Пол: Пол:Муж

Стаж: 5 лет 5 месяцев

Сообщений: 124

Россия
Рейтинг

post 09-Фев-2012 21:41 (спустя 1 год) [-]0[+]

[Цитировать] 

Спасибо, отличная раздача. Главное что все потреково разбито. Улыбаюсь

Жаль только что не обновляется - дискография все таки. Уже несколько новых синглов вышли. Хотя эти новые треки наверное только в mp3.
info [Профиль]  [ЛС] 

Kkos

Пол: Пол:Муж

Стаж: 6 лет 7 месяцев

Сообщений: 34

Россия
Рейтинг

post 09-Июл-2012 06:45 (спустя 4 месяца 28 дней) [-]0[+]

[Цитировать] 

Спасибо!!!
info [Профиль]  [ЛС] 

Arthmost

Пол: Пол:Муж

Стаж: 6 лет 5 месяцев

Сообщений: 239

Барбадос
Рейтинг

post 25-Июл-2012 13:30 (спустя 16 дней) [-]0[+]

[Цитировать] 

Спасибо, потрясающая раздача, потрясающий коллектив...

_________________
"A man can change anything: his face, his family, his girlfriend, his religion, his God. But there's something a man can't change. A man can't change his passion." © Sandoval (El secreto de sus ojos)
info [Профиль]  [ЛС] 

BaGGy

Стаж: 4 года 11 месяцев

Сообщений: 2

Рейтинг

post 16-Апр-2016 09:46 (спустя 3 года 8 месяцев) [-]0[+]

[Цитировать] 

98 проц скачалось и завис. Дайте раздачу
info [Профиль]  [ЛС] 
Показать сообщения:    
Ответить на тему

Текущее время: 06-Дек 18:15

Часовой пояс: GMT + 4



Вы не можете начинать темы
Вы не можете отвечать на сообщения
Вы не можете редактировать свои сообщения
Вы не можете удалять свои сообщения
Вы не можете голосовать в опросах
Вы не можете прикреплять файлы к сообщениям
Вы не можете скачивать файлы