Ошибка

VA - Concert for Diana [Blu-Ray 1080i] [2007 г., Rock, Pop, Blu-ray]

Ответить на тему
 
Автор Сообщение

sisoft_ts

Стаж: 2 месяца 9 дней

Сообщений: 4

Россия
Рейтинг

post 10-Июл-2020 00:18 0[+]

[Цитировать] 

VA - Concert for Diana (2007) [Blu-Ray 1080i]

Год выпуска: 2007
Страна: UK
Жанр: Rock, Pop
Продолжительность: 03:31:59 + 01:34:07

Треклист:
Disk 1
01. Elton John - Your Song
02. Prince William & Prince Harry - Introduction
03. Duran Duran - Sunrise
04. Duran Duran - Wild Boys
05. Duran Duran - Rio
06. James Morrison - You Give Me Something
07. James Morrison - Wonderful World
08. Professor Sir Magdi & Lisa Yacoub [Diana & Me]
09. Lily Allen - LDN
10. Lily Allen - Smile
11. Doug Smith [Diana & Me] - Luton Indoor Bowling Club
12. Fergie - Glamorous
13. Fergie - Big Girls Don't Cry (Personal)
14. Clark Denmark [Diana & Me] British Deaf Association
15. The Feeling - Fill My Little World
16. The Feeling - Love It When You Call
17. Gemma Quinn [Diana & Me] - Spinal Research
18. Pharrell Williams - Drop It Like It's Hot
19. Pharrell Williams - She Wants To Move
20. Mike Whitlam & Sandra Tigica [Diana & Me] - British and Angolan Red Cross
21. Nelly Furtado - Say It Right
22. Nelly Furtado - I'm Like A Bird
23. Nelly Furtado - Maneater
24. Various Artists [Diana & Me] - Diana & Ballet
25. English National Ballet - Swan Lake
26. Status Quo - Rocking All Over The World
27. Colin Dawson [Diana & Me] - Thorpe Park
28. Joss Stone - You Had Me
29. Joss Stone - Under Pressure
30. Roger Hodgson - Dreamer
31. Roger Hodgson - The Logical Song
32. Roger Hodgson - Breakfast In America
33. Roger Hodgson - Give A Little Bit
34. Audrey Watson [Diana & Me] - Turning Point
35. Orson - Happiness
36. Orson - No Tomorrow
37. Ruth Sims & Jonathan Grimshaw [Diana & Me] - National Aids Trust and Mildmay Mission Hospital
38. Tom Jones - Kiss
39. Tom Jones - I Bet You Look Good On The Dancefloor
40. Joss Stone & Tom Jones - Ain't That A Lot Of Love
41. Will Young - Switch It On
42. Natasha Bedingfield - Unwritten

Bonus Features:
43. Brigadier Andrew Freemantle [Diana & Me] - The Royal Hampshire Regiment
44. Malcolm Green [Diana & Me] - British Lung Foundation

Duration: 03:31:59
Disk 2:

01. Chris Anderson & Anne Grindrod [Diana & Me] - Seeability
02. Bryan Ferry - Slave To Love
03. Bryan Ferry - Make You Feel My Love
04. Bryan Ferry - Let's Stick Together
05. Michael Ball, Andrew Lloyd Webber, Sarah Brightman, Elaine Paige [Diana & Me] - Diana and Musicals
06. Anastacia - Jesus Christ Superstar
07. Andrea Ross & Connie Fisher - Memory
08. Andrea Bocelli - The Music Of The Night
09. Sarah Brightman & Josh Groban - All I Ask Of You
10. Donny Osmond, Jason Donovan & Lee Mead - Any Dream Will Do
11. Rod Stewart - Maggie May
12. Rod Stewart - Baby Jane
13. Rod Stewart - Sailing
14. Various Artists [Diana & Me] - Diana and Photographers
15. Kanye West - Gold Digger
16. Kanye West - Touch The Sky
17. Kanye West - Stronger
18. Kanye West - Diamonds From Sierra Leone
19. Kanye West - Jesus Walks
20. Various Artists [Diana & Me] - Spinal Research
21. Sean "P. Diddy" Combs - I'll Be Missing You
22. Various Artists [Diana & Me] - Great Ormond Street Hospital
23. Take That - Shine
24. Take That - Patience
25. Take That - Back For Good
26. Various Artists [Diana & Me] - London Symphony Chorus
27. Ricky Gervais - Ricky Gervais
28. Elton John - Saturday Night's Alright For Fighting
29. Elton John - Tiny Dancer
30. Elton John - Are You Ready For Love
31. Prince William, Prince Harry - Introduction
32. Various Artists - Diana Film

Bonus Features:
33. Various Artists [Diana & Me] - National Meningitis Trust
34. Various Artists [Diana & Me] - The Richard Attenborough Centre, University of Lancaster
35. Various Artists - Documentary
36. Various Artists - Credits
Duration: 01:34:07

Описание:
На лондонском стадионе "Уэмбли" 1 июля 2007 году, в год 10-й годовщины со дня смерти принцессы Дианы, состоялся многочасовой концерт памяти. Более 60 тысяч человек пришли на концерт, организованный сыновьями Дианы, принцами Уильямом и Гарри. Этот музыкальный праздник они посвятили 46-му дню рождения своей матери, заявив, что она наверняка посчитала бы такой концерт лучшим подарком. Первым перед зрителями появился Элтон Джон - он сыграл "Your Song" на фоне огромного портрета Дианы работы Марио Тестино. Группа "Duran Duran", блиставшая в 1980-е, сыграла три песни, в числе которых была "Wild Boys" ("Необузданные парни"), которую музыканты посвятили ее сыновьям-принцам Уильяму и Гарри. В числе других исполнителей, которые выступили в воскресенье на "Уэмбли", - Джосс Стоун, Том Джонс, группа Status Quo, рэпер P Diddy и Английский национальный балет. "Этот вечер был посвящен всему, что любила в жизни наша мать. Музыке, танцу, ее благотворительности, ее близким и друзьям", - сказал принц Уильям в словах приветствия в начале концерта. Шестичасовой концерт транслировался по телевидению в 140 стран; все деньги, вырученные на продаже билетов, будут направлены благотворительным организациям, которым отдавала предпочтение принцесса Диана.
Элтон Джон, Duran Duran, Джеймс Моррисон (II), Лили Аллен, The Feeling, Нелли Фуртадо, Status Quo, Джосс Стоун, Роджер Ходжсон, Orson, Том Джонс, Уилл Янг, Наташа Бедингфилд, Брайан Ферри, Андреа Бочелли, Сара Брайтман, Джош Гробан, Джейсон Донован, Род Стюарт, Канье Уэст, Take That, Ферги, Sean P. Diddy Combs, Фаррелл Уильямс, Джо Перри, Anastacia, Донни Осмонд

Происхождение видео: Blu-ray
Формат: BDMV
Видео кодек: Vc-1
Аудио кодек: DTS-HD MA 5.1, LPCM
Видео: 1920 х 1080, 29,970 fps, 20998 - 15550 Kbps
Аудио #1: English: DTS-HD MA , 6 ch, 2513 kbps, 48.0 KHz
Аудио #2: English: LPCM, 2 ch, 1536 kbps, 48.0 KHz
General
ID : 0 (0x0)
Complete name : D:\торренты\скачанное\CONCERT_FOR_DIANA\DIANA_DISC1\BDMV\STREAM\00000.m2ts
Format : BDAV
Format/Info : Blu-ray Video
File size : 19.7 GiB
Duration : 1h 44mn
Overall bit rate mode : Variable
Overall bit rate : 27.0 Mbps
Maximum Overall bit rate : 48.0 Mbps

Video
ID : 4113 (0x1011)
Menu ID : 1 (0x1)
Format : VC-1
Format profile : Advanced@L3
Codec ID : 234
Duration : 1h 44mn
Width : 1 920 pixels
Height : 1 080 pixels
Display aspect ratio : 16:9
Frame rate : 29.970 fps
Color space : YUV
Chroma subsampling : 4:2:0
Bit depth : 8 bits
Scan type : Interlaced
Scan order : Top Field First
Compression mode : Lossy

Audio #1
ID : 4352 (0x1100)
Menu ID : 1 (0x1)
Format : PCM
Format settings, Endianness : Big
Format settings, Sign : Signed
Muxing mode : Blu-ray
Codec ID : 128
Duration : 1h 44mn
Bit rate mode : Constant
Bit rate : 1 536 Kbps
Channel count : 2 channels
Channel positions : Front: L R
Sampling rate : 48.0 KHz
Bit depth : 16 bits
Stream size : 1.12 GiB (6%)

Audio #2
ID : 4353 (0x1101)
Menu ID : 1 (0x1)
Format : DTS
Format/Info : Digital Theater Systems
Format profile : MA / Core
Mode : 16
Format settings, Endianness : Big
Muxing mode : Stream extension
Codec ID : 134
Duration : 1h 44mn
Bit rate mode : Variable
Bit rate : Unknown / 1 509 Kbps
Channel count : 6 channels
Channel positions : Front: L C R, Side: L R, LFE
Sampling rate : 48.0 KHz
Bit depth : 16 bits
Compression mode : Lossless / Lossy

Text #1
ID : 4608 (0x1200)
Menu ID : 1 (0x1)
Format : PGS
Codec ID : 144
Delay relative to video : 6s 506ms

Text #2
ID : 4609 (0x1201)
Menu ID : 1 (0x1)
Format : PGS
Codec ID : 144
Duration : 1h 44mn
Delay relative to video : 3s 637ms

Text #3
ID : 4610 (0x1202)
Menu ID : 1 (0x1)
Format : PGS
Codec ID : 144
Duration : 1h 44mn
Delay relative to video : 3s 637ms

Text #4
ID : 4611 (0x1203)
Menu ID : 1 (0x1)
Format : PGS
Codec ID : 144
Duration : 1h 44mn
Delay relative to video : 3s 637ms

Text #5
ID : 4612 (0x1204)
Menu ID : 1 (0x1)
Format : PGS
Codec ID : 144
Duration : 1h 44mn
Delay relative to video : 3s 637ms
General
ID : 0 (0x0)
Complete name : D:\торренты\скачанное\CONCERT_FOR_DIANA\DIANA_DISC2\BDMV\STREAM\00014.m2ts
Format : BDAV
Format/Info : Blu-ray Video
File size : 14.0 GiB
Duration : 1h 34mn
Overall bit rate mode : Variable
Overall bit rate : 21.2 Mbps
Maximum Overall bit rate : 48.0 Mbps

Video
ID : 4113 (0x1011)
Menu ID : 1 (0x1)
Format : VC-1
Format profile : Advanced@L3
Codec ID : 234
Duration : 1h 34mn
Width : 1 920 pixels
Height : 1 080 pixels
Display aspect ratio : 16:9
Frame rate : 29.970 fps
Color space : YUV
Chroma subsampling : 4:2:0
Bit depth : 8 bits
Scan type : Interlaced
Scan order : Top Field First
Compression mode : Lossy

Audio #1
ID : 4352 (0x1100)
Menu ID : 1 (0x1)
Format : PCM
Format settings, Endianness : Big
Format settings, Sign : Signed
Muxing mode : Blu-ray
Codec ID : 128
Duration : 1h 34mn
Bit rate mode : Constant
Bit rate : 1 536 Kbps
Channel count : 2 channels
Channel positions : Front: L R
Sampling rate : 48.0 KHz
Bit depth : 16 bits
Stream size : 1.01 GiB (7%)

Audio #2
ID : 4353 (0x1101)
Menu ID : 1 (0x1)
Format : DTS
Format/Info : Digital Theater Systems
Format profile : MA / Core
Mode : 16
Format settings, Endianness : Big
Muxing mode : Stream extension
Codec ID : 134
Duration : 1h 34mn
Bit rate mode : Variable
Bit rate : Unknown / 1 509 Kbps
Channel count : 6 channels
Channel positions : Front: L C R, Side: L R, LFE
Sampling rate : 48.0 KHz
Bit depth : 16 bits
Compression mode : Lossless / Lossy

Text #1
ID : 4608 (0x1200)
Menu ID : 1 (0x1)
Format : PGS
Codec ID : 144
Duration : 1h 34mn
Delay relative to video : 5s 405ms

Text #2
ID : 4609 (0x1201)
Menu ID : 1 (0x1)
Format : PGS
Codec ID : 144
Duration : 1h 34mn
Delay relative to video : 2s 336ms

Text #3
ID : 4610 (0x1202)
Menu ID : 1 (0x1)
Format : PGS
Codec ID : 144
Duration : 1h 34mn
Delay relative to video : 2s 336ms

Text #4
ID : 4611 (0x1203)
Menu ID : 1 (0x1)
Format : PGS
Codec ID : 144
Duration : 1h 34mn
Delay relative to video : 2s 336ms

Text #5
ID : 4612 (0x1204)
Menu ID : 1 (0x1)
Format : PGS
Codec ID : 144
Duration : 1h 34mn
Delay relative to video : 2s 336ms
info [Профиль]  [ЛС] 
Показать сообщения:    
Ответить на тему

Текущее время: 10-Авг 12:34

Часовой пояс: GMT + 4



Вы не можете начинать темы
Вы не можете отвечать на сообщения
Вы не можете редактировать свои сообщения
Вы не можете удалять свои сообщения
Вы не можете голосовать в опросах
Вы не можете прикреплять файлы к сообщениям
Вы не можете скачивать файлы