Ошибка

До окончания фрилича осталось:


Башня Бога | Tower of God (TV)[1-7 из 13][2020][приключения, фэнтези][WEBRip][1080p][Профессиональный (JAP+SUB)]

Ответить на тему
 
Автор Сообщение

Witcher

Пол: Пол:Муж

Стаж: 11 лет

Сообщений: 6498

Рейтинг

post 11-Апр-2020 13:37 5[+]

[Цитировать] 

pic="https://img15.lostpic.net/2020/04/05/a6d0625d17a8d0ace72c5dc94b02243a.png"
Башня Бога
Tower of God | Kami no Tou | 神之塔

Раздача обновлена 16.05.2020
Обновлена озвучка в 6 эпизоде. Версия с правками от Kansai
07. Lunch and Tag | Обед и салки

  Год: 2020
  Выпуск: c 02.04.2020
  Страна:
  Жанр: приключения, фэнтези
  Тип: ТВ (13 эп.), 25 мин.
  Озвучка:
  • Любительская (многоголосая) [Akari GROUP]
  • Любительская (многоголосая) [Onibaku Group] 1-6

  • Профессиональная (многоголосая) [Kansai Studio]
  Субтитры:
  • Английские - Crunchyroll (.ass)
  • Русские - Crunchyroll (.ass)
  • Русские - Crunchyroll - вспомогательные (.ass)
  Навигация по главам:
  • Присутствует

  Режиссёр: Сано Такаси
  Основа: Манхва
  Автор оригинала: SIU
  Студия: Telecom Animation Film

  Описание:
  В мире появилась таинственная сила, известная как Шинсу. А ещё есть Башня — дом для людей, которые пользуются преимуществами Шинсу и называют себя «избранными». Говорят, достигший вершины Башни исполнит все свои желания. Чтобы добраться до верха, «Избранные», отобранные хранителем Башни, обязаны пройти испытания… И вместе с ними на Башню взбирается Баам — главный герой и «Незаконный», который сам открыл себе двери. Он делает это с одной-единственной целью — найти Рахиль, что была для него всем.
© crunchyroll

[выпуск от 02.04.2020] 01. Ball | Угорь-бабочка и шар
[выпуск от 09.04.2018] 02. 3/400 (Three Four-Hundredths) | Корабль Эванкхелл
[выпуск от 16.04.2018] 03. The Correct Door | Верная дверь
[выпуск от 23.04.2020] 04. The Green April | Корона
[выпуск от 30.04.2020] 05. The Crown`s Fate | Кому достанется корона?
[выпуск от 07.05.2020] 06. Position Selection | Специализации
[выпуск от 14.05.2020] 07. Lunch and Tag | Обед и салки

  Качество: WEBRip 1080p [Erai-Raws] | Хардсаб: Нет | Формат: MKV
  Видео: x264 8 bit | 1920x1080 (16:9) | 23,976 fps | ~ 7900 Kbps
  Аудио - в составе контейнера:
  JP - AAC | 2 ch | 44.1 KHz | ~ 128 Kbps
  RU - AAC | 2 ch | 48 KHz | ~ 192 kbps - Kansai Studio
  Аудио - внешним файлом:
  RU - AAC | 2 ch | 48 KHz | ~ 252 kbps - Akari GROUP - AlexeyONLY, Baxrayder, Megera, Royz, SteycheR
  RU - AAC | 2 ch | 48 KHz | ~ 224 kbps - Onibaku Group - Zendos & Sayumi & Sitri & Акварелька

Код:

Формат                                   : Matroska
Версия формата                           : Version 4
Размер файла                             : 1,47 Гбайт
Продолжительность                        : 25 м. 24 с.
Общий поток                              : 8280 Кбит/сек
Название фильма                          : 01. Ball | Угорь-бабочка и шар
Дата кодирования                         : UTC 2020-04-11 08:34:32
Программа кодирования                    : mkvmerge v43.0.0 ('The Quartermaster') 64-bit
Библиотека кодирования                   : libebml v1.3.10 + libmatroska v1.5.2
Attachments                              : tahoma.ttf / tahomabd.ttf / trebuc.ttf / trebucbd.ttf / trebucbi.ttf / trebucit.ttf

Видео
Идентификатор                            : 1
Формат                                   : AVC
Формат/Информация                        : Advanced Video Codec
Профиль формата                          : High@L4
Настройки формата                        : CABAC / 4 Ref Frames
Параметр CABAC формата                   : Да
Параметр RefFrames формата               : 4 кадра
Идентификатор кодека                     : V_MPEG4/ISO/AVC
Продолжительность                        : 25 м. 24 с.
Битрейт                                  : 8000 Кбит/сек
Ширина                                   : 1920 пикселей
Высота                                   : 1080 пикселей
Соотношение сторон                       : 16:9
Режим частоты кадров                     : Постоянный
Частота кадров                           : 23,976 (24000/1001) кадра/сек
Цветовое пространство                    : YUV
Субдискретизация насыщенности            : 4:2:0
Битовая глубина                          : 8 бит
Тип развёртки                            : Прогрессивная
Бит/(Пиксели*Кадры)                      : 0.161
Размер потока                            : 1,41 Гбайт (96%)
Библиотека кодирования                   : x264 core 142
Настройки программы                      : cabac=1 / ref=4 / deblock=1:1:1 / analyse=0x3:0x113 / me=umh / subme=8 / psy=1 / psy_rd=0.40:0.00 / mixed_ref=1 / me_range=16 / chroma_me=1 / trellis=1 / 8x8dct=1 / cqm=0 / deadzone=21,11 / fast_pskip=1 / chroma_qp_offset=-2 / threads=12 / lookahead_threads=2 / sliced_threads=0 / nr=0 / decimate=1 / interlaced=0 / bluray_compat=0 / constrained_intra=0 / bframes=0 / weightp=2 / keyint=96 / keyint_min=48 / scenecut=40 / intra_refresh=0 / rc_lookahead=48 / rc=2pass / mbtree=1 / bitrate=8000 / ratetol=1.0 / qcomp=0.60 / qpmin=0 / qpmax=69 / qpstep=4 / cplxblur=20.0 / qblur=0.5 / vbv_maxrate=12000 / vbv_bufsize=18000 / nal_hrd=none / filler=0 / ip_ratio=1.40 / aq=1:0.60
Язык                                     : Japanese
Default                                  : Да
Forced                                   : Да

Аудио #1
Идентификатор                            : 2
Формат                                   : AAC LC
Формат/Информация                        : Advanced Audio Codec Low Complexity
Идентификатор кодека                     : A_AAC-2
Продолжительность                        : 25 м. 24 с.
Битрейт                                  : 128 Кбит/сек
Каналы                                   : 2 канала
Channel layout                           : L R
Частота                                  : 44,1 КГц
Частота кадров                           : 43,066 кадра/сек (1024 SPF)
Метод сжатия                             : С потерями
Размер потока                            : 23,3 Мбайт (2%)
Язык                                     : Japanese
Default                                  : Нет
Forced                                   : Нет

Аудио #2
Идентификатор                            : 3
Формат                                   : AAC LC
Формат/Информация                        : Advanced Audio Codec Low Complexity
Идентификатор кодека                     : A_AAC-2
Продолжительность                        : 25 м. 24 с.
Битрейт                                  : 164 Кбит/сек
Каналы                                   : 2 канала
Channel layout                           : L R
Частота                                  : 48,0 КГц
Частота кадров                           : 46,875 кадров/сек (1024 SPF)
Метод сжатия                             : С потерями
Размер потока                            : 29,8 Мбайт (2%)
Заголовок                                : Kansai Studio
Язык                                     : Russian
Default                                  : Да
Forced                                   : Да

Текст #1
Идентификатор                            : 4
Формат                                   : ASS
Идентификатор кодека                     : S_TEXT/ASS
Идентификатор кодека/Информация          : Advanced Sub Station Alpha
Продолжительность                        : 23 м. 13 с.
Битрейт                                  : 102 бит/сек
ElementCount                             : 285
Метод сжатия                             : Без потерь
Размер потока                            : 17,4 Кбайт (0%)
Заголовок                                : Crunchyroll
Язык                                     : English
Default                                  : Нет
Forced                                   : Нет

Текст #2
Идентификатор                            : 5
Формат                                   : ASS
Идентификатор кодека                     : S_TEXT/ASS
Идентификатор кодека/Информация          : Advanced Sub Station Alpha
Продолжительность                        : 23 м. 13 с.
Битрейт                                  : 169 бит/сек
ElementCount                             : 292
Метод сжатия                             : Без потерь
Размер потока                            : 28,8 Кбайт (0%)
Заголовок                                : Crunchyroll
Язык                                     : Russian
Default                                  : Нет
Forced                                   : Нет

Текст #3
Идентификатор                            : 6
Формат                                   : ASS
Идентификатор кодека                     : S_TEXT/ASS
Идентификатор кодека/Информация          : Advanced Sub Station Alpha
Продолжительность                        : 17 м. 33 с.
Битрейт                                  : 6 бит/сек
ElementCount                             : 8
Метод сжатия                             : Без потерь
Размер потока                            : 897 байт (0%)
Заголовок                                : Crunchyroll - вспомогательные
Язык                                     : Russian
Default                                  : Да
Forced                                   : Да

Меню
00:00:00.000                             : en:Prologue
00:01:55.031                             : en:Opening
00:03:24.993                             : en:Part A
00:14:05.969                             : en:Part B
00:23:48.010                             : en:Ending


info [Профиль]  [ЛС] 

Witcher

Пол: Пол:Муж

Стаж: 11 лет

Сообщений: 6498

Рейтинг

post 11-Апр-2020 13:38 (спустя 1 минута) [-]0[+]

[Цитировать] 

anime_9
По озвучкам - возможно ещё что-то добавлю, но это не точно Улыбаюсь

_________________
Темы не проверяю, для этого есть модераторы. В отпуске
info [Профиль]  [ЛС] 

oggleb420

Пол: Пол:Муж

Стаж: 5 лет 7 месяцев

Сообщений: 5

СССР
Рейтинг

post 11-Апр-2020 18:35 (спустя 4 часа) [-]0[+]

[Цитировать] 

Witcher писал(а):

anime_9
По озвучкам - возможно ещё что-то добавлю, но это не точно Улыбаюсь
Лучше не надо, просмотрены все имеющиеся, это мрак просто. Люди элементарно даже не могут интонацию голоса сменить.
info [Профиль]  [ЛС] 

Witcher

Пол: Пол:Муж

Стаж: 11 лет

Сообщений: 6498

Рейтинг

post 20-Апр-2020 22:08 (спустя 9 дней) [-]0[+]

[Цитировать] 

Раздача обновлена 20.04.2020
03. The Correct Door | Верная дверь
Добавлена озвучка от Akari GROUP

_________________
Темы не проверяю, для этого есть модераторы. В отпуске
info [Профиль]  [ЛС] 

kok

Пол: Пол:Муж

Стаж: 10 лет

Сообщений: 738

Украина
Рейтинг

post 20-Апр-2020 23:13 (спустя 1 час 5 минут) [-]0[+]

[Цитировать] 

Как оцените данное творение? смотреть можно?
info [Профиль]  [ЛС] 

Witcher

Пол: Пол:Муж

Стаж: 11 лет

Сообщений: 6498

Рейтинг

post 21-Апр-2020 00:40 (спустя 1 час 26 минут) [-]0[+]

[Цитировать] 

kok писал(а):

Как оцените данное творение? смотреть можно?
Внимания определённо стоит, а что получится дальше - посмотрим.

_________________
Темы не проверяю, для этого есть модераторы. В отпуске
info [Профиль]  [ЛС] 

Witcher

Пол: Пол:Муж

Стаж: 11 лет

Сообщений: 6498

Рейтинг

post 25-Апр-2020 19:27 (спустя 4 дня) [-]0[+]

[Цитировать] 

Раздача обновлена 25.04.2020
04. The Green April | Корона

_________________
Темы не проверяю, для этого есть модераторы. В отпуске
info [Профиль]  [ЛС] 

Witcher

Пол: Пол:Муж

Стаж: 11 лет

Сообщений: 6498

Рейтинг

post 02-Май-2020 12:56 (спустя 6 дней) [-]0[+]

[Цитировать] 

Раздача обновлена 02.05.2020
05. The Crown`s Fate | Кому достанется корона?

_________________
Темы не проверяю, для этого есть модераторы. В отпуске
info [Профиль]  [ЛС] 

MXS

Пол: Пол:Муж

Стаж: 10 лет

Сообщений: 90

Япония
Рейтинг

post 02-Май-2020 14:45 (спустя 1 час 49 минут) [-]0[+]

[Цитировать] 

Ух ты, отличный повод перечитать еще раз!

_________________
info [Профиль]  [ЛС] 

zhiganlemon

Пол: Пол:Муж

Стаж: 8 лет 10 месяцев

Сообщений: 3

Россия
Рейтинг

post 02-Май-2020 21:47 (спустя 7 часов) [-]0[+]

[Цитировать] 

Через Plex не работает перемотка
info [Профиль]  [ЛС] 

Witcher

Пол: Пол:Муж

Стаж: 11 лет

Сообщений: 6498

Рейтинг

post 10-Май-2020 19:44 (спустя 7 дней) [-]0[+]

[Цитировать] 

Раздача обновлена 10.05.2020
06. Position Selection | Специализации

_________________
Темы не проверяю, для этого есть модераторы. В отпуске
info [Профиль]  [ЛС] 

DarkDusk

Пол: Пол:Муж

Стаж: 8 лет 6 месяцев

Сообщений: 67

Гайана
Рейтинг

post 13-Май-2020 16:21 (спустя 2 дня 20 часов) [-]0[+]

[Цитировать] 

Шикарное и интригует, жду 7-ую серию.

_________________
Intel® Core™ i7 CPU 950 @ 3.07GHz
10240 Мб (DDR3-1333 DDR3 SDRAM)
NVIDIA GeForce GTX 1060 6GB
GigaByte GA-X58A-UD3R rev2.0 (RTL) LGA1366 <X58> 4xPCI-E+GbLAN+1394 SATA RAID ATX 6DDR-III
SSD: 240 GB (OCZ Vector 150)
info [Профиль]  [ЛС] 

Witcher

Пол: Пол:Муж

Стаж: 11 лет

Сообщений: 6498

Рейтинг

post 16-Май-2020 12:44 (спустя 2 дня 20 часов) [-]1[+]

[Цитировать] 

Раздача обновлена 16.05.2020
Обновлена озвучка в 6 эпизоде. Версия с правками от Kansai
07. Lunch and Tag | Обед и салки

_________________
Темы не проверяю, для этого есть модераторы. В отпуске
info [Профиль]  [ЛС] 

Pronya

Пол: Пол:Муж

Стаж: 10 лет

Сообщений: 186

Россия
Рейтинг

post 16-Май-2020 19:28 (спустя 6 часов) [-]0[+]

[Цитировать] 

Шикарный мульт! Сподвиг комиксом заинтересоваться. Всем советую.
info [Профиль]  [ЛС] 

LittleSam

Пол: Пол:Муж

Стаж: 6 лет 4 месяца

Сообщений: 10

Рейтинг

post 17-Май-2020 14:36 (спустя 19 часов) [-]0[+]

[Цитировать] 

Читал комикс, но не до конца. Идея и подача интересная. Будем смотреть)
info [Профиль]  [ЛС] 
Показать сообщения:    
Ответить на тему

Текущее время: 31-Май 21:11

Часовой пояс: GMT + 4



Вы не можете начинать темы
Вы не можете отвечать на сообщения
Вы не можете редактировать свои сообщения
Вы не можете удалять свои сообщения
Вы не можете голосовать в опросах
Вы не можете прикреплять файлы к сообщениям
Вы не можете скачивать файлы