Ошибка

Артур и месть Урдалака / Arthur et la vengeance de Maltazard (Люк Бессон) [2009 г., анимация, сказка, DVDRip]

Ответить на тему
 
Автор Сообщение

RoSSya

Стаж: 6 лет 11 месяцев

Сообщений: 59

Рейтинг

post 13-Янв-2010 07:34 0[+]

[Цитировать] 

Артур и месть Урдалака / Arthur et la vengeance de Maltazard

Год выпуска: 2009
Страна: Франция, Europa Corp.
Жанр: анимация, сказка
Продолжительность: 01:30:00
Перевод: Профессиональный (полное дублирование)
Режиссер:
  • Люк Бессон
В ролях:
  • Фредди Хаймор, Джимми Фэллон, Миа Фэрроу, Снуп Догг, Аса Баттерфилд, Логан Миллер, Роберт Стэнтон, Лу Рид, Пенни Бальфур, Рон Кроуфорд

Описание:
Артур в восторге, потому что этой ночью заканчивается десятый лунный цикл, и он, наконец, сможет вернуться в страну минипутов, чтобы воссоединиться с Селенией. В деревне минипуты приготовили в его честь роскошный банкет, а маленькая принцесса облачилась в платье из лепестков роз. Но отец Артура именно в этот долгожданный день объявляет, что их каникулы у бабушки заканчиваются. Они уже собираются уезжать, как вдруг паук кладёт в ладонь Артуру рисунок, на котором написано слово S.O.S. Сомнений нет — Селении угрожает опасность! Артур, не задумываясь, летит к ней на выручку. Даже если столкнуться с войсками Креба, нового тирана Семи Королевств, спасти Бархлюша, сражаться с крысами, лягушками, и волосатыми пауками… Лишь для того, чтобы, попав в деревушку минипутов, узнать, что они вовсе не просили его о помощи! Но кто же мог приготовить такую изобретательную ловушку нашему юному герою?

Релиз группы
IMDB 4.6/10 (183 votes)
Качество: DVDRip
Формат: AVI
Видео кодек: XviD
Аудио кодек: AC3
Видео: 1778 kb/s, 720x304
Аудио: 384 kb/s (6 ch)


General
Complete name :Artur.i.mest.Urdalaka.2009.D.DVDRip.R.avi
Format : AVI
Format/Info : Audio Video Interleave
File size : 1.37 GiB
Duration : 1h 30mn
Overall bit rate : 2 172 Kbps
Movie name : Arthur et la vengeance de Maltazard (2009)
Director : ELEKTRI4KA
Writing application : VirtualDubMod 1.5.10.2 (build 2540/release)

Video
ID : 0
Format : MPEG-4 Visual
Format profile : AdvancedSimple@L5
Format settings, BVOP : Yes
Format settings, QPel : No
Format settings, GMC : No warppoints
Format settings, Matrix : Custom
Codec ID : XVID
Codec ID/Hint : XviD
Duration : 1h 30mn
Bit rate : 1 779 Kbps
Width : 720 pixels
Height : 304 pixels
Display aspect ratio : 2.35:1
Frame rate : 25.000 fps
Resolution : 24 bits
Colorimetry : 4:2:0
Scan type : Progressive
Bits/(Pixel*Frame) : 0.325
Stream size : 1.12 GiB (82%)
Writing library : XviD 1.2.1 (UTC 2008-12-04)

Audio
ID : 1
Format : AC-3
Format/Info : Audio Coding 3
Codec ID : 2000
Duration : 1h 29mn
Bit rate mode : Constant
Bit rate : 384 Kbps
Channel(s) : 6 channels
Channel positions : Front: L C R, Surround: L R, LFE
Sampling rate : 48.0 KHz
Stream size : 247 MiB (18%)
Alignment : Split accross interleaves
Interleave, duration : 40 ms (1.00 video frame)
Interleave, preload duration : 500 ms
info [Профиль]  [ЛС] 

sergios001

Пол: Пол:Муж

Стаж: 6 лет 11 месяцев

Сообщений: 3

Россия
Рейтинг

post 13-Янв-2010 09:26 (спустя 1 час 51 минута) [-]0[+]

[Цитировать] 

Спасибо давно ждал kolob_118

Rom@no писал(а):

........................
info [Профиль]  [ЛС] 

bug3z

Пол: Пол:Муж

Стаж: 7 лет 3 месяца

Сообщений: 23

Предупреждений: 1

Россия
Рейтинг

post 13-Янв-2010 09:35 (спустя 8 минут) [-]0[+]

[Цитировать] 

наиогромнейшее спасибо...
особенно за 6 каналов Подмигиваю
info [Профиль]  [ЛС] 

RoSSya

Стаж: 6 лет 11 месяцев

Сообщений: 59

Рейтинг

post 13-Янв-2010 10:02 (спустя 26 минут) [-]0[+]

[Цитировать] 

Вот подробно всё описано
General
Complete name :Artur.i.mest.Urdalaka.2009.D.DVDRip.R.avi
Format : AVI
Format/Info : Audio Video Interleave
File size : 1.37 GiB
Duration : 1h 30mn
Overall bit rate : 2 172 Kbps
Movie name : Arthur et la vengeance de Maltazard (2009)
Director : ELEKTRI4KA
Writing application : VirtualDubMod 1.5.10.2 (build 2540/release)

Video
ID : 0
Format : MPEG-4 Visual
Format profile : AdvancedSimple@L5
Format settings, BVOP : Yes
Format settings, QPel : No
Format settings, GMC : No warppoints
Format settings, Matrix : Custom
Codec ID : XVID
Codec ID/Hint : XviD
Duration : 1h 30mn
Bit rate : 1 779 Kbps
Width : 720 pixels
Height : 304 pixels
Display aspect ratio : 2.35:1
Frame rate : 25.000 fps
Resolution : 24 bits
Colorimetry : 4:2:0
Scan type : Progressive
Bits/(Pixel*Frame) : 0.325
Stream size : 1.12 GiB (82%)
Writing library : XviD 1.2.1 (UTC 2008-12-04)

Audio
ID : 1
Format : AC-3
Format/Info : Audio Coding 3
Codec ID : 2000
Duration : 1h 29mn
Bit rate mode : Constant
Bit rate : 384 Kbps
Channel(s) : 6 channels
Channel positions : Front: L C R, Surround: L R, LFE
Sampling rate : 48.0 KHz
Stream size : 247 MiB (18%)
Alignment : Split accross interleaves
Interleave, duration : 40 ms (1.00 video frame)
Interleave, preload duration : 500 ms
info [Профиль]  [ЛС] 

AsusDelux

Пол: Пол:Муж

Стаж: 7 лет 3 месяца

Сообщений: 2438

Россия
Рейтинг

post 13-Янв-2010 12:05 (спустя 2 часа 3 минуты) [-]0[+]

[Цитировать] 

отлично....приеду с работы скачаемс)))
info [Профиль]  [ЛС] 

qzqz72

Предупреждений: 1

Рейтинг

post 13-Янв-2010 14:14 (спустя 2 часа 9 минут) [-]0[+]

[Цитировать] 

какие то скрины не оч качественные = ( ну да ладно все равно скачаю = ) sergios001 извини я не знал что аватарка занята я везде этой аватарой пользуюсь не сочти повтором = )
 

SangaR

Пол: Пол:Муж

Стаж: 6 лет 11 месяцев

Сообщений: 29

Рейтинг

post 13-Янв-2010 15:05 (спустя 50 минут) [-]0[+]

[Цитировать] 

Мультфильм супер. Советую всем посмотреть.
Странно, что такой маленький бал, для детей очень даже!

_________________
"Сначала ты должен захватить власть над собой, потом над группой людей, над орденом, миром, целой расой, потом над несколькими: и потом над всей галактикой:" - Дарт Плэгиус
info [Профиль]  [ЛС] 

sarhil

Пол: Пол:Муж

Стаж: 7 лет 1 месяц

Сообщений: 833

Гонконг
Рейтинг

post 13-Янв-2010 15:30 (спустя 25 минут) [-]0[+]

[Цитировать] 

sergios001
qzqz72
Котэ!!!
anime_6
info [Профиль]  [ЛС] 

qzqz72

Предупреждений: 1

Рейтинг

post 13-Янв-2010 18:21 (спустя 2 часа 50 минут) [-]0[+]

[Цитировать] 

sarhil
anime_114 хДД
 

Fable1547

Пол: Пол:Муж

Стаж: 7 лет 3 месяца

Сообщений: 2417

Россия
Рейтинг

post 13-Янв-2010 20:08 (спустя 1 час 47 минут) [-]0[+]

[Цитировать] 

sarhil
kolob_132
НЭКО Улыбаюсь

_________________
Биг сэнькс Кнут Гаммусон за спасение от ужасной трагедии путём одарения винтом!!!
info [Профиль]  [ЛС] 

Gavrila83

Пол: Пол:Муж

Стаж: 7 лет 2 месяца

Сообщений: 45

Россия
Рейтинг

post 13-Янв-2010 20:30 (спустя 21 минута) [-]0[+]

[Цитировать] 

спасибо!!!!!!!!!!!!!!!!!!!!!!!!
info [Профиль]  [ЛС] 

Secret1

Пол: Пол:Муж

Стаж: 7 лет 3 месяца

Сообщений: 97

Предупреждений: 1

Россия
Рейтинг

post 13-Янв-2010 22:05 (спустя 1 час 34 минуты) [-]0[+]

[Цитировать] 

ну и фильм конечно, вообще ни о чем
info [Профиль]  [ЛС] 

krowe4ka2007

Предупреждений: 1

Рейтинг

post 15-Янв-2010 20:13 (спустя 1 день 22 часа) [-]0[+]

[Цитировать] 

спасибочки большое
 

Avvatar

Пол: Пол:Муж

Стаж: 7 лет 8 месяцев

Сообщений: 276

Украина
Рейтинг

post 17-Янв-2010 19:55 (спустя 1 день 23 часа) [-]0[+]

[Цитировать] 

RoSSya писал(а):

на котором написано слово S.O.S.
Там все-таки HELP

_________________
Скромность украшает мужчину,но настоящий мужчина не носит украшений...
info [Профиль]  [ЛС] 

Andras

Пол: Пол:Муж

Стаж: 6 лет 2 месяца

Сообщений: 460

Украина
Рейтинг

post 17-Дек-2010 03:38 (спустя 10 месяцев 30 дней) [-]0[+]

[Цитировать] 

Так себе первая часть больше понравилась а в этой просто недостаточно действий скучно!

_________________
info [Профиль]  [ЛС] 

saabb

Пол: Пол:Муж

Стаж: 4 года 11 месяцев

Сообщений: 99

Россия
Рейтинг

post 12-Июл-2012 11:16 (спустя 1 год 6 месяцев) [-]1[+]

[Цитировать] 

спасибо
info [Профиль]  [ЛС] 

rotem15

Стаж: 4 года 11 месяцев

Сообщений: 52

Антарктида
Рейтинг

post 12-Июл-2012 11:18 (спустя 1 минута) [-]1[+]

[Цитировать] 

спасибо
info [Профиль]  [ЛС] 
Показать сообщения:    
Ответить на тему

Текущее время: 08-Дек 18:25

Часовой пояс: GMT + 4



Вы не можете начинать темы
Вы не можете отвечать на сообщения
Вы не можете редактировать свои сообщения
Вы не можете удалять свои сообщения
Вы не можете голосовать в опросах
Вы не можете прикреплять файлы к сообщениям
Вы не можете скачивать файлы