Ошибка

Временной странник / Toki no Tabibito: Time Stranger [Movie][1 из 1][1986][приключения, фантастика, романтика][BDRip][720p][Многоголосый (RUS(int.)]

Ответить на тему
 
Автор Сообщение

ShinkaDan

Стаж: 4 года 6 месяцев

Сообщений: 74

Россия
Рейтинг

post 13-Апр-2019 11:26 1[+]

[Цитировать] 



Временной странник
Toki no Tabibito: Time Stranger


Страна: Япония
Премьера: 20.12.1986
Жанр: приключения, фантастика, романтика
Тип: Movie
Продолжительность: полнометражный фильм, 91 мин.
Режиссер: Масаки Мори
Студия:
Озвучка многоголосая: Azazel, Molodoy, Sever, Стефан
Русские субтитры: Отсутствуют, озвучено по переводу Advokat'а

Описание:
Агино Дзиро совершает побег из жестокого мира 25-го века, украв машину времени. Попав в 20-й век, он вынужден угнать автомобиль, чтобы применить его в качестве источника питания, и использует для этого автобус со школьниками и их учителем. Делая краткие остановки во время бомбардировки Токио, революции Мэйдзи и битвы Сэкигахара, сбегая от агентов, посланных вслед, они путешествуют, приближаясь к их конечному пункту назначения - 1582 году, где становятся гостями Оды Нобунага за четыре дня до его убийства. Им предстоит сделать трудный выбор: следует ли изменить ход истории?

Качество: BDRip
Тип релиза: Без хардсаба
Формат видео: MP4
Автор рипа: Аноним
Видео: x264 (High 10@L4.1), 10 bits, 1 280x690, ~3647 Kbps, 23.976 fps
1. Русский : AAC, 44100Hz, ~192 Kbps, 2ch
L:\...\[ShinkaDan & Anidub] Toki no Tabibito -Time Stranger\[ShinkaDan & Anidub] Toki no Tabibito - Time_Stranger (BDrip-10bit 1280x690 x264 FLAC) [MVO].mp4
Формат : MPEG-4
Профиль формата : Base Media
Идентификатор кодека : isom (isom)
Размер файла : 2,45 Гбайт
Продолжительность : 1 ч. 31 м.
Режим общего битрейта : Переменный
Общий поток : 3840 Кбит/сек
Дата кодирования : UTC 2019-04-05 14:57:56
Дата пометки : UTC 2019-04-05 14:57:56
Программа кодирования : Yamb 2.1.0.0 [http://yamb.unite-video.com]

Видео
Идентификатор : 1
Формат : AVC
Формат/Информация : Advanced Video Codec
Профиль формата : High 10@L4.1
Настройки формата : CABAC / 9 Ref Frames
Параметр CABAC формата : Да
Параметр RefFrames формата : 9 кадров
Идентификатор кодека : avc1
Идентификатор кодека/Информация : Advanced Video Coding
Продолжительность : 1 ч. 31 м.
Битрейт : 3647 Кбит/сек
Максимальный битрейт : 15,1 Мбит/сек
Ширина : 1280 пикселей
Высота : 690 пикселей
Соотношение сторон : 1,85:1
Режим частоты кадров : Постоянный
Частота кадров : 23,976 (24000/1001) кадра/сек
Цветовое пространство : YUV
Субдискретизация насыщенности : 4:2:0
Битовая глубина : 10 бит
Тип развёртки : Прогрессивная
Бит/(Пиксели*Кадры) : 0.172
Размер потока : 2,33 Гбайт (95%)
Библиотека кодирования : x264 core 133 r2334 a3ac64b
Настройки программы : cabac=1 / ref=9 / deblock=1:-1:-1 / analyse=0x3:0x133 / me=umh / subme=9 / psy=1 / psy_rd=0.90:0.00 / mixed_ref=1 / me_range=16 / chroma_me=1 / trellis=2 / 8x8dct=1 / cqm=0 / deadzone=21,11 / fast_pskip=1 / chroma_qp_offset=-2 / threads=3 / lookahead_threads=1 / sliced_threads=0 / nr=0 / decimate=0 / interlaced=0 / bluray_compat=0 / constrained_intra=0 / bframes=5 / b_pyramid=2 / b_adapt=2 / b_bias=0 / direct=3 / weightb=1 / open_gop=0 / weightp=2 / keyint=250 / keyint_min=23 / scenecut=40 / intra_refresh=0 / rc_lookahead=40 / rc=crf / mbtree=1 / crf=17.3 / qcomp=0.60 / qpmin=3 / qpmax=35 / qpstep=4 / ip_ratio=1.40 / aq=1:1.00
Дата кодирования : UTC 2019-04-05 14:02:47
Дата пометки : UTC 2019-04-05 15:00:45
Codec configuration box : avcC

Аудио
Идентификатор : 2
Формат : AAC LC
Формат/Информация : Advanced Audio Codec Low Complexity
Идентификатор кодека : mp4a-67-2
Продолжительность : 1 ч. 31 м.
Вид битрейта : Переменный
Битрейт : 192 Кбит/сек
Максимальный битрейт : 199 Кбит/сек
Каналы : 2 канала
Channel layout : L R
Частота : 44,1 КГц
Частота кадров : 43,066 кадра/сек (1024 SPF)
Метод сжатия : С потерями
Размер потока : 124 Мбайт (5%)
Дата кодирования : UTC 2019-04-05 15:00:42
Дата пометки : UTC 2019-04-05 15:00:45
info [Профиль]  [ЛС] 

kalbungaa_rus

Пол: Пол:Муж

Стаж: 4 года 11 месяцев

Сообщений: 327

Украина
Рейтинг

post 13-Апр-2019 20:22 (спустя 8 часов) [-]0[+]

[Цитировать] 

Вопрос - а не могли вы озвучить "босоногого гена"?

_________________
Я мнению вашему вращение предавал и осью был мой детородный орган!
info [Профиль]  [ЛС] 

ShinkaDan

Стаж: 4 года 6 месяцев

Сообщений: 74

Россия
Рейтинг

post 05-Май-2019 23:07 (спустя 22 дня) [-]0[+]

[Цитировать] 

Процесс движется помаленьку.

_________________
info [Профиль]  [ЛС] 
Показать сообщения:    
Ответить на тему

Текущее время: 24-Июн 22:32

Часовой пояс: GMT + 4



Вы не можете начинать темы
Вы не можете отвечать на сообщения
Вы не можете редактировать свои сообщения
Вы не можете удалять свои сообщения
Вы не можете голосовать в опросах
Вы не можете прикреплять файлы к сообщениям
Вы не можете скачивать файлы