Ошибка

(Melodic Death Metal/Modern/Alternative Metal) In Flames - I, The Mask, FLAC (tracks+cue), lossless

Ответить на тему
 
Автор Сообщение

symmetry

Пол: Пол:Муж

Стаж: 2 месяца 26 дней

Сообщений: 6

Норвегия
Рейтинг

post 08-Мар-2019 20:54 1[+]

[Цитировать] 

In Flames – I, The Mask
Страна: Sweden
Жанр: Melodic Death/Groove Metal
Год выпуска: 2019
Формат: FLAC
Продолжительность:00:55:02
Полиграфия: сканы

Трэклист:
01. Voices (4:48)
02. I, The Mask (3:41)
03. Call My Name (3:34)
04. I Am Above (3:50)
05. Follow Me (4:56)
06. (This Is Our) House (4:19)
07. We Will Remember (4:05)
08. In This Life (3:53)
09. Burn (3:44)
10. Deep Inside (4:21)
11. All The Pain (4:30)
12. Stay With Me (5:17)
13. Not Alone (bonus track) (4:05)
REM DATE 2019
REM DISCID A90CE40D
PERFORMER "In Flames"
TITLE "I, the Mask"
CATALOG 0727361433505
REM DISCNUMBER 1
REM TOTALDISCS 1
FILE "01. Voices.flac" WAVE
TRACK 01 AUDIO
TITLE "Voices"
PERFORMER "In Flames"
INDEX 01 00:00:00
FILE "02. I, the Mask.flac" WAVE
TRACK 02 AUDIO
TITLE "I, the Mask"
PERFORMER "In Flames"
INDEX 01 00:00:00
FILE "03. Call My Name.flac" WAVE
TRACK 03 AUDIO
TITLE "Call My Name"
PERFORMER "In Flames"
INDEX 01 00:00:00
FILE "04. I Am Above.flac" WAVE
TRACK 04 AUDIO
TITLE "I Am Above"
PERFORMER "In Flames"
INDEX 01 00:00:00
FILE "05. Follow Me.flac" WAVE
TRACK 05 AUDIO
TITLE "Follow Me"
PERFORMER "In Flames"
INDEX 01 00:00:00
FILE "06. (This Is Our) House.flac" WAVE
TRACK 06 AUDIO
TITLE "(This Is Our) House"
PERFORMER "In Flames"
INDEX 01 00:00:00
FILE "07. We Will Remember.flac" WAVE
TRACK 07 AUDIO
TITLE "We Will Remember"
PERFORMER "In Flames"
INDEX 01 00:00:00
FILE "08. In This Life.flac" WAVE
TRACK 08 AUDIO
TITLE "In This Life"
PERFORMER "In Flames"
INDEX 01 00:00:00
FILE "09. Burn.flac" WAVE
TRACK 09 AUDIO
TITLE "Burn"
PERFORMER "In Flames"
INDEX 01 00:00:00
FILE "10. Deep Inside.flac" WAVE
TRACK 10 AUDIO
TITLE "Deep Inside"
PERFORMER "In Flames"
INDEX 01 00:00:00
FILE "11. All the Pain.flac" WAVE
TRACK 11 AUDIO
TITLE "All the Pain"
PERFORMER "In Flames"
INDEX 01 00:00:00
FILE "12. Stay with Me.flac" WAVE
TRACK 12 AUDIO
TITLE "Stay with Me"
PERFORMER "In Flames"
INDEX 01 00:00:00
FILE "13. Not Alone.flac" WAVE
TRACK 13 AUDIO
TITLE "Not Alone"
PERFORMER "In Flames"
INDEX 01 00:00:00
Exact Audio Copy V1.3 from 2. September 2016

EAC extraction logfile from 1. March 2019, 10:33

In Flames / I, the Mask

Used drive : HP DVD Writer 1170d Adapter: 1 ID: 1

Read mode : Secure
Utilize accurate stream : Yes
Defeat audio cache : Yes
Make use of C2 pointers : No

Read offset correction : 6
Overread into Lead-In and Lead-Out : No
Fill up missing offset samples with silence : Yes
Delete leading and trailing silent blocks : No
Null samples used in CRC calculations : Yes
Used interface : Native Win32 interface for Win NT & 2000

Used output format : User Defined Encoder
Selected bitrate : 1024 kBit/s
Quality : High
Add ID3 tag : No
Command line compressor : C:\Program Files (x86)\Exact Audio Copy\Flac\flac.exe
Additional command line options : -V -8 -T "Date=%year%" -T "Genre=%genre%" %source%

TOC of the extracted CD

Track | Start | Length | Start sector | End sector
---------------------------------------------------------
1 | 0:00.00 | 4:47.40 | 0 | 21564
2 | 4:47.40 | 3:41.29 | 21565 | 38168
3 | 8:28.69 | 3:33.58 | 38169 | 54201
4 | 12:02.52 | 3:49.61 | 54202 | 71437
5 | 15:52.38 | 4:55.41 | 71438 | 93603
6 | 20:48.04 | 4:18.58 | 93604 | 113011
7 | 25:06.62 | 4:04.68 | 113012 | 131379
8 | 29:11.55 | 3:52.59 | 131380 | 148838
9 | 33:04.39 | 3:43.54 | 148839 | 165617
10 | 36:48.18 | 4:21.22 | 165618 | 185214
11 | 41:09.40 | 4:29.51 | 185215 | 205440
12 | 45:39.16 | 5:16.69 | 205441 | 229209
13 | 50:56.10 | 4:04.44 | 229210 | 247553

Range status and errors

Selected range

Filename C:\EAC\ungern666\In Flames - I, the Mask.wav

Peak level 100.0 %
Extraction speed 4.3 X
Range quality 99.9 %
Test CRC 26B9D1BC
Copy CRC 26B9D1BC
Copy OK

No errors occurred

AccurateRip summary
Track 1 not present in database
Track 2 not present in database
Track 3 not present in database
Track 4 not present in database
Track 5 not present in database
Track 6 not present in database
Track 7 not present in database
Track 8 not present in database
Track 9 not present in database
Track 10 not present in database
Track 11 not present in database
Track 12 not present in database
Track 13 not present in database
None of the tracks are present in the AccurateRip database

End of status report

---- CUETools DB Plugin V2.1.6

[CTDB TOCID: AJ5G9oBB3C7ln1x0T2qkeBsjIOU-] found
Submit result: AJ5G9oBB3C7ln1x0T2qkeBsjIOU- has been confirmed
Track | CTDB Status
1 | (3/4) Accurately ripped
2 | (4/4) Accurately ripped
3 | (4/4) Accurately ripped
4 | (4/4) Accurately ripped
5 | (4/4) Accurately ripped
6 | (4/4) Accurately ripped
7 | (4/4) Accurately ripped
8 | (4/4) Accurately ripped
9 | (4/4) Accurately ripped
10 | (4/4) Accurately ripped
11 | (4/4) Accurately ripped
12 | (4/4) Accurately ripped
13 | (4/4) Accurately ripped

==== Log checksum 6950C71C0AD13575C158A1F59C372CEF713212026E84E173011E1064A756E11C ====
info [Профиль]  [ЛС] 

Zlo0

Пол: Пол:Муж

Стаж: 9 лет 2 месяца

Сообщений: 6

Россия
Рейтинг

post 10-Мар-2019 17:40 (спустя 1 день 20 часов) [-]3[+]

[Цитировать] 

Отличный альбом!
info [Профиль]  [ЛС] 

Insomnium

Стаж: 9 лет 2 месяца

Сообщений: 91

Рейтинг

post 10-Мар-2019 23:39 (спустя 5 часов) [-]0[+]

[Цитировать] 

Zlo0 писал(а):

Отличный альбом!
Более олдскульный относительно предыдущего, хотя мне и тот зашел.
Немного прифигел, когда увидел Вольстрема в клипе)
info [Профиль]  [ЛС] 

symmetry

Пол: Пол:Муж

Стаж: 2 месяца 26 дней

Сообщений: 6

Норвегия
Рейтинг

post 11-Мар-2019 00:20 (спустя 40 минут) [-]0[+]

[Цитировать] 

Альбом и правда вышел отличным, хотя для меня, как поклонника команды, провальных и не было, все нравятся.)
info [Профиль]  [ЛС] 
Показать сообщения:    
Ответить на тему

Текущее время: 22-Май 02:01

Часовой пояс: GMT + 4



Вы не можете начинать темы
Вы не можете отвечать на сообщения
Вы не можете редактировать свои сообщения
Вы не можете удалять свои сообщения
Вы не можете голосовать в опросах
Вы не можете прикреплять файлы к сообщениям
Вы не можете скачивать файлы