Ошибка

(Synthwave / Retrowave /Synthpop) Mitch Murder - Interceptor - 2014, FLAC (tracks), lossless

Ответить на тему
 
Автор Сообщение

Slava2312

Пол: Пол:Муж

Стаж: 4 года 3 месяца

Сообщений: 16

Россия
Рейтинг

post 05-Дек-2018 06:21 0[+]

[Цитировать] 

Mitch Murder - Interceptor


pic="https://i107.fastpic.ru/big/2018/1205/3c/c86e6ab41c381094731901140d6dbc3c.jpg"



Жанр: Synthwave / Retrowave /Synthpop
Год издания данного носителя: 2014
Страна-производитель носителя: US
Лейбл: Mad Decent
Каталоговый номер: MAD-216
Аудио кодек: FLAC
Тип рипа: tracks
Битрейт аудио: lossless
Продолжительность: 00:53:08
Для ознакомления: beatport.com
Треклист:
[4:00] 01. Mitch Murder - Saturdays
[3:41] 02. Mitch Murder - High Performance
[5:26] 03. Mitch Murder - The Touch
[4:19] 04. Mitch Murder - Race Day
[4:29] 05. Mitch Murder - Interceptor
[5:01] 06. Mitch Murder - Snow Crash
[5:14] 07. Mitch Murder - Breakazoid
[3:26] 08. Mitch Murder - Thanks For Playing
[4:22] 09. Mitch Murder - In The Fast Lane
[3:29] 10. Mitch Murder - Stages
[5:49] 11. Mitch Murder - Nocturne
[3:51] 12. Mitch Murder - Traces To Nowhere
AUDIOCHECKER v2.0 beta (build 457) - by Dester - opdester@freemail.hu 
~~~~~~~~~~~~~~~~~~~~~~~~~~~~~~~~~~
-=== НЕ РЕДАКТИРУЙТЕ ЭТОТ ФАЙЛ! ===-

Путь: ...Mitch Murder - Interceptor [2014] Flac

01 -=- 01. Saturdays.flac -=- CDDA (100%)
02 -=- 02. High Performance.flac -=- CDDA (100%)
03 -=- 03. The Touch.flac -=- MPEG (95%)
04 -=- 04. Race Day.flac -=- MPEG (95%)
05 -=- 05. Interceptor.flac -=- CDDA (100%)
06 -=- 06. Snow Crash.flac -=- CDDA (99%)
07 -=- 07. Breakazoid.flac -=- CDDA (100%)
08 -=- 08. Thanks For Playing.flac -=- CDDA (100%)
09 -=- 09. In The Fast Lane.flac -=- MPEG (95%)
10 -=- 10. Stages.flac -=- CDDA (100%)
11 -=- 11. Nocturne.flac -=- CDDA (99%)
12 -=- 12. Traces To Nowhere.flac -=- CDDA (100%)

Сводка 76,08% CDDA

228147796
----------------------- 

DON'T MODIFY THIS FILE

-----------------------

PERFORMER: auCDtect Task Manager, ver. 1.6.0 RC1 build 1.6.0.1
Copyright (c) 2008-2010 y-soft. All rights reserved
http://y-soft.org

ANALYZER: auCDtect: CD records authenticity detector, version 0.8.2
Copyright (c) 2004 Oleg Berngardt. All rights reserved.
Copyright (c) 2004 Alexander Djourik. All rights reserved.

FILE: 12. Traces To Nowhere.flac
Size: 21956779 Hash: 700CEC6E11212E6C358A6D76F6D50185 Accuracy: -m0
Conclusion: CDDA 100%
Signature: D760EBCEA5B9572D1E54C3F4622BD0D4FA98BCB2
FILE: 11. Nocturne.flac
Size: 31239546 Hash: 32D139BFA03555C22882B26FA91369BC Accuracy: -m0
Conclusion: CDDA 99%
Signature: EB129B261FFA7CB9DE4C02C6E5F05C47723A27D8
FILE: 10. Stages.flac
Size: 24973262 Hash: 57F21984262028EB8468E86A38E34D09 Accuracy: -m0
Conclusion: CDDA 100%
Signature: 2A784DA26BA61484906D4050CA99430A99875614
FILE: 09. In The Fast Lane.flac
Size: 26806966 Hash: BE265B53092DF027733E047345514F0F Accuracy: -m0
Conclusion: MPEG 95%
Signature: 4BEC0A05B7787C8AC4E9496B526268C13105D5EE
FILE: 08. Thanks For Playing.flac
Size: 24473742 Hash: 639DA1A51C5E98930D6D0ADB4E64A5B8 Accuracy: -m0
Conclusion: CDDA 100%
Signature: C41C630C209C3D4390004ABD3C9CD8DD24E1001D
FILE: 07. Breakazoid.flac
Size: 37459548 Hash: 7ACAECEFEB545DFDF82DA55D12D45DE2 Accuracy: -m0
Conclusion: CDDA 100%
Signature: D0A4346CACC4E8F745B6074B16A7D2A3E834C01F
FILE: 06. Snow Crash.flac
Size: 30415254 Hash: D7E4AC662DE54C99210E0A96C7299BBF Accuracy: -m0
Conclusion: CDDA 99%
Signature: 99054F22BA06D406480E3564DB909188CCAE0F8B
FILE: 05. Interceptor.flac
Size: 32896356 Hash: D6CAE81C62C57655A7F8FB978ED38B82 Accuracy: -m0
Conclusion: CDDA 100%
Signature: 7681BC03FC111F6F302908AE6A433F8A0535F539
FILE: 04. Race Day.flac
Size: 29009149 Hash: 3E9591BD703B390C00961E85AF8974C9 Accuracy: -m0
Conclusion: MPEG 95%
Signature: D1025F229831D08ACEFF922AD3C1DCD11146715B
FILE: 03. The Touch.flac
Size: 33635088 Hash: EE92E987EA4E6413DD1AFAD444689897 Accuracy: -m0
Conclusion: MPEG 95%
Signature: B9480765DD324530B87471C8676CFEA33F333999
FILE: 02. High Performance.flac
Size: 25930296 Hash: 7D9D14DD7A87137247AEBA74113BAFC0 Accuracy: -m0
Conclusion: CDDA 100%
Signature: 9B5AD080B6801E1ECD8F35CEBAEA75088B5E0211
FILE: 01. Saturdays.flac
Size: 30850506 Hash: 65640E793E989AA2EAF83C10E630AEB2 Accuracy: -m0
Conclusion: CDDA 100%
Signature: 5EF3DF73D76E7CC8D450E30988873252E15DF22A
foobar2000 1.4.1 / Замер динамического диапазона (DR) 1.1.1 
Дата отчёта: 2018-12-05 05:42:47

--------------------------------------------------------------------------------
Анализ: Mitch Murder / Interceptor
--------------------------------------------------------------------------------

DR Пики RMS Продолжительность трека
--------------------------------------------------------------------------------
DR9 -0.01 дБ -10.57 дБ 4:00 01-Saturdays
DR10 -0.01 дБ -11.98 дБ 3:41 02-High Performance
DR10 -0.10 дБ -11.21 дБ 5:26 03-The Touch
DR13 -0.10 дБ -13.43 дБ 4:19 04-Race Day
DR8 -0.01 дБ -9.46 дБ 4:29 05-Interceptor
DR10 -0.01 дБ -13.05 дБ 5:01 06-Snow Crash
DR10 -0.11 дБ -12.07 дБ 5:14 07-Breakazoid
DR10 -0.01 дБ -11.44 дБ 3:26 08-Thanks For Playing
DR11 -0.01 дБ -12.83 дБ 4:22 09-In The Fast Lane
DR9 -0.01 дБ -9.87 дБ 3:29 10-Stages
DR11 -0.01 дБ -12.25 дБ 5:49 11-Nocturne
DR13 -0.01 дБ -14.35 дБ 3:51 12-Traces To Nowhere
--------------------------------------------------------------------------------

Количество треков: 12
Реальные значения DR: DR10

Частота: 44100 Гц
Каналов: 2
Разрядность: 16
Битрейт: 742 кбит/с
Кодек: FLAC
================================================================================
Поскольку чекеры ругают три файла, выкладываю спектрограммы этих файлов.
info [Профиль]  [ЛС] 
Показать сообщения:    
Ответить на тему

Текущее время: 14-Дек 15:39

Часовой пояс: GMT + 4



Вы не можете начинать темы
Вы не можете отвечать на сообщения
Вы не можете редактировать свои сообщения
Вы не можете удалять свои сообщения
Вы не можете голосовать в опросах
Вы не можете прикреплять файлы к сообщениям
Вы не можете скачивать файлы