Ошибка

(Synthwave / Retrowave) Mitch Murder - Hardwired [EP] - 2018, FLAC (tracks), lossless

Ответить на тему
 
Автор Сообщение

Slava2312

Пол: Пол:Муж

Стаж: 4 года 3 месяца

Сообщений: 17

Россия
Рейтинг

post 02-Дек-2018 15:39 0[+]

[Цитировать] 

Mitch Murder - Hardwired [EP]

pic="https://i106.fastpic.ru/big/2018/1201/a3/8441876b15e2433533cd2f8ec06645a3.jpg"


Жанр: Synthwave / Retrowave
Год издания данного носителя: 2018
Страна-производитель носителя: Sweden
Лейбл: Not On Label (Mitch Murder Self-released)
Аудио кодек: FLAC
Тип рипа: tracks
Битрейт аудио: lossless
Продолжительность: 00:23:49
Источник (релизер):Куплен на Bandcamp
Треклист:
[4:45] 1. Mitch Murder - Altered State
[5:22] 2. Mitch Murder - Hardwired
[4:41] 3. Mitch Murder - The Raid
[3:58] 4. Mitch Murder - Reconnaissance
[5:03] 5. Mitch Murder - Revision Control
 
foobar2000 1.3.2 / Замер динамического диапазона (DR) 1.1.1
Дата отчёта: 2018-12-01 10:59:45

--------------------------------------------------------------------------------
Анализ: Mitch Murder / Hardwired
--------------------------------------------------------------------------------

DR Пики RMS Продолжительность трека
--------------------------------------------------------------------------------
DR9 -0.01 дБ -11.42 дБ 4:45 01-Altered State
DR9 -0.01 дБ -11.71 дБ 5:22 02-Hardwired
DR10 -0.01 дБ -11.67 дБ 4:41 03-The Raid
DR7 -0.01 дБ -9.75 дБ 3:58 04-Reconnaissance
DR8 0.00 дБ -10.13 дБ 5:03 05-Revision Control
--------------------------------------------------------------------------------

Количество треков: 5
Реальные значения DR: DR9

Частота: 48000 Гц
Каналов: 2
Разрядность: 24
Битрейт: 1549 кбит/с
Кодек: FLAC
================================================================================


Небольшой альбом от шведского гения ретровейва Mitch Murder "Hardwired" посвящен классике аниме "Акира". По сути, это еще один реверанс в сторону юбиляра - в этом году исполнилось 30 лет жуткой истории, произошедшей в Нео-Токио 2019 года. В своей узнаваемой манере артист кратко и контрастно пересказал сюжет картины Кацухиро Отомо.

info [Профиль]  [ЛС] 

Kibo32

Стаж: 7 лет 5 месяцев

Сообщений: 16

Рейтинг

post 03-Дек-2018 18:54 (спустя 1 день 3 часа) [-]0[+]

[Цитировать] 

Благодарю
info [Профиль]  [ЛС] 

rOlvla

Пол: Пол:Муж

Стаж: 9 лет 1 месяц

Сообщений: 6

Рейтинг

post 04-Дек-2018 20:43 (спустя 1 день 1 час) [-]0[+]

[Цитировать] 

Очень круто !
info [Профиль]  [ЛС] 
Показать сообщения:    
Ответить на тему

Текущее время: 19-Дек 12:36

Часовой пояс: GMT + 4



Вы не можете начинать темы
Вы не можете отвечать на сообщения
Вы не можете редактировать свои сообщения
Вы не можете удалять свои сообщения
Вы не можете голосовать в опросах
Вы не можете прикреплять файлы к сообщениям
Вы не можете скачивать файлы