Ошибка

(Score) Overwatch (by Derek Duke, Neal Acree, Sam Cardon, Cris Velasco, Adam Burgess) - 2016 г., FLAC (tracks), lossless

Ответить на тему
 
Автор Сообщение

Hobbit38

Пол: Пол:Муж

Стаж: 4 года 7 месяцев

Сообщений: 761

Предупреждений: 1

Россия
Рейтинг

post 19-Ноя-2018 23:51 0[+]

[Цитировать] 


Жанр: Score | Год выпуска: May 24, 2016

Композиторы: Derek Duke, Neal Acree, Sam Cardon, Cris Velasco, Adam Burgess

Издатель (лейбл): Blizzard Entertainment | Номер каталога: N/A

Аудиокодек: FLAC (.flac) | Тип рипа: tracks | Битрейт аудио: lossless

Полиграфия: Присутствует | Продолжительность: 00:48:49


01. Overture (Вступление) (1:54)
02. Rally the Heroes (Сбор героев) (2:13)
03. Temple of Anubis (Храм Анубиса) (2:00)
04. The World Could Always Use More Heroes (Миру всегда нужные новые герои) (Cinematic Intro) (5:51)
05. King's Row (Кингс Роу) (1:40)
06. Legacy (Наследие) (1:48)
07. Prepare to Attack (Приготовьтесь атаковать) (5:28)
08. Hanamura (Ханамура) (1:54)
09. Old Soldier (Старый солдат) (1:48)
10. Watchpoint: Gibraltar (Пост Наблюдения: Гибралтар) (1:07)
11. Numbani (Нумбани) (1:12)
12. Situation Critical (Опасная ситуация) (4:31)
13. Hollywood (Голливуд) (1:19)
14. A Future Worth Fighting for (Будущее, за которое стоит сражаться) (2:40)
15. Volskaya Industries (КБ Вольской) (1:56)
16. Dorado (Дорадо) (1:45)
17. Victory (Победа) (2:59)
18. Route 66 (Шоссе 66) (1:24)
19. We Are Overwatch (Мы - Overwatch) (1:04)
20. Nepal (Непал) (2:07)
21. ...And Overwatch for All (...и Overwatch для всех) (2:05)
 
Exact Audio Copy V1.1 from 23. June 2015
EAC extraction logfile from 5. June 2016, 13:20
Blizzard Entertainment / Overwatch Soundtrack
Used drive : PIONEER BD-RW BDR-206D Adapter: 1 ID: 0
Read mode : Secure
Utilize accurate stream : Yes
Defeat audio cache : Yes
Make use of C2 pointers : No
Read offset correction : 667
Overread into Lead-In and Lead-Out : No
Fill up missing offset samples with silence : Yes
Delete leading and trailing silent blocks : No
Null samples used in CRC calculations : Yes
Used interface : Native Win32 interface for Win NT & 2000
Gap handling : Appended to previous track
Used output format : User Defined Encoder
Selected bitrate : 128 kBit/s
Quality : High
Add ID3 tag : No
Command line compressor : C:\Program Files (x86)\Exact Audio Copy\FLAC\FLAC.EXE
Additional command line options : -V -8 -T "Genre=%genre%" -T "Artist=%artist%" -T "Title=%title%" -T "Album=%albumtitle%" -T "Date=%year%" -T "Tracknumber=%tracknr%" -T "Comment=%comment%" %source%
TOC of the extracted CD
Track | Start | Length | Start sector | End sector
---------------------------------------------------------
1 | 0:00.00 | 1:54.24 | 0 | 8573
2 | 1:54.24 | 2:13.03 | 8574 | 18551
3 | 4:07.27 | 2:00.29 | 18552 | 27580
4 | 6:07.56 | 5:51.26 | 27581 | 53931
5 | 11:59.07 | 1:40.25 | 53932 | 61456
6 | 13:39.32 | 1:48.35 | 61457 | 69591
7 | 15:27.67 | 5:28.24 | 69592 | 94215
8 | 20:56.16 | 1:54.11 | 94216 | 102776
9 | 22:50.27 | 1:47.58 | 102777 | 110859
10 | 24:38.10 | 1:07.37 | 110860 | 115921
11 | 25:45.47 | 1:11.71 | 115922 | 121317
12 | 26:57.43 | 4:31.37 | 121318 | 141679
13 | 31:29.05 | 1:18.66 | 141680 | 147595
14 | 32:47.71 | 2:40.33 | 147596 | 159628
15 | 35:28.29 | 1:56.11 | 159629 | 168339
16 | 37:24.40 | 1:44.74 | 168340 | 176213
17 | 39:09.39 | 2:59.25 | 176214 | 189663
18 | 42:08.64 | 1:24.36 | 189664 | 195999
19 | 43:33.25 | 1:03.55 | 196000 | 200779
20 | 44:37.05 | 2:07.19 | 200780 | 210323
21 | 46:44.24 | 2:05.05 | 210324 | 219703
Track 1
Filename E:\Music\OST\Overwatch - Original Soundtrack (2016)\01 - Overture.wav
Pre-gap length 0:00:02.00
Peak level 94.4 %
Extraction speed 3.8 X
Track quality 100.0 %
Test CRC A6C9ECFB
Copy CRC A6C9ECFB
Copy OK
Track 2
Filename E:\Music\OST\Overwatch - Original Soundtrack (2016)\02 - Rally The Heroes.wav
Peak level 99.6 %
Extraction speed 4.2 X
Track quality 100.0 %
Test CRC 424625DA
Copy CRC 424625DA
Copy OK
Track 3
Filename E:\Music\OST\Overwatch - Original Soundtrack (2016)\03 - Temple Of Anubis.wav
Peak level 94.4 %
Extraction speed 4.3 X
Track quality 100.0 %
Test CRC 4D09A915
Copy CRC 4D09A915
Copy OK
Track 4
Filename E:\Music\OST\Overwatch - Original Soundtrack (2016)\04 - The World Could Always Use More Heroes (Cinematic Intro).wav
Peak level 98.4 %
Extraction speed 5.6 X
Track quality 100.0 %
Test CRC 2D4B054E
Copy CRC 2D4B054E
Copy OK
Track 5
Filename E:\Music\OST\Overwatch - Original Soundtrack (2016)\05 - King's Row.wav
Peak level 94.4 %
Extraction speed 4.7 X
Track quality 100.0 %
Test CRC 27D868D1
Copy CRC 27D868D1
Copy OK
Track 6
Filename E:\Music\OST\Overwatch - Original Soundtrack (2016)\06 - Legacy.wav
Peak level 94.4 %
Extraction speed 5.0 X
Track quality 100.0 %
Test CRC 3936A50F
Copy CRC 3936A50F
Copy OK
Track 7
Filename E:\Music\OST\Overwatch - Original Soundtrack (2016)\07 - Prepare To Attack.wav
Peak level 94.4 %
Extraction speed 5.8 X
Track quality 99.9 %
Test CRC 6562998B
Copy CRC 6562998B
Copy OK
Track 8
Filename E:\Music\OST\Overwatch - Original Soundtrack (2016)\08 - Hanamura.wav
Peak level 94.4 %
Extraction speed 5.6 X
Track quality 100.0 %
Test CRC 8833683C
Copy CRC 8833683C
Copy OK
Track 9
Filename E:\Music\OST\Overwatch - Original Soundtrack (2016)\09 - Old Soldier.wav
Peak level 94.4 %
Extraction speed 5.6 X
Track quality 100.0 %
Test CRC 2B662EF7
Copy CRC 2B662EF7
Copy OK
Track 10
Filename E:\Music\OST\Overwatch - Original Soundtrack (2016)\10 - Watchpoint- Gibraltar.wav
Peak level 94.4 %
Extraction speed 4.9 X
Track quality 100.0 %
Test CRC 29457653
Copy CRC 29457653
Copy OK
Track 11
Filename E:\Music\OST\Overwatch - Original Soundtrack (2016)\11 - Numbani.wav
Peak level 94.3 %
Extraction speed 5.1 X
Track quality 100.0 %
Test CRC B5E0A1BE
Copy CRC B5E0A1BE
Copy OK
Track 12
Filename E:\Music\OST\Overwatch - Original Soundtrack (2016)\12 - Situation Critical.wav
Peak level 94.4 %
Extraction speed 7.1 X
Track quality 100.0 %
Test CRC E67CEFDE
Copy CRC E67CEFDE
Copy OK
Track 13
Filename E:\Music\OST\Overwatch - Original Soundtrack (2016)\13 - Hollywood.wav
Peak level 94.3 %
Extraction speed 5.6 X
Track quality 100.0 %
Test CRC 5044593A
Copy CRC 5044593A
Copy OK
Track 14
Filename E:\Music\OST\Overwatch - Original Soundtrack (2016)\14 - A Future Worth Fighting For.wav
Peak level 94.4 %
Extraction speed 6.8 X
Track quality 100.0 %
Test CRC F20F9963
Copy CRC F20F9963
Copy OK
Track 15
Filename E:\Music\OST\Overwatch - Original Soundtrack (2016)\15 - Volskaya Industries.wav
Peak level 94.4 %
Extraction speed 6.4 X
Track quality 100.0 %
Test CRC 8C37CFB2
Copy CRC 8C37CFB2
Copy OK
Track 16
Filename E:\Music\OST\Overwatch - Original Soundtrack (2016)\16 - Dorado.wav
Peak level 94.4 %
Extraction speed 6.4 X
Track quality 100.0 %
Test CRC 8710FC2E
Copy CRC 8710FC2E
Copy OK
Track 17
Filename E:\Music\OST\Overwatch - Original Soundtrack (2016)\17 - Victory.wav
Peak level 94.4 %
Extraction speed 7.3 X
Track quality 100.0 %
Test CRC E5341E3A
Copy CRC E5341E3A
Copy OK
Track 18
Filename E:\Music\OST\Overwatch - Original Soundtrack (2016)\18 - Route 66.wav
Peak level 94.6 %
Extraction speed 6.1 X
Track quality 100.0 %
Test CRC 0E6B3E06
Copy CRC 0E6B3E06
Copy OK
Track 19
Filename E:\Music\OST\Overwatch - Original Soundtrack (2016)\19 - We Are Overwatch.wav
Peak level 94.4 %
Extraction speed 3.5 X
Track quality 99.8 %
Test CRC 48DAC0E4
Copy CRC 48DAC0E4
Copy OK
Track 20
Filename E:\Music\OST\Overwatch - Original Soundtrack (2016)\20 - Nepal.wav
Peak level 94.4 %
Extraction speed 6.9 X
Track quality 100.0 %
Test CRC DFB660EF
Copy CRC DFB660EF
Copy OK
Track 21
Filename E:\Music\OST\Overwatch - Original Soundtrack (2016)\21 - ...And Overwatch For All.wav
Peak level 94.4 %
Extraction speed 7.1 X
Track quality 100.0 %
Test CRC 616F6D53
Copy CRC 616F6D53
Copy OK
No errors occurred
End of status report
==== Log checksum 2A192DAFA7AA7C1EFD70B3B5F8393C009AB791ED969B70B7C51C2F3BD51EE2D6 ====

info [Профиль]  [ЛС] 
Показать сообщения:    
Ответить на тему

Текущее время: 14-Дек 15:40

Часовой пояс: GMT + 4



Вы не можете начинать темы
Вы не можете отвечать на сообщения
Вы не можете редактировать свои сообщения
Вы не можете удалять свои сообщения
Вы не можете голосовать в опросах
Вы не можете прикреплять файлы к сообщениям
Вы не можете скачивать файлы