Ошибка

Трогательный комплекс / Lovely Complex [TV][1-5 из 24][2007][Комедия, романтика, сёдзё][DVDRip][Любительский (JAP+SUB)]

Ответить на тему
 
Автор Сообщение

ShinkaDan

Стаж: 4 года

Сообщений: 43

Россия
Рейтинг

post 29-Окт-2018 20:26 1[+]

[Цитировать] 

pic="https://d.radikal.ru/d41/1811/7a/20c2502fdff6.jpg"


Трогательный комплекс
Lovely Complex


Страна: Япония
Год выпуска: 2007
Жанр: Комедия, романтика, сёдзё
Тип: TV
Продолжительность: 24 эп, 25 мин.
Режиссер: Уда Коносукэ
Студия:

Перевод на русский: Тюлень. Редактура: Glen or Glenda; Корректура: Hiroki; Оформление: Glen or Glenda, FeS
Озвучка двухголосая: ShinkaDan (Sempl): Azazel (муж.) и Kesu (жен.)
Звукорежиссёр: Виктор Нуштаев

Описание: Отани и Коизуми учатся в одном и том же классе самой обыкновенной старшей школы. Проблема лишь в том, что Отани для своего возраста очень низок, а Коизуми - слишком высока. Кроме того, эти двое постоянно ссорятся и подкалывают друг друга, за что окружающие прозвали их комедийным дуэтом - включая их учителя. Однако, как-то раз они решили заключить пари кто из них первый начнёт встречаться со своей половинкой. Но судьба стала сталкивать их чаще чем предполагалось и Коизуми начинает понимать, что испытывает к Отани более нежные чувства. Как же отреагирует ее партнер по комедийному дуэту после признания, поймет ли ее сразу и примет ли чувства девушки, что выше его? Что выйдет из этих непростых отношений? Смогут ли они помочь друг другу преодолеть свой комплекс роста?? Всё это и многое другое вы увидите в сей замечательной истории под названием: "Трогательный комплекс"!
Тип релиза: Без хардсаба
Качество: DVDRip
Формат видео: MP4
Видео: x264, 8 bit, 704х528, 1 482 Kbps, 23,976 кадр/сек
Аудио: AАС, 192 kbps, 48000 Hz, 2ch; Язык Русский (в составе контейнера);
Аудио 2: AАС, 192 kbps, 48000 Hz, 2ch; Язык Японский
Субтитры: русские (внешний софтсаб)
 
Общее
Полное имя : P:\Downloads\[ShinkaDan] Lovely Complex TV [Azazel & Kesu]\[ShinkaDan] Lovely Complex TV [01 of 24] [RUS JAP] [DVDrip 704x528 x264] [Azazel & Kesu].mp4
Формат : MPEG-4
Профиль формата : Base Media
Идентификатор кодека : isom
Размер файла : 252 Мбайт
Продолжительность : 23 м.
Режим общего битрейта : Переменный
Общий поток : 1486 Кбит/сек
Дата кодирования : UTC 2018-10-26 18:59:06
Дата пометки : UTC 2018-10-26 18:59:06
Авторское право : ShinkaDan

Видео
Идентификатор : 1
Формат : AVC
Формат/Информация : Advanced Video Codec
Профиль формата : High@L5.1
Параметр CABAC формата : Да
Параметр ReFrames формата : 6 кадров
Идентификатор кодека : avc1
Идентификатор кодека/Информация : Advanced Video Coding
Продолжительность : 23 м.
Битрейт : 1149 Кбит/сек
Максимальный битрейт : 8544 Кбит/сек
Ширина : 704 пикселя
Высота : 528 пикселей
Соотношение сторон : 4:3
Режим частоты кадров : Постоянный
Частота кадров : 23,976 кадра/сек
Цветовое пространство : YUV
Субдискретизация насыщенности : 4:2:0
Битовая глубина : 8 бит
Тип развёртки : Прогрессивная
Бит/(Пиксели*Кадры) : 0.129
Размер потока : 195 Мбайт (77%)
Заголовок : DVDrip
Библиотека кодирования : x264 core 56 svn-667C
Настройки программы : cabac=1 / ref=3 / deblock=1:0:0 / analyse=0x3:0x133 / me=hex / subme=6 / brdo=1 / mixed_ref=0 / me_range=16 / chroma_me=1 / trellis=1 / 8x8dct=1 / cqm=2 / deadzone=21,11 / chroma_qp_offset=0 / threads=2 / nr=0 / decimate=1 / mbaff=0 / bframes=3 / b_pyramid=1 / b_adapt=1 / b_bias=0 / direct=1 / wpredb=1 / bime=1 / keyint=250 / keyint_min=25 / scenecut=40(pre) / rc=cqp / qp=18 / ip_ratio=1.40 / pb_ratio=1.30
Дата кодирования : UTC 2018-10-26 18:53:12
Дата пометки : UTC 2018-10-26 18:59:08

Аудио #1
Идентификатор : 2
Формат : AAC
Формат/Информация : Advanced Audio Codec
Профиль формата : LC
Идентификатор кодека : 40
Продолжительность : 23 м.
Вид битрейта : Переменный
Битрейт : 192 Кбит/сек
Максимальный битрейт : 199 Кбит/сек
Каналы : 2 канала
Расположение каналов : Front: L R
Частота : 48,0 КГц
Метод сжатия : С потерями
Размер потока : 32,5 Мбайт (13%)
Заголовок : Azazel & Kesu
Язык : Russian
Дата кодирования : UTC 2018-10-26 18:36:45
Дата пометки : UTC 2018-10-26 18:59:08

Аудио #2
Идентификатор : 3
Формат : AAC
Формат/Информация : Advanced Audio Codec
Профиль формата : LC
Идентификатор кодека : 40
Продолжительность : 23 м.
Вид битрейта : Переменный
Битрейт : 139 Кбит/сек
Максимальный битрейт : 182 Кбит/сек
Каналы : 2 канала
Расположение каналов : Front: L R
Частота : 48,0 КГц
Метод сжатия : С потерями
Размер потока : 23,6 Мбайт (9%)
Заголовок : Original
Язык : Japanese
Дата кодирования : UTC 2018-10-26 18:53:35
Дата пометки : UTC 2018-10-26 18:59:08
01. Лето первогодок я обязательно найду себе парня
02. Бывшая девушка, любовный треугольник?
03. Парень который тебе нравится или парень из прошлого?!
04. Поцелуй? Я влюбилась в тебя
05. Отправь запретную любовь в полёт
06. Намерения девушки! План любовного признания!!
07. Катастрофа! Худшее признание в истории!
08. Возврат невозможен! Разбитое сердце.
09. Возвращение к жизни! Стремись стать его девушкой!
10. Поединок с бывшей подружкой? План демонстрации груди!!
11. Полное отчаяние! Возвращение любви к бывшей подружке?
12. Восстановление любви!Совершенствуйся как девушка!Шоколад с любовью!
13. Лихорадка! Поцелуй в его комнате?
14. Убийственная страсть к Майти!
15. Опасный мужчина или cоблазнение в стиле Майти.
16. Магия Майти! Трансформация любви?!
17. Кулак любви! Получи девичьего духа!
18. Лучший день рождения в истории!
19. Внезапный спад, начало провала!
20. Объявление войны! Опасная красавица сгорающая от ревности!
21. Предчувствие разлуки? Отани и Риса идут разными дорогами!
22. Катастрофическое заявление Отани!
23. Разные дороги! у всех свои обстоятельства!
24. Вместе навсегда!
http://tapochek.net/viewtopic.php?t=105545 - Альтернативная озвучка
info [Профиль]  [ЛС] 

Witcher

Пол: Пол:Муж

Стаж: 9 лет 8 месяцев

Сообщений: 6336

Рейтинг

post 31-Окт-2018 18:47 (спустя 1 день 22 часа) [-]0[+]

[Цитировать] 

ShinkaDan
Спасибо за релиз.
Перезалейте постер на другой хостинг

_________________
Темы не проверяю, для этого есть модераторы.
info [Профиль]  [ЛС] 

ShinkaDan

Стаж: 4 года

Сообщений: 43

Россия
Рейтинг

post 02-Ноя-2018 20:55 (спустя 2 дня 2 часа) [-]0[+]

[Цитировать] 

Witcher, готово)

_________________
info [Профиль]  [ЛС] 

ShinkaDan

Стаж: 4 года

Сообщений: 43

Россия
Рейтинг

post 10-Ноя-2018 22:14 (спустя 8 дней) [-]0[+]

[Цитировать] 

Добавлена 3-5 серии

_________________
info [Профиль]  [ЛС] 

kanmei

Пол: Пол:Муж

Стаж: 8 лет 2 месяца

Сообщений: 45

Россия
Рейтинг

post 11-Ноя-2018 12:09 (спустя 13 часов) [-]0[+]

[Цитировать] 

ShinkaDan
Спасибо за релиз.

А почему вы сразу в 1080р не делаете? на монике в 4к 720р уже не айс -_-
info [Профиль]  [ЛС] 

Nighteon

Пол: Пол:Муж

Стаж: 8 лет 6 месяцев

Сообщений: 119

Россия
Рейтинг

post 11-Ноя-2018 13:56 (спустя 1 час 46 минут) [-]0[+]

[Цитировать] 

kanmei писал(а):

А почему вы сразу в 1080р не делаете? на монике в 4к 720р уже не айс -_-
Потому, что это ДВД рип. Данный сериал на БД не выходил, только на ДВД. Отсюда и разрешение именно такое. В других релизах у нас как 1080п так и 720п есть.

_________________
info [Профиль]  [ЛС] 

Riljis

Пол: Пол:Муж

Стаж: 6 лет 1 месяц

Сообщений: 153

Россия
Рейтинг

post 11-Ноя-2018 18:42 (спустя 4 часа) [-]-1[+]

[Цитировать] 

Убогая рисовка

_________________
Homo homini lupus EST
info [Профиль]  [ЛС] 

Nighteon

Пол: Пол:Муж

Стаж: 8 лет 6 месяцев

Сообщений: 119

Россия
Рейтинг

post 16-Ноя-2018 16:10 (спустя 4 дня) [-]0[+]

[Цитировать] 

Riljis писал(а):

Убогая рисовка
В первый раз, что-ли сёдзё видите? Рисовка для оного жанра стандартная. Ну а коли хочется "великолепнейшей" нарутофильной рисовки, для этого есть всякие боруты - вам туда.

_________________
info [Профиль]  [ЛС] 
Показать сообщения:    
Ответить на тему

Текущее время: 19-Дек 12:35

Часовой пояс: GMT + 4



Вы не можете начинать темы
Вы не можете отвечать на сообщения
Вы не можете редактировать свои сообщения
Вы не можете удалять свои сообщения
Вы не можете голосовать в опросах
Вы не можете прикреплять файлы к сообщениям
Вы не можете скачивать файлы