Ошибка

Человек-муравей и Оса / Ant-Man and the Wasp (Пейтон Рид) [2018 г., фантастика, боевик, приключения, BDRip 1080p] [Вертикальная анаморфная стереопара|3D-Video|halfOU]

Ответить на тему
 
Автор Сообщение

Suhov

Пол: Пол:Муж

Стаж: 8 лет 11 месяцев

Сообщений: 1177

Россия
Рейтинг

post 19-Окт-2018 19:03 0[+]

[Цитировать] 

Человек-муравей и Оса / Ant-Man and the Wasp

«Real heroes. Not actual size»

Год выпуска: 2018 г.
Страна: США
Жанр: фантастика, боевик, приключения
Продолжительность: 01:58:31
Перевод: Дублированный [цифровая лицензия iTunes]
Субтитры: Русские, украинские, английские

Режиссер: Пейтон Рид
В ролях: Пол Радд (Scott Lang Ant-Man), Эванджелин Лилли (Hope Van Dyne Wasp), Майкл Пенья (Luis), Уолтон Гоггинс (Sonny Burch), Бобби Каннавале (Paxton), Джуди Грир (Maggie), Ти-Ай (Dave), Давид Дастмалчян (Kurt), Ханна Джон-Кэймен (Ava Ghost), Эбби Райдер Фортсон (Cassie), Рэндолл Парк (Jimmy Woo), Мишель Пфайффер (Janet Van Dyne Wasp)
Описание:
    Скотт Лэнг, известный также как Человек-муравей, уже заслужил право оказаться в команде Мстителей. Но желание быть ближе к дочери удерживает его в родном Сан-Франциско — до тех пор, пока доктор Хэнк Пим, создавший когда-то изменяющий размеры своего владельца чудо-костюм, не призывает Скотта присоединиться к новой опасной миссии. А помогать в противостоянии с коварным врагом Человеку-муравью будет новая напарница — Оса.

    бюджет: $162 000 000
    сборы в США: $216 274 826
    сборы в мире: + $405 246 936 = $621 521 762
    сборы в России: $12 800 960


    Качество: BDRip 1080p от Ash61
    Формат: mkv
    Видео кодек: AVC
    Аудио кодек: AC-3
    Видео: V_MPEG4/ISO/AVC, 9 000 Kbps, 1 920х1 080 pixels, 16:9, 23.976 fps, 4:2:0, 8 bits
    Аудио: AC-3, 384 Kbps, 6 channels, 48.0 KHz - Russian
    Аудио: AC-3, 192 Kbps, 2 channels, 48.0 KHz - Ukrainian
    Аудио: AC-3, 640 Kbps, 6 channels, 48.0 KHz - English
    Формат 3D: Half OverUnder / Вертикальная анаморфная стереопара
    Порядок ракурсов: левый ракурс первый

Код:

General
Unique ID : 233201087314896621796343643643408563714 (0xAF70E54D67704788B0A3231A03C03E02)
Complete name : D:Ant-ManAndTheWasp(2018)3D-halfOU(Ash61)iTunesAnt-ManAndTheWasp(2018)3D-halfOU(Ash61)iTunes.mkv
Format : Matroska
Format version : Version 2
File size : 8.43 GiB
Duration : 1h 58mn
Overall bit rate : 10.2 Mbps
Movie name : Человек-муравей и Оса / Ant-Man and the Wasp (2018) in 3D
Encoded date : UTC 2018-10-17 22:17:00
Writing application : mkvmerge v5.8.0 ('No Sleep / Pillow') built on Sep 2 2012 15:37:04
Writing library : libebml v1.2.3 + libmatroska v1.3.0

Video
ID : 1
Format : AVC
Format/Info : Advanced Video Codec
Format profile : High@L4.1
Format settings, CABAC : Yes
Format settings, ReFrames : 4 frames
Codec ID : V_MPEG4/ISO/AVC
Duration : 1h 58mn
Bit rate : 9 000 Kbps
Width : 1 920 pixels
Height : 1 080 pixels
Display aspect ratio : 16:9
Frame rate mode : Constant
Frame rate : 23.976 (24000/1001) fps
Color space : YUV
Chroma subsampling : 4:2:0
Bit depth : 8 bits
Scan type : Progressive
Bits/(Pixel*Frame) : 0.181
Stream size : 7.26 GiB (86%)
Title : BDRip by Ash61
Writing library : x264 core 146 r2538 121396c
Encoding settings : cabac=1 / ref=4 / deblock=1:-3:-3 / analyse=0x3:0x113 / me=umh / subme=10 / psy=1 / psy_rd=1.00:0.00 / mixed_ref=1 / me_range=32 / chroma_me=1 / trellis=2 / 8x8dct=1 / cqm=0 / deadzone=21,11 / fast_pskip=0 / chroma_qp_offset=-2 / threads=12 / lookahead_threads=2 / sliced_threads=0 / nr=0 / decimate=0 / interlaced=0 / bluray_compat=0 / constrained_intra=0 / bframes=8 / b_pyramid=2 / b_adapt=2 / b_bias=0 / direct=3 / weightb=1 / open_gop=0 / weightp=2 / keyint=250 / keyint_min=23 / scenecut=40 / intra_refresh=0 / rc_lookahead=60 / rc=2pass / mbtree=0 / bitrate=9000 / ratetol=1.0 / qcomp=0.70 / qpmin=0 / qpmax=69 / qpstep=4 / cplxblur=20.0 / qblur=0.5 / vbv_maxrate=40000 / vbv_bufsize=30000 / nal_hrd=none / filler=0 / frame-packing=4 / ip_ratio=1.40 / pb_ratio=1.30 / aq=1:0.70
Language : English
Default : Yes
Forced : No

Audio #1
ID : 2
Format : AC-3
Format/Info : Audio Coding 3
Mode extension : CM (complete main)
Format settings, Endianness : Big
Codec ID : A_AC3
Duration : 1h 58mn
Bit rate mode : Constant
Bit rate : 384 Kbps
Channel(s) : 6 channels
Channel positions : Front: L C R, Side: L R, LFE
Sampling rate : 48.0 KHz
Frame rate : 31.250 fps (1536 spf)
Compression mode : Lossy
Stream size : 324 MiB (4%)
Title : Дубляж (iTunes)
Language : Russian
Default : Yes
Forced : No

Audio #2
ID : 3
Format : AC-3
Format/Info : Audio Coding 3
Mode extension : CM (complete main)
Format settings, Endianness : Big
Codec ID : A_AC3
Duration : 1h 58mn
Bit rate mode : Constant
Bit rate : 192 Kbps
Channel(s) : 2 channels
Channel positions : Front: L R
Sampling rate : 48.0 KHz
Frame rate : 31.250 fps (1536 spf)
Compression mode : Lossy
Stream size : 162 MiB (2%)
Title : Дубляж (iTunes)
Language : Ukrainian
Default : No
Forced : No

Audio #3
ID : 4
Format : AC-3
Format/Info : Audio Coding 3
Mode extension : CM (complete main)
Format settings, Endianness : Big
Codec ID : A_AC3
Duration : 1h 58mn
Bit rate mode : Constant
Bit rate : 640 Kbps
Channel(s) : 6 channels
Channel positions : Front: L C R, Side: L R, LFE
Sampling rate : 48.0 KHz
Frame rate : 31.250 fps (1536 spf)
Compression mode : Lossy
Stream size : 541 MiB (6%)
Title : Original
Language : English
Default : No
Forced : No

Text #1
ID : 5
Format : UTF-8
Codec ID : S_TEXT/UTF8
Codec ID/Info : UTF-8 Plain Text
Title : Форсированные
Language : Russian
Default : Yes
Forced : No

Text #2
ID : 6
Format : UTF-8
Codec ID : S_TEXT/UTF8
Codec ID/Info : UTF-8 Plain Text
Title : Полные
Language : Russian
Default : No
Forced : No

Text #3
ID : 7
Format : UTF-8
Codec ID : S_TEXT/UTF8
Codec ID/Info : UTF-8 Plain Text
Title : SDH
Language : Russian
Default : No
Forced : No

Text #4
ID : 8
Format : UTF-8
Codec ID : S_TEXT/UTF8
Codec ID/Info : UTF-8 Plain Text
Title : Форсированные
Language : Ukrainian
Default : No
Forced : No

Text #5
ID : 9
Format : UTF-8
Codec ID : S_TEXT/UTF8
Codec ID/Info : UTF-8 Plain Text
Title : Full
Language : English
Default : No
Forced : No

Text #6
ID : 10
Format : UTF-8
Codec ID : S_TEXT/UTF8
Codec ID/Info : UTF-8 Plain Text
Title : SDH
Language : English
Default : No
Forced : No

Menu
00:00:00.000 : : 1. Prologue
00:04:03.033 : : 2. World's Greatest Grandma
00:10:16.407 : : 3. Easy Peasy
00:13:39.860 : : 4. Quantum Entanglement
00:21:25.450 : : 5. Kitchen Conflict
00:29:07.828 : : 6. Bill Foster
00:36:09.083 : : 7. Student Body
00:40:56.579 : : 8. Molecular Disequilibrium
00:50:17.431 : : 9. Truth Serum
00:58:59.077 : : 10. Help From Janet
01:04:56.434 : : 11. Partners
01:12:54.286 : : 12. Misdirection
01:18:32.123 : : 13. San Francisco Car Chase
01:24:44.912 : : 14. Giant-Man
01:29:47.340 : : 15. The Quantum Void
01:36:16.270 : : 16. Extraction
01:43:35.333 : : 17. Happy Endings
01:46:59.829 : : 18. End Credits

Вшитые (softsub):
#1 - Русские Форсированные (включены по умолчанию)
#2 - Русские Полные
#3 - Русские SDH
#4 - Украинские Форсированные
#5 - English Full
#6 - English SDH
Внешние (UTF-8):
#1 - Русские Форсированные (включены по умолчанию)
#2 - Русские SDH
#3 - Украинские Форсированные



info [Профиль]  [ЛС] 

Kvazimodo

Пол: Пол:Муж

Стаж: 9 лет 2 месяца

Сообщений: 87

Бразилия
Рейтинг

post 14-Ноя-2018 04:18 (спустя 25 дней) [-]-2[+]

[Цитировать] 

скажите пожалуйста я этот фильм смогу посмотреть в этом шлеме Htc vive и через какой плеир

_________________
Intel Core i7 7700
GeForce GTX 1080
32Gb DDR4 2400MHz Corsair
Gigabyte GA-Z270-Gaming K3
Блок питания 650W Corsair VS650
DeepCool LUCIFER
info [Профиль]  [ЛС] 
Показать сообщения:    
Ответить на тему

Текущее время: 20-Мар 04:00

Часовой пояс: GMT + 4



Вы не можете начинать темы
Вы не можете отвечать на сообщения
Вы не можете редактировать свои сообщения
Вы не можете удалять свои сообщения
Вы не можете голосовать в опросах
Вы не можете прикреплять файлы к сообщениям
Вы не можете скачивать файлы