Ошибка

Небоскреб / Skyscraper (Роусон Маршалл Тёрбер) [2018 г., боевик, триллер, BDRip 1080p] [Вертикальная анаморфная стереопара|3D-Video|halfOU]

Ответить на тему
 
Автор Сообщение

Suhov

Пол: Пол:Муж

Стаж: 8 лет 11 месяцев

Сообщений: 1184

Россия
Рейтинг

post 12-Окт-2018 17:28 0[+]

[Цитировать] 

Небоскреб / Skyscraper

«The sky is the limit»

Год выпуска: 2018 г.
Страна: США
Жанр: боевик, триллер
Продолжительность: 01:42:24
Перевод: Дублированный [цифровая лицензия iTunes]
Субтитры: Русские, украинские, английские

Режиссер: Роусон Маршалл Тёрбер
В ролях: Дуэйн Джонсон, Нив Кэмпбелл, Чин Хань, Роланд Мюллер, Ноа Тейлор, Байрон Манн, Пабло Шрайбер, МакКенна Робертс, Ной Коттрелл, Ханна Куинливан
Описание:
    Самый высокий и технологичный небоскрёб в мире становится центром огненной катастрофы. Только бывший агент ФБР, а теперь эксперт по безопасности Уилл Сойер может спасти вертикальный город под небесами. Когда нельзя доверять никому, а жизнь семьи в опасности, каждая секунда на счету.

    бюджет: $125 000 000
    сборы в США: $48 668 755
    сборы в мире: + $135 700 000 = $184 368 755
    сборы в России: $7 572 091


    Качество: BDRip 1080p от Ash61
    Формат: mkv
    Видео кодек: avc
    Аудио кодек: AC3
    Видео: V_MPEG4/ISO/AVC, 15.0 Mbps, 1 920х1 080 pixels, 16:9, 23.976 fps, 4:2:0, 8 bits
    Аудио: AC-3, 384 Kbps, 6 channels, 48.0 KHz - Russian
    Аудио: AC-3, 192 Kbps, 2 channels, 48.0 KHz - Ukrainian
    Аудио: AC-3, 448 Kbps, 6 channels, 48.0 KHz - English
    Формат 3D: Half OverUnder / Вертикальная анаморфная стереопара
    Порядок ракурсов: левый ракурс первый

Знаете ли вы, что:
  • Первый некомедийный фильм Роусона Маршалла Тёрбера.
  • На роль режиссёра фильма в то или иное время планировали пригласить Брэда Пейтона и Роланда Эммериха.

Код:

General
Unique ID : 225415665298624854640792694819644327643 (0xA9957A5C749CC5729902DCD8F7F146DB)
Complete name : D:Skyscraper(2018)3D-halfOU(Ash61)iTunesSkyscraper(2018)3D-halfOU(Ash61)iTunes.mkv
Format : Matroska
Format version : Version 2
File size : 11.5 GiB
Duration : 1h 42mn
Overall bit rate : 16.0 Mbps
Movie name : Небоскреб / Skyscraper (2018) in 3D
Encoded date : UTC 2018-10-10 23:54:14
Writing application : mkvmerge v5.8.0 ('No Sleep / Pillow') built on Sep 2 2012 15:37:04
Writing library : libebml v1.2.3 + libmatroska v1.3.0

Video
ID : 1
Format : AVC
Format/Info : Advanced Video Codec
Format profile : High@L4.1
Format settings, CABAC : Yes
Format settings, ReFrames : 4 frames
Codec ID : V_MPEG4/ISO/AVC
Duration : 1h 42mn
Bit rate : 15.0 Mbps
Width : 1 920 pixels
Height : 1 080 pixels
Display aspect ratio : 16:9
Frame rate mode : Constant
Frame rate : 23.976 (24000/1001) fps
Color space : YUV
Chroma subsampling : 4:2:0
Bit depth : 8 bits
Scan type : Progressive
Bits/(Pixel*Frame) : 0.302
Stream size : 10.5 GiB (92%)
Title : BDRip by Ash61
Writing library : x264 core 146 r2538 121396c
Encoding settings : cabac=1 / ref=4 / deblock=1:-3:-3 / analyse=0x3:0x113 / me=umh / subme=10 / psy=1 / psy_rd=1.00:0.00 / mixed_ref=1 / me_range=32 / chroma_me=1 / trellis=2 / 8x8dct=1 / cqm=0 / deadzone=21,11 / fast_pskip=0 / chroma_qp_offset=-2 / threads=12 / lookahead_threads=2 / sliced_threads=0 / nr=0 / decimate=0 / interlaced=0 / bluray_compat=0 / constrained_intra=0 / bframes=9 / b_pyramid=2 / b_adapt=2 / b_bias=0 / direct=3 / weightb=1 / open_gop=0 / weightp=2 / keyint=250 / keyint_min=23 / scenecut=40 / intra_refresh=0 / rc_lookahead=60 / rc=2pass / mbtree=0 / bitrate=15000 / ratetol=1.0 / qcomp=0.70 / qpmin=0 / qpmax=69 / qpstep=4 / cplxblur=20.0 / qblur=0.5 / vbv_maxrate=40000 / vbv_bufsize=30000 / nal_hrd=none / filler=0 / frame-packing=4 / ip_ratio=1.40 / pb_ratio=1.30 / aq=1:0.70
Language : English
Default : Yes
Forced : No

Audio #1
ID : 2
Format : AC-3
Format/Info : Audio Coding 3
Mode extension : CM (complete main)
Format settings, Endianness : Big
Codec ID : A_AC3
Duration : 1h 42mn
Bit rate mode : Constant
Bit rate : 384 Kbps
Channel(s) : 6 channels
Channel positions : Front: L C R, Side: L R, LFE
Sampling rate : 48.0 KHz
Frame rate : 31.250 fps (1536 spf)
Compression mode : Lossy
Stream size : 281 MiB (2%)
Title : Дубляж (iTunes)
Language : Russian
Default : Yes
Forced : No

Audio #2
ID : 3
Format : AC-3
Format/Info : Audio Coding 3
Mode extension : CM (complete main)
Format settings, Endianness : Big
Codec ID : A_AC3
Duration : 1h 42mn
Bit rate mode : Constant
Bit rate : 192 Kbps
Channel(s) : 2 channels
Channel positions : Front: L R
Sampling rate : 48.0 KHz
Frame rate : 31.250 fps (1536 spf)
Compression mode : Lossy
Stream size : 141 MiB (1%)
Title : Дубляж (iTunes)
Language : Ukrainian
Default : No
Forced : No

Audio #3
ID : 4
Format : AC-3
Format/Info : Audio Coding 3
Mode extension : CM (complete main)
Format settings, Endianness : Big
Codec ID : A_AC3
Duration : 1h 42mn
Bit rate mode : Constant
Bit rate : 448 Kbps
Channel(s) : 6 channels
Channel positions : Front: L C R, Side: L R, LFE
Sampling rate : 48.0 KHz
Frame rate : 31.250 fps (1536 spf)
Compression mode : Lossy
Stream size : 328 MiB (3%)
Title : Original
Language : English
Default : No
Forced : No

Text #1
ID : 5
Format : UTF-8
Codec ID : S_TEXT/UTF8
Codec ID/Info : UTF-8 Plain Text
Title : Форсированные [ver.1 Ash61]
Language : Russian
Default : Yes
Forced : No

Text #2
ID : 6
Format : UTF-8
Codec ID : S_TEXT/UTF8
Codec ID/Info : UTF-8 Plain Text
Title : Полные
Language : Russian
Default : No
Forced : No

Text #3
ID : 7
Format : UTF-8
Codec ID : S_TEXT/UTF8
Codec ID/Info : UTF-8 Plain Text
Title : Форсированные (на надписи и китайскую речь) [ver.1 Ash61]
Language : Ukrainian
Default : No
Forced : No

Text #4
ID : 8
Format : UTF-8
Codec ID : S_TEXT/UTF8
Codec ID/Info : UTF-8 Plain Text
Title : Full (extracted from SDH [BD 3D])
Language : English
Default : No
Forced : No

Text #5
ID : 9
Format : UTF-8
Codec ID : S_TEXT/UTF8
Codec ID/Info : UTF-8 Plain Text
Title : SDH (BD 3D)
Language : English
Default : No
Forced : No

Menu
00:00:00.000 : :1
00:04:24.764 : :2
00:10:07.355 : :3
00:16:09.927 : :4
00:21:12.604 : :5
00:25:34.990 : :6
00:30:11.726 : :7
00:35:23.913 : :8
00:40:07.112 : :9
00:47:18.960 : :10
00:52:10.251 : :11
00:58:16.784 : :12
01:02:02.969 : :13
01:05:29.634 : :14
01:09:59.403 : :15
01:14:31.425 : :16
01:17:18.257 : :17
01:23:33.341 : :18
01:27:46.219 : :19
01:32:54.569 : :20

Вшитые (softsub):
#1 - Русские Форсированные [ver.1 Ash61] (включены по умолчанию)
#2 - Русские Полные
#3 - Украинские Форсированные (на надписи и китайскую речь) [ver.1 Ash61]
#4 - English Full
#5 - English SDH
Внешние (UTF-8):
#1 - Русские Форсированные [ver.1 Ash61] (включены по умолчанию)
#2 - Русские Полные
#3 - Украинские Форсированные (на надписи и китайскую речь) [ver.1 Ash61]



info [Профиль]  [ЛС] 

ZerotakerZX

Стаж: 7 лет 8 месяцев

Сообщений: 1183

Рейтинг

post 12-Окт-2018 17:50 (спустя 21 минута) [-]-1[+]

[Цитировать] 

>Первый некомедийный фильм Роусона Маршалла Тёрбера.

Разве?
info [Профиль]  [ЛС] 
Показать сообщения:    
Ответить на тему

Текущее время: 23-Мар 05:29

Часовой пояс: GMT + 4



Вы не можете начинать темы
Вы не можете отвечать на сообщения
Вы не можете редактировать свои сообщения
Вы не можете удалять свои сообщения
Вы не можете голосовать в опросах
Вы не можете прикреплять файлы к сообщениям
Вы не можете скачивать файлы