Ошибка

До окончания фрилича осталось:


Моя геройская академия 3 / Boku no Hero Academia 3 (TV) [01-19 из 25] [2018] [Приключения, комедия, фэнтези, сёнэн, школа] [HDTV720p] [Любительская] JAM CLUB

Ответить на тему
 
Автор Сообщение

Chel90RUS

Пол: Пол:Муж

Стаж: 7 лет 1 месяц

Сообщений: 543

Россия
Рейтинг

post 19-Июл-2018 14:58 0[+]

[Цитировать] 

pic="http://static2.anidub.com/tracker/poster/1c86bc76fc.jpg"
Моя геройская академия 3
My Hero Academia 3 / Boku no Hero Academia 3rd Season / 僕のヒーローアカデミア 3rdシーズン

Год выпуска: 2018
Жанр: Приключения, комедия, фэнтези, сёнэн, школа
Страна: Япония
Тип: HDTV
Продолжительность: 25 серий ~ 24 мин
Дата выпуска: c 07.04.2018
Режиссер: Нагасаки Кэндзи
Автор оригинала / Сценарист: Хорикоси Кохэй
Озвучено: JAM
Перевод: YakuSub Studio
Тайминг и работа со звуком: Fraksinus
Студия: Bones
Видео: MPEG4 Video (H264) 1280x720 23.976fps 1658kbps [V: Alias Data Handler [eng] (h264 main L3.2, yuv420p, 1280x720, 1658 kb/s)]
Аудио: AAC 48000Hz stereo 192kbps [A: English [eng] (aac lc, 48000 Hz, stereo, 192 kb/s)]
General
Complete name : \[AniDub]_Boku_no_Hero_Academia_TV-3_[01]_[720p_x264_Aac]_[JAM].mp4
Format : MPEG-4
Format profile : Base Media
Codec ID : isom (isom)
File size : 324 MiB
Duration : 24 min 26 s
Overall bit rate mode : Variable
Overall bit rate : 1 853 kb/s
Encoded date : UTC 2018-04-07 17:20:10
Tagged date : UTC 2018-04-07 17:20:10
Writing application : Yamb 2.1.0.0

Video
ID : 1
Format : AVC
Format/Info : Advanced Video Codec
Format profile : Main@L3.2
Format settings, CABAC : Yes
Format settings, RefFrames : 3 frames
Codec ID : avc1
Codec ID/Info : Advanced Video Coding
Duration : 24 min 24 s
Bit rate : 1 658 kb/s
Maximum bit rate : 7 905 kb/s
Width : 1 280 pixels
Height : 720 pixels
Display aspect ratio : 16:9
Frame rate mode : Constant
Frame rate : 23.976 (24000/1001) FPS
Standard : NTSC
Color space : YUV
Chroma subsampling : 4:2:0
Bit depth : 8 bits
Scan type : Progressive
Bits/(Pixel*Frame) : 0.075
Stream size : 290 MiB (89%)
Language : English
Encoded date : UTC 2018-04-07 12:28:52
Tagged date : UTC 2018-04-07 17:20:17
Color range : Limited
Color primaries : BT.709
Transfer characteristics : BT.709
Matrix coefficients : BT.709

Audio
ID : 2
Format : AAC
Format/Info : Advanced Audio Codec
Format profile : LC
Codec ID : 40
Duration : 24 min 26 s
Bit rate mode : Variable
Bit rate : 192 kb/s
Maximum bit rate : 196 kb/s
Channel(s) : 2 channels
Channel positions : Front: L R
Sampling rate : 48.0 kHz
Frame rate : 46.875 FPS (1024 SPF)
Compression mode : Lossy
Stream size : 33.6 MiB (10%)
Language : English
Encoded date : UTC 2018-04-07 17:20:16
Tagged date : UTC 2018-04-07 17:20:17


Описание:В третьем сезоне герои отправляются оттачивать свои навыки в лесной тренировочный лагерь.
Добавлена 19 серия, 19/08/2018
info [Профиль]  [ЛС] 

Chel90RUS

Пол: Пол:Муж

Стаж: 7 лет 1 месяц

Сообщений: 543

Россия
Рейтинг

post 22-Июл-2018 12:06 (спустя 2 дня 21 час) [-]0[+]

[Цитировать] 

Добавлена 15 серия, 22/07/2018

_________________
info [Профиль]  [ЛС] 

Chel90RUS

Пол: Пол:Муж

Стаж: 7 лет 1 месяц

Сообщений: 543

Россия
Рейтинг

post 31-Июл-2018 14:03 (спустя 9 дней) [-]0[+]

[Цитировать] 

Добавлена 16 серия, 31/07/2018

_________________
info [Профиль]  [ЛС] 

Chel90RUS

Пол: Пол:Муж

Стаж: 7 лет 1 месяц

Сообщений: 543

Россия
Рейтинг

post 08-Авг-2018 16:42 (спустя 8 дней) [-]0[+]

[Цитировать] 

Добавлена 17 серия, 08/08/2018

_________________
info [Профиль]  [ЛС] 

Chel90RUS

Пол: Пол:Муж

Стаж: 7 лет 1 месяц

Сообщений: 543

Россия
Рейтинг

post 11-Авг-2018 20:17 (спустя 3 дня) [-]0[+]

[Цитировать] 

Добавлена 18 серия, 11/08/2018

_________________
info [Профиль]  [ЛС] 

Chel90RUS

Пол: Пол:Муж

Стаж: 7 лет 1 месяц

Сообщений: 543

Россия
Рейтинг

post 19-Авг-2018 12:36 (спустя 7 дней) [-]0[+]

[Цитировать] 

Добавлена 19 серия, 19/08/2018

_________________
info [Профиль]  [ЛС] 
Показать сообщения:    
Ответить на тему

Текущее время: 19-Авг 17:49

Часовой пояс: GMT + 4



Вы не можете начинать темы
Вы не можете отвечать на сообщения
Вы не можете редактировать свои сообщения
Вы не можете удалять свои сообщения
Вы не можете голосовать в опросах
Вы не можете прикреплять файлы к сообщениям
Вы не можете скачивать файлы