Ошибка

(Score) The Elder Scrolls Soundtrack Collection (by Jeremy Soule, Chip Ellinghaus, Grant Slawson) - 1998-2011 г., TAK (tracks), lossless

Ответить на тему
 
Автор Сообщение

Hobbit38

Пол: Пол:Муж

Стаж: 4 года 1 месяц

Сообщений: 574

Россия
Рейтинг

post 04-Июн-2018 21:23 0[+]

[Цитировать] 


The Elder Scrolls Soundtrack Collection
Жанр: Score | | Страна: USA | Год выпуска: 1998-2011

Композиторы: Various Artists (см. спойлеры)

Аудиокодек: TAK (.tak) | Тип рипа: tracks | Битрейт аудио: lossless

Продолжительность: 04:53:54


Дата выпуска: 1998
Композиторы: Chip Ellinghaus, Grant Slawson
Страна-производитель диска: USA
Издатель (лейбл): Bethesda Softworks
Номер по каталогу: N/A
Продолжительность: 00:16:34



01. Title
02. Ingame 1
03. Ingame 2
04. Ingame 3
05. Ingame 4
06. Ending
 
Exact Audio Copy V0.99 prebeta 4 from 23. January 2008
Отчёт EAC об извлечении, выполненном 14. марта 2009, 21:07
Chip Ellinghaus, Grant Slawson / The Elder Scrolls Adventures: Redguard
Дисковод: MATSHITAUJ-840D Adapter: 1 ID: 0
Режим чтения : Достоверность
Использование точного потока : Да
Отключение кэша аудио : Да
Использование указателей C2 : Нет
Коррекция смещения при чтении : 102
Способность читать области Lead-in и Lead-out : Нет
Заполнение пропущенных сэмплов тишиной : Да
Удаление блоков с тишиной в начале и конце : Нет
При вычислениях CRC использовались нулевые сэмплы : Да
Интерфейс : Установленный внешний ASPI-интерфейс
Выходной формат : Внутренние WAV-операции
Формат сэмплов : 44.100 Гц; 16 бит; стерео
TOC извлечённого CD
Трек | Старт | Длительность | Начальный сектор | Конечный сектор
---------------------------------------------------------------------
1 | 0:00.00 | 51:59.71 | 0 | 233995
2 | 51:59.71 | 5:45.04 | 233996 | 259874
3 | 57:45.00 | 1:06.36 | 259875 | 264860
4 | 58:51.36 | 2:09.55 | 264861 | 274590
5 | 61:01.16 | 2:58.01 | 274591 | 287941
6 | 63:59.17 | 3:38.62 | 287942 | 304353
7 | 67:38.04 | 0:55.39 | 304354 | 308517
Характеристики диапазона извлечения и сообщения об ошибках
Выбранный диапазон
Имя файла C:\ready\Chip Ellinghaus, Grant Slawson - The Elder Scrolls Adventures Redguard.wav
Пиковый уровень 98.5 %
Качество диапазона 100.0 %
CRC копии 914E08EB
Копирование... OK
Ошибок не произошло
Конец отчёта
Дата выпуска: May 01, 2002
Композитор: Jeremy Soule
Страна-производитель диска: USA
Издатель (лейбл): Bethesda Softworks
Номер по каталогу: N/A
Продолжительность: 00:40:29



01. Nerevar Rising (1:56)
02. Bright Spears, Dark Blood (2:09)
03. Over the Next Hill (3:07)
04. Knight's Charge (2:07)
05. Peaceful Waters (3:08)
06. Dance of Swords (2:16)
07. The Road Most Travelled (3:17)
08. Hunter's Pursuit (2:21)
09. Blessing of Vivec (3:18)
10. Ambush! (2:36)
11. Silt Sunrise (3:13)
12. Stormclouds on the Battlefield (2:13)
13. Shed Your Travails (3:15)
14. Drumbeat of the Dunmer (2:05)
15. Caprice (3:28)
 
Exact Audio Copy V0.99 prebeta 4 from 23. January 2008
EAC extraction logfile from 28. April 2008, 1:13
Jeremy Soule / The Elder Scrolls III: Morrowind
Used drive : HL-DT-STDVDRAM GSA-4120B Adapter: 0 ID: 0
Read mode : Secure
Utilize accurate stream : Yes
Defeat audio cache : Yes
Make use of C2 pointers : No
Read offset correction : 667
Overread into Lead-In and Lead-Out : No
Fill up missing offset samples with silence : Yes
Delete leading and trailing silent blocks : No
Null samples used in CRC calculations : Yes
Used interface : Native Win32 interface for Win NT & 2000
Gap handling : Appended to previous track
Used output format : User Defined Encoder
Selected bitrate : 192 kBit/s
Quality : High
Add ID3 tag : No
Command line compressor : E:\MP3 Encoding\flac-1.2.1b-icl\flac.exe
Additional command line options : -V -8 -T "artist=%a" -T "title=%t" -T "album=%g" -T "date=%y" -T "tracknumber=%n" -T "genre=%m" %s
TOC of the extracted CD
Track | Start | Length | Start sector | End sector
---------------------------------------------------------
1 | 0:00.00 | 1:56.14 | 0 | 8713
2 | 1:56.14 | 2:08.55 | 8714 | 18368
3 | 4:04.69 | 3:06.73 | 18369 | 32391
4 | 7:11.67 | 2:07.01 | 32392 | 41917
5 | 9:18.68 | 3:07.74 | 41918 | 56016
6 | 12:26.67 | 2:15.46 | 56017 | 66187
7 | 14:42.38 | 3:17.36 | 66188 | 80998
8 | 17:59.74 | 2:20.45 | 80999 | 91543
9 | 20:20.44 | 3:18.25 | 91544 | 106418
10 | 23:38.69 | 2:35.45 | 106419 | 118088
11 | 26:14.39 | 3:13.27 | 118089 | 132590
12 | 29:27.66 | 2:13.32 | 132591 | 142597
13 | 31:41.23 | 3:15.03 | 142598 | 157225
14 | 34:56.26 | 2:05.17 | 157226 | 166617
15 | 37:01.43 | 3:27.74 | 166618 | 182216
Track 1
Filename C:\2002 - The Elder Scrolls III Morrowind\01-Jeremy_Soule-Nerevar_Rising.wav
Pre-gap length 0:00:02.00
Peak level 100.0 %
Track quality 100.0 %
Test CRC CC6E2491
Copy CRC CC6E2491
Accurately ripped (confidence 6) [29AA16FD]
Copy OK
Track 2
Filename C:\2002 - The Elder Scrolls III Morrowind\02-Jeremy_Soule-Bright_Spears,_Dark_Blood.wav
Pre-gap length 0:00:02.00
Peak level 100.0 %
Track quality 100.0 %
Test CRC D9210E15
Copy CRC D9210E15
Accurately ripped (confidence 7) [0C744D55]
Copy OK
Track 3
Filename C:\2002 - The Elder Scrolls III Morrowind\03-Jeremy_Soule-Over_the_Next_Hill.wav
Pre-gap length 0:00:02.00
Peak level 100.0 %
Track quality 99.9 %
Test CRC 25F04B09
Copy CRC 25F04B09
Accurately ripped (confidence 7) [E842ED0F]
Copy OK
Track 4
Filename C:\2002 - The Elder Scrolls III Morrowind\04-Jeremy_Soule-Knight's_Charge.wav
Pre-gap length 0:00:02.00
Peak level 100.0 %
Track quality 100.0 %
Test CRC 0B180D35
Copy CRC 0B180D35
Accurately ripped (confidence 7) [4191FC35]
Copy OK
Track 5
Filename C:\2002 - The Elder Scrolls III Morrowind\05-Jeremy_Soule-Peaceful_Waters.wav
Pre-gap length 0:00:02.00
Peak level 75.0 %
Track quality 100.0 %
Test CRC F7A9A3F0
Copy CRC F7A9A3F0
Accurately ripped (confidence 7) [25248AF4]
Copy OK
Track 6
Filename C:\2002 - The Elder Scrolls III Morrowind\06-Jeremy_Soule-Dance_of_Swords.wav
Pre-gap length 0:00:02.00
Peak level 100.0 %
Track quality 100.0 %
Test CRC 1191EC1E
Copy CRC 1191EC1E
Accurately ripped (confidence 7) [704F455C]
Copy OK
Track 7
Filename C:\2002 - The Elder Scrolls III Morrowind\07-Jeremy_Soule-The_Road_Most_Travelled.wav
Pre-gap length 0:00:02.00
Peak level 100.0 %
Track quality 100.0 %
Test CRC 064DF885
Copy CRC 064DF885
Accurately ripped (confidence 7) [C4C545CE]
Copy OK
Track 8
Filename C:\2002 - The Elder Scrolls III Morrowind\08-Jeremy_Soule-Hunter's_Pursuit.wav
Pre-gap length 0:00:02.00
Peak level 100.0 %
Track quality 100.0 %
Test CRC FC32E44C
Copy CRC FC32E44C
Accurately ripped (confidence 7) [D0088EFE]
Copy OK
Track 9
Filename C:\2002 - The Elder Scrolls III Morrowind\09-Jeremy_Soule-Blessing_of_Vivec.wav
Pre-gap length 0:00:02.00
Peak level 100.0 %
Track quality 100.0 %
Test CRC FC2B0C51
Copy CRC FC2B0C51
Accurately ripped (confidence 7) [0D822D8B]
Copy OK
Track 10
Filename C:\2002 - The Elder Scrolls III Morrowind\10-Jeremy_Soule-Ambush!.wav
Pre-gap length 0:00:02.00
Peak level 100.0 %
Track quality 100.0 %
Test CRC B7709891
Copy CRC B7709891
Accurately ripped (confidence 7) [C8AA34D4]
Copy OK
Track 11
Filename C:\2002 - The Elder Scrolls III Morrowind\11-Jeremy_Soule-Silt_Sunrise.wav
Pre-gap length 0:00:02.00
Peak level 100.0 %
Track quality 100.0 %
Test CRC 884DBD19
Copy CRC 884DBD19
Accurately ripped (confidence 7) [F019B7FF]
Copy OK
Track 12
Filename C:\2002 - The Elder Scrolls III Morrowind\12-Jeremy_Soule-Stormclouds_on_the_Battlefield.wav
Pre-gap length 0:00:02.00
Peak level 100.0 %
Track quality 100.0 %
Test CRC 7340B8E0
Copy CRC 7340B8E0
Accurately ripped (confidence 7) [E7455C06]
Copy OK
Track 13
Filename C:\2002 - The Elder Scrolls III Morrowind\13-Jeremy_Soule-Shed_Your_Travails.wav
Pre-gap length 0:00:02.00
Peak level 100.0 %
Track quality 100.0 %
Test CRC D4EB2090
Copy CRC D4EB2090
Accurately ripped (confidence 7) [0ACBC7BD]
Copy OK
Track 14
Filename C:\2002 - The Elder Scrolls III Morrowind\14-Jeremy_Soule-Drumbeat_of_the_Dunmer.wav
Pre-gap length 0:00:02.00
Peak level 100.0 %
Track quality 100.0 %
Test CRC AE229B3C
Copy CRC AE229B3C
Accurately ripped (confidence 7) [39CFD80D]
Copy OK
Track 15
Filename C:\2002 - The Elder Scrolls III Morrowind\15-Jeremy_Soule-Caprice.wav
Pre-gap length 0:00:02.00
Peak level 100.0 %
Track quality 100.0 %
Test CRC 174975E0
Copy CRC 174975E0
Accurately ripped (confidence 6) [1D2592DB]
Copy OK
All tracks accurately ripped
No errors occurred
End of status report

Дата выпуска: Nov 11, 2011
Композитор: Jeremy Soule
Страна-производитель диска: USA
Издатель (лейбл): Bethesda Softworks (distributed by Amazon)
Номер по каталогу: DIS-45436-ENG
Продолжительность: 00:17:54



01. Dragonborn 3:55
02. Under an Ancient Sun 3:39
03. The Streets of Whiterun 4:04
04. Sky Above, Voice Within 3:56
05. Dragonsearch 2:20
 
Exact Audio Copy V1.0 beta 3 from 29. August 2011
EAC extraction logfile from 11. November 2011, 15:01
Jeremy Soule / The Elder Scrolls V: Skyrim (Featured Music Selections)
Used drive : TSSTcorpDVD-ROM SH-D162D Adapter: 0 ID: 0
Read mode : Secure
Utilize accurate stream : Yes
Defeat audio cache : Yes
Make use of C2 pointers : No
Read offset correction : 6
Overread into Lead-In and Lead-Out : No
Fill up missing offset samples with silence : Yes
Delete leading and trailing silent blocks : No
Null samples used in CRC calculations : Yes
Used interface : Native Win32 interface for Win NT & 2000
Gap handling : Appended to previous track
Used output format : Internal WAV Routines
Sample format : 44.100 Hz; 16 Bit; Stereo
TOC of the extracted CD
Track | Start | Length | Start sector | End sector
---------------------------------------------------------
1 | 0:00.00 | 3:57.47 | 0 | 17821
2 | 3:57.47 | 3:41.39 | 17822 | 34435
3 | 7:39.11 | 4:06.61 | 34436 | 52946
4 | 11:45.72 | 3:58.64 | 52947 | 70860
5 | 15:44.61 | 2:20.37 | 70861 | 81397
Track 1
Filename C:\skyrim\01-Jeremy Soule-Dragonborn.wav
Pre-gap length 0:00:02.00
Peak level 71.8 %
Extraction speed 3.5 X
Track quality 100.0 %
Test CRC 31DF5BFD
Copy CRC 31DF5BFD
Track not present in AccurateRip database
Copy OK
Track 2
Filename C:\skyrim\02-Jeremy Soule-Under an Ancient Sun.wav
Pre-gap length 0:00:02.00
Peak level 88.0 %
Extraction speed 3.8 X
Track quality 100.0 %
Test CRC 9DCE753D
Copy CRC 9DCE753D
Track not present in AccurateRip database
Copy OK
Track 3
Filename C:\skyrim\03-Jeremy Soule-The Streets of Whiterun.wav
Pre-gap length 0:00:02.00
Peak level 88.4 %
Extraction speed 4.2 X
Track quality 100.0 %
Test CRC EC18047C
Copy CRC EC18047C
Track not present in AccurateRip database
Copy OK
Track 4
Filename C:\skyrim\04-Jeremy Soule-Sky Above, Voice Within.wav
Pre-gap length 0:00:02.00
Peak level 88.2 %
Extraction speed 4.6 X
Track quality 100.0 %
Test CRC A8CE78D9
Copy CRC A8CE78D9
Track not present in AccurateRip database
Copy OK
Track 5
Filename C:\skyrim\05-Jeremy Soule-Dragonsreach.wav
Pre-gap length 0:00:02.00
Peak level 89.1 %
Extraction speed 4.4 X
Track quality 100.0 %
Test CRC B509331F
Copy CRC B509331F
Track not present in AccurateRip database
Copy OK
None of the tracks are present in the AccurateRip database
No errors occurred
End of status report
==== Log checksum 22F6B10A60B63041298DF46BBAF66DA39FDC3499AC42E3233277576D51402A11 ====
Дата выпуска: Nov 11, 2011
Композитор: Jeremy Soule
Страна-производитель диска: USA
Издатель (лейбл): DirectSong
Номер по каталогу: N/A
Продолжительность: 03:38:46

Продолжительность: 01:03:09

01. Dragonborn (3:58)
02. Awake (1:35)
03. From Past to Present (5:06)
04. Unbroken Road (6:26)
05. Ancient Stones (4:48)
06. The City Gates (3:48)
07. Silent Footsteps (2:53)
08. Dragonsreach (2:23)
09. Tooth and Claw (1:51)
10. Under an Ancient Sun (3:44)
11. Death or Sovngarde (3:02)
12. Masser (6:06)
13. Distant Horizons (3:55)
14. Dawn (4:00)
15. The Jerall Mountains (3:22)
16. Steel on Steel (1:45)
17. Secunda (2:05)
18. Imperial Throne (2:23)
 
X Lossless Decoder version 20111113 (137.1)
XLD extraction logfile from 2011-12-05 19:57:22 +0000
Jeremy Soule / Disc 1
Used drive : HL-DT-ST DVDRW GS23N (revision SB03)
Ripper mode : XLD Secure Ripper
Disable audio cache : OK for the drive with a cache less than 1375KiB
Make use of C2 pointers : NO
Read offset correction : 667
Max retry count : 20
Gap status : Analyzed, Appended
TOC of the extracted CD
Track | Start | Length | Start sector | End sector
---------------------------------------------------------
1 | 00:00:00 | 03:57:48 | 0 | 17822
2 | 03:57:48 | 01:34:68 | 17823 | 24940
3 | 05:32:41 | 05:06:01 | 24941 | 47891
4 | 10:38:42 | 06:26:14 | 47892 | 76855
5 | 17:04:56 | 04:47:40 | 76856 | 98420
6 | 21:52:21 | 03:48:05 | 98421 | 115525
7 | 25:40:26 | 02:53:17 | 115526 | 128517
8 | 28:33:43 | 02:22:71 | 128518 | 139238
9 | 30:56:39 | 01:50:62 | 139239 | 147550
10 | 32:47:26 | 03:43:49 | 147551 | 164324
11 | 36:31:00 | 03:02:37 | 164325 | 178011
12 | 39:33:37 | 06:06:32 | 178012 | 205493
13 | 45:39:69 | 03:54:66 | 205494 | 223109
14 | 49:34:60 | 03:59:60 | 223110 | 241094
15 | 53:34:45 | 03:21:64 | 241095 | 256233
16 | 56:56:34 | 01:45:00 | 256234 | 264108
17 | 58:41:34 | 02:05:17 | 264109 | 273500
18 | 60:46:51 | 02:22:63 | 273501 | 284213
AccurateRip Summary
Disc not found in AccurateRip DB.
All Tracks
Album gain : -3.07 dB
Peak : 0.997772
Statistics
Read error : 0
Jitter error (maybe fixed) : 0
Retry sector count : 0
Damaged sector count : 0
Track 01
Filename : /Users/angerZen/Rips/01 Jeremy Soule - Dragonborn.flac
/Users/angerZen/Rips/01 Jeremy Soule - Dragonborn.m4a
/Users/angerZen/Rips/01 Jeremy Soule - Dragonborn(V0).mp3
/Users/angerZen/Rips/01 Jeremy Soule - Dragonborn(LAME 320kbps).mp3
Pre-gap length : 00:02:00
Track gain : -6.11 dB
Peak : 0.987396
CRC32 hash (test run) : 76912B15
CRC32 hash : 76912B15
CRC32 hash (skip zero) : AAF77A02
AccurateRip signature : 31083205
->Track not present in AccurateRip database.
Statistics
Read error : 0
Jitter error (maybe fixed) : 0
Retry sector count : 0
Damaged sector count : 0
Track 02
Filename : /Users/angerZen/Rips/02 Jeremy Soule - Awake.flac
/Users/angerZen/Rips/02 Jeremy Soule - Awake.m4a
/Users/angerZen/Rips/02 Jeremy Soule - Awake(V0).mp3
/Users/angerZen/Rips/02 Jeremy Soule - Awake(LAME 320kbps).mp3
Pre-gap length : 00:02:00
Track gain : -2.48 dB
Peak : 0.880920
CRC32 hash (test run) : 403B6323
CRC32 hash : 403B6323
CRC32 hash (skip zero) : 9F6EB241
AccurateRip signature : 9B728941
->Track not present in AccurateRip database.
Statistics
Read error : 0
Jitter error (maybe fixed) : 0
Retry sector count : 0
Damaged sector count : 0
Track 03
Filename : /Users/angerZen/Rips/03 Jeremy Soule - From Past to Present.flac
/Users/angerZen/Rips/03 Jeremy Soule - From Past to Present.m4a
/Users/angerZen/Rips/03 Jeremy Soule - From Past to Present(V0).mp3
/Users/angerZen/Rips/03 Jeremy Soule - From Past to Present(LAME 320kbps).mp3
Pre-gap length : 00:02:00
Track gain : -1.67 dB
Peak : 0.875488
CRC32 hash (test run) : BC892302
CRC32 hash : BC892302
CRC32 hash (skip zero) : 7EDCA544
AccurateRip signature : 91F68C0C
->Track not present in AccurateRip database.
Statistics
Read error : 0
Jitter error (maybe fixed) : 0
Retry sector count : 0
Damaged sector count : 0
Track 04
Filename : /Users/angerZen/Rips/04 Jeremy Soule - Unbroken Road.flac
/Users/angerZen/Rips/04 Jeremy Soule - Unbroken Road.m4a
/Users/angerZen/Rips/04 Jeremy Soule - Unbroken Road(V0).mp3
/Users/angerZen/Rips/04 Jeremy Soule - Unbroken Road(LAME 320kbps).mp3
Pre-gap length : 00:02:00
Track gain : -0.19 dB
Peak : 0.924500
CRC32 hash (test run) : A014E95C
CRC32 hash : A014E95C
CRC32 hash (skip zero) : C8977148
AccurateRip signature : 6C745D52
->Track not present in AccurateRip database.
Statistics
Read error : 0
Jitter error (maybe fixed) : 0
Retry sector count : 0
Damaged sector count : 0
Track 05
Filename : /Users/angerZen/Rips/05 Jeremy Soule - Ancient Stones.flac
/Users/angerZen/Rips/05 Jeremy Soule - Ancient Stones.m4a
/Users/angerZen/Rips/05 Jeremy Soule - Ancient Stones(V0).mp3
/Users/angerZen/Rips/05 Jeremy Soule - Ancient Stones(LAME 320kbps).mp3
Pre-gap length : 00:02:00
Track gain : 0.01 dB
Peak : 0.925171
CRC32 hash (test run) : 918ED319
CRC32 hash : 918ED319
CRC32 hash (skip zero) : 3FA38B28
AccurateRip signature : F0A89236
->Track not present in AccurateRip database.
Statistics
Read error : 0
Jitter error (maybe fixed) : 0
Retry sector count : 0
Damaged sector count : 0
Track 06
Filename : /Users/angerZen/Rips/06 Jeremy Soule - The City Gates.flac
/Users/angerZen/Rips/06 Jeremy Soule - The City Gates.m4a
/Users/angerZen/Rips/06 Jeremy Soule - The City Gates(V0).mp3
/Users/angerZen/Rips/06 Jeremy Soule - The City Gates(LAME 320kbps).mp3
Pre-gap length : 00:02:00
Track gain : -2.70 dB
Peak : 0.862396
CRC32 hash (test run) : 229E533F
CRC32 hash : 229E533F
CRC32 hash (skip zero) : 2E3BF7CC
AccurateRip signature : 13E77B78
->Track not present in AccurateRip database.
Statistics
Read error : 0
Jitter error (maybe fixed) : 0
Retry sector count : 0
Damaged sector count : 0
Track 07
Filename : /Users/angerZen/Rips/07 Jeremy Soule - Silent Footsteps.flac
/Users/angerZen/Rips/07 Jeremy Soule - Silent Footsteps.m4a
/Users/angerZen/Rips/07 Jeremy Soule - Silent Footsteps(V0).mp3
/Users/angerZen/Rips/07 Jeremy Soule - Silent Footsteps(LAME 320kbps).mp3
Pre-gap length : 00:02:00
Track gain : 6.56 dB
Peak : 0.573914
CRC32 hash (test run) : B80AA501
CRC32 hash : B80AA501
CRC32 hash (skip zero) : 4C89093F
AccurateRip signature : 9774FAB1
->Track not present in AccurateRip database.
Statistics
Read error : 0
Jitter error (maybe fixed) : 0
Retry sector count : 0
Damaged sector count : 0
Track 08
Filename : /Users/angerZen/Rips/08 Jeremy Soule - Dragonsreach.flac
/Users/angerZen/Rips/08 Jeremy Soule - Dragonsreach.m4a
/Users/angerZen/Rips/08 Jeremy Soule - Dragonsreach(V0).mp3
/Users/angerZen/Rips/08 Jeremy Soule - Dragonsreach(LAME 320kbps).mp3
Pre-gap length : 00:02:00
Track gain : -4.20 dB
Peak : 0.996552
CRC32 hash (test run) : 55284B9B
CRC32 hash : 55284B9B
CRC32 hash (skip zero) : D970BE6B
AccurateRip signature : 24E8AC53
->Track not present in AccurateRip database.
Statistics
Read error : 0
Jitter error (maybe fixed) : 0
Retry sector count : 0
Damaged sector count : 0
Track 09
Filename : /Users/angerZen/Rips/09 Jeremy Soule - Tooth and Claw.flac
/Users/angerZen/Rips/09 Jeremy Soule - Tooth and Claw.m4a
/Users/angerZen/Rips/09 Jeremy Soule - Tooth and Claw(V0).mp3
/Users/angerZen/Rips/09 Jeremy Soule - Tooth and Claw(LAME 320kbps).mp3
Pre-gap length : 00:02:00
Track gain : -2.86 dB
Peak : 0.997772
CRC32 hash (test run) : EE7D8950
CRC32 hash : EE7D8950
CRC32 hash (skip zero) : D22277B8
AccurateRip signature : B2CF3AE2
->Track not present in AccurateRip database.
Statistics
Read error : 0
Jitter error (maybe fixed) : 0
Retry sector count : 0
Damaged sector count : 0
Track 10
Filename : /Users/angerZen/Rips/10 Jeremy Soule - Under an Ancient Sun.flac
/Users/angerZen/Rips/10 Jeremy Soule - Under an Ancient Sun.m4a
/Users/angerZen/Rips/10 Jeremy Soule - Under an Ancient Sun(V0).mp3
/Users/angerZen/Rips/10 Jeremy Soule - Under an Ancient Sun(LAME 320kbps).mp3
Pre-gap length : 00:02:00
Track gain : 10.96 dB
Peak : 0.233490
CRC32 hash (test run) : 54158A79
CRC32 hash : 54158A79
CRC32 hash (skip zero) : 7F3AC014
AccurateRip signature : 3B32E7D7
->Track not present in AccurateRip database.
Statistics
Read error : 0
Jitter error (maybe fixed) : 0
Retry sector count : 0
Damaged sector count : 0
Track 11
Filename : /Users/angerZen/Rips/11 Jeremy Soule - Death or Sovngarde.flac
/Users/angerZen/Rips/11 Jeremy Soule - Death or Sovngarde.m4a
/Users/angerZen/Rips/11 Jeremy Soule - Death or Sovngarde(V0).mp3
/Users/angerZen/Rips/11 Jeremy Soule - Death or Sovngarde(LAME 320kbps).mp3
Pre-gap length : 00:02:00
Track gain : -7.15 dB
Peak : 0.989380
CRC32 hash (test run) : 16B9686F
CRC32 hash : 16B9686F
CRC32 hash (skip zero) : A81E7A57
AccurateRip signature : B7E3C630
->Track not present in AccurateRip database.
Statistics
Read error : 0
Jitter error (maybe fixed) : 0
Retry sector count : 0
Damaged sector count : 0
Track 12
Filename : /Users/angerZen/Rips/12 Jeremy Soule - Masser.flac
/Users/angerZen/Rips/12 Jeremy Soule - Masser.m4a
/Users/angerZen/Rips/12 Jeremy Soule - Masser(V0).mp3
/Users/angerZen/Rips/12 Jeremy Soule - Masser(LAME 320kbps).mp3
Pre-gap length : 00:02:00
Track gain : 0.97 dB
Peak : 0.979462
CRC32 hash (test run) : DE64FFE0
CRC32 hash : DE64FFE0
CRC32 hash (skip zero) : F85B16EA
AccurateRip signature : D0401D29
->Track not present in AccurateRip database.
Statistics
Read error : 0
Jitter error (maybe fixed) : 0
Retry sector count : 0
Damaged sector count : 0
Track 13
Filename : /Users/angerZen/Rips/13 Jeremy Soule - Distant Horizons.flac
/Users/angerZen/Rips/13 Jeremy Soule - Distant Horizons.m4a
/Users/angerZen/Rips/13 Jeremy Soule - Distant Horizons(V0).mp3
/Users/angerZen/Rips/13 Jeremy Soule - Distant Horizons(LAME 320kbps).mp3
Pre-gap length : 00:02:00
Track gain : -0.17 dB
Peak : 0.888153
CRC32 hash (test run) : 5DC0D54F
CRC32 hash : 5DC0D54F
CRC32 hash (skip zero) : 8F63622D
AccurateRip signature : F10043E6
->Track not present in AccurateRip database.
Statistics
Read error : 0
Jitter error (maybe fixed) : 0
Retry sector count : 0
Damaged sector count : 0
Track 14
Filename : /Users/angerZen/Rips/14 Jeremy Soule - Dawn.flac
/Users/angerZen/Rips/14 Jeremy Soule - Dawn.m4a
/Users/angerZen/Rips/14 Jeremy Soule - Dawn(V0).mp3
/Users/angerZen/Rips/14 Jeremy Soule - Dawn(LAME 320kbps).mp3
Pre-gap length : 00:02:00
Track gain : 2.04 dB
Peak : 0.714661
CRC32 hash (test run) : 727E4BF8
CRC32 hash : 727E4BF8
CRC32 hash (skip zero) : E820C90D
AccurateRip signature : 92B95D14
->Track not present in AccurateRip database.
Statistics
Read error : 0
Jitter error (maybe fixed) : 0
Retry sector count : 0
Damaged sector count : 0
Track 15
Filename : /Users/angerZen/Rips/15 Jeremy Soule - The Jerall Mountains.flac
/Users/angerZen/Rips/15 Jeremy Soule - The Jerall Mountains.m4a
/Users/angerZen/Rips/15 Jeremy Soule - The Jerall Mountains(V0).mp3
/Users/angerZen/Rips/15 Jeremy Soule - The Jerall Mountains(LAME 320kbps).mp3
Pre-gap length : 00:02:00
Track gain : -0.04 dB
Peak : 0.742279
CRC32 hash (test run) : 3E1B9074
CRC32 hash : 3E1B9074
CRC32 hash (skip zero) : 7E1775C7
AccurateRip signature : 14FBA910
->Track not present in AccurateRip database.
Statistics
Read error : 0
Jitter error (maybe fixed) : 0
Retry sector count : 0
Damaged sector count : 0
Track 16
Filename : /Users/angerZen/Rips/16 Jeremy Soule - Steel on Steel.flac
/Users/angerZen/Rips/16 Jeremy Soule - Steel on Steel.m4a
/Users/angerZen/Rips/16 Jeremy Soule - Steel on Steel(V0).mp3
/Users/angerZen/Rips/16 Jeremy Soule - Steel on Steel(LAME 320kbps).mp3
Pre-gap length : 00:02:00
Track gain : -3.62 dB
Peak : 0.981323
CRC32 hash (test run) : 79970FBA
CRC32 hash : 79970FBA
CRC32 hash (skip zero) : 996997FA
AccurateRip signature : 7D4997FB
->Track not present in AccurateRip database.
Statistics
Read error : 0
Jitter error (maybe fixed) : 0
Retry sector count : 0
Damaged sector count : 0
Track 17
Filename : /Users/angerZen/Rips/17 Jeremy Soule - Secunda.flac
/Users/angerZen/Rips/17 Jeremy Soule - Secunda.m4a
/Users/angerZen/Rips/17 Jeremy Soule - Secunda(V0).mp3
/Users/angerZen/Rips/17 Jeremy Soule - Secunda(LAME 320kbps).mp3
Pre-gap length : 00:02:00
Track gain : 1.14 dB
Peak : 0.600159
CRC32 hash (test run) : 7D02654B
CRC32 hash : 7D02654B
CRC32 hash (skip zero) : 7F3E649E
AccurateRip signature : 795F5833
->Track not present in AccurateRip database.
Statistics
Read error : 0
Jitter error (maybe fixed) : 0
Retry sector count : 0
Damaged sector count : 0
Track 18
Filename : /Users/angerZen/Rips/18 Jeremy Soule - Imperial Throne.flac
/Users/angerZen/Rips/18 Jeremy Soule - Imperial Throne.m4a
/Users/angerZen/Rips/18 Jeremy Soule - Imperial Throne(V0).mp3
/Users/angerZen/Rips/18 Jeremy Soule - Imperial Throne(LAME 320kbps).mp3
Pre-gap length : 00:02:00
Track gain : 5.33 dB
Peak : 0.533630
CRC32 hash (test run) : E1E9977B
CRC32 hash : E1E9977B
CRC32 hash (skip zero) : F651C210
AccurateRip signature : 305C3557
->Track not present in AccurateRip database.
Statistics
Read error : 0
Jitter error (maybe fixed) : 0
Retry sector count : 0
Damaged sector count : 0
No errors occurred
End of status report
Продолжительность: 00:56:12

01. Frostfall (3:28)
02. Night without Stars (0:43)
03. Into Darkness (2:55)
04. Kyne's Peace (3:52)
05. Unbound (1:35)
06. Far Horizons (5:33)
07. A Winter's Tale (3:22)
08. The Bannered Mare (2:30)
09. The Streets of Whiterun (4:07)
10. One They Fear (3:16)
11. The White River (3:31)
12. Silence Unbroken (2:24)
13. Standing Stones (6:39)
14. Beneath the Ice (4:16)
15. Tundra (3:52)
16. Journey's End (4:10)
 
X Lossless Decoder version 20111113 (137.1)
XLD extraction logfile from 2011-12-05 20:36:09 +0000
Jeremy Soule / Disc 2
Used drive : HL-DT-ST DVDRW GS23N (revision SB03)
Ripper mode : XLD Secure Ripper
Disable audio cache : OK for the drive with a cache less than 1375KiB
Make use of C2 pointers : NO
Read offset correction : 667
Max retry count : 20
Gap status : Analyzed, Appended
TOC of the extracted CD
Track | Start | Length | Start sector | End sector
---------------------------------------------------------
1 | 00:00:00 | 03:28:26 | 0 | 15625
2 | 03:28:26 | 00:43:32 | 15626 | 18882
3 | 04:11:58 | 02:54:56 | 18883 | 31988
4 | 07:06:39 | 03:51:39 | 31989 | 49352
5 | 10:58:03 | 01:34:46 | 49353 | 56448
6 | 12:32:49 | 05:33:36 | 56449 | 81459
7 | 18:06:10 | 03:21:65 | 81460 | 96599
8 | 21:28:00 | 02:30:05 | 96600 | 107854
9 | 23:58:05 | 04:06:64 | 107855 | 126368
10 | 28:04:69 | 03:16:10 | 126369 | 141078
11 | 31:21:04 | 03:31:08 | 141079 | 156911
12 | 34:52:12 | 02:23:64 | 156912 | 167700
13 | 37:16:01 | 06:38:63 | 167701 | 197613
14 | 43:54:64 | 04:16:00 | 197614 | 216813
15 | 48:10:64 | 03:51:38 | 216814 | 234176
16 | 52:02:27 | 04:09:68 | 234177 | 252919
AccurateRip Summary
Disc not found in AccurateRip DB.
All Tracks
Album gain : -2.45 dB
Peak : 1.000000
Statistics
Read error : 0
Jitter error (maybe fixed) : 0
Retry sector count : 0
Damaged sector count : 0
Track 01
Filename : /Users/angerZen/Rips/01 Jeremy Soule - Frostfall.flac
/Users/angerZen/Rips/01 Jeremy Soule - Frostfall.m4a
/Users/angerZen/Rips/01 Jeremy Soule - Frostfall(V0).mp3
/Users/angerZen/Rips/01 Jeremy Soule - Frostfall(LAME 320kbps).mp3
Pre-gap length : 00:02:00
Track gain : -5.56 dB
Peak : 0.989929
CRC32 hash (test run) : 17BD2065
CRC32 hash : 17BD2065
CRC32 hash (skip zero) : 275FF941
AccurateRip signature : CC0A5A03
->Track not present in AccurateRip database.
Statistics
Read error : 0
Jitter error (maybe fixed) : 0
Retry sector count : 0
Damaged sector count : 0
Track 02
Filename : /Users/angerZen/Rips/02 Jeremy Soule - Night without Stars.flac
/Users/angerZen/Rips/02 Jeremy Soule - Night without Stars.m4a
/Users/angerZen/Rips/02 Jeremy Soule - Night without Stars(V0).mp3
/Users/angerZen/Rips/02 Jeremy Soule - Night without Stars(LAME 320kbps).mp3
Pre-gap length : 00:02:00
Track gain : 4.33 dB
Peak : 0.983795
CRC32 hash (test run) : CE6A2B58
CRC32 hash : CE6A2B58
CRC32 hash (skip zero) : 31F9C211
AccurateRip signature : 778ADDF4
->Track not present in AccurateRip database.
Statistics
Read error : 0
Jitter error (maybe fixed) : 0
Retry sector count : 0
Damaged sector count : 0
Track 03
Filename : /Users/angerZen/Rips/03 Jeremy Soule - Into Darkness.flac
/Users/angerZen/Rips/03 Jeremy Soule - Into Darkness.m4a
/Users/angerZen/Rips/03 Jeremy Soule - Into Darkness(V0).mp3
/Users/angerZen/Rips/03 Jeremy Soule - Into Darkness(LAME 320kbps).mp3
Pre-gap length : 00:02:00
Track gain : 8.36 dB
Peak : 0.988220
CRC32 hash (test run) : 1B058CAC
CRC32 hash : 1B058CAC
CRC32 hash (skip zero) : 86DB9273
AccurateRip signature : F7BBFEF5
->Track not present in AccurateRip database.
Statistics
Read error : 0
Jitter error (maybe fixed) : 0
Retry sector count : 0
Damaged sector count : 0
Track 04
Filename : /Users/angerZen/Rips/04 Jeremy Soule - Kyne's Peace.flac
/Users/angerZen/Rips/04 Jeremy Soule - Kyne's Peace.m4a
/Users/angerZen/Rips/04 Jeremy Soule - Kyne's Peace(V0).mp3
/Users/angerZen/Rips/04 Jeremy Soule - Kyne's Peace(LAME 320kbps).mp3
Pre-gap length : 00:02:00
Track gain : 1.92 dB
Peak : 0.553223
CRC32 hash (test run) : 1607D978
CRC32 hash : 1607D978
CRC32 hash (skip zero) : 2267C431
AccurateRip signature : C28DB3FA
->Track not present in AccurateRip database.
Statistics
Read error : 0
Jitter error (maybe fixed) : 0
Retry sector count : 0
Damaged sector count : 0
Track 05
Filename : /Users/angerZen/Rips/05 Jeremy Soule - Unbound.flac
/Users/angerZen/Rips/05 Jeremy Soule - Unbound.m4a
/Users/angerZen/Rips/05 Jeremy Soule - Unbound(V0).mp3
/Users/angerZen/Rips/05 Jeremy Soule - Unbound(LAME 320kbps).mp3
Pre-gap length : 00:02:00
Track gain : 2.20 dB
Peak : 0.798615
CRC32 hash (test run) : 292A6A82
CRC32 hash : 292A6A82
CRC32 hash (skip zero) : AA964F3F
AccurateRip signature : 854ACC66
->Track not present in AccurateRip database.
Statistics
Read error : 0
Jitter error (maybe fixed) : 0
Retry sector count : 0
Damaged sector count : 0
Track 06
Filename : /Users/angerZen/Rips/06 Jeremy Soule - Far Horizons.flac
/Users/angerZen/Rips/06 Jeremy Soule - Far Horizons.m4a
/Users/angerZen/Rips/06 Jeremy Soule - Far Horizons(V0).mp3
/Users/angerZen/Rips/06 Jeremy Soule - Far Horizons(LAME 320kbps).mp3
Pre-gap length : 00:02:00
Track gain : -0.90 dB
Peak : 0.918762
CRC32 hash (test run) : 009EC475
CRC32 hash : 009EC475
CRC32 hash (skip zero) : 51F4985E
AccurateRip signature : FA53269E
->Track not present in AccurateRip database.
Statistics
Read error : 0
Jitter error (maybe fixed) : 0
Retry sector count : 0
Damaged sector count : 0
Track 07
Filename : /Users/angerZen/Rips/07 Jeremy Soule - A Winter's Tale.flac
/Users/angerZen/Rips/07 Jeremy Soule - A Winter's Tale.m4a
/Users/angerZen/Rips/07 Jeremy Soule - A Winter's Tale(V0).mp3
/Users/angerZen/Rips/07 Jeremy Soule - A Winter's Tale(LAME 320kbps).mp3
Pre-gap length : 00:02:00
Track gain : 6.35 dB
Peak : 0.439880
CRC32 hash (test run) : 57545B81
CRC32 hash : 57545B81
CRC32 hash (skip zero) : 612F319A
AccurateRip signature : A0013ED3
->Track not present in AccurateRip database.
Statistics
Read error : 0
Jitter error (maybe fixed) : 0
Retry sector count : 0
Damaged sector count : 0
Track 08
Filename : /Users/angerZen/Rips/08 Jeremy Soule - The Bannered Mare.flac
/Users/angerZen/Rips/08 Jeremy Soule - The Bannered Mare.m4a
/Users/angerZen/Rips/08 Jeremy Soule - The Bannered Mare(V0).mp3
/Users/angerZen/Rips/08 Jeremy Soule - The Bannered Mare(LAME 320kbps).mp3
Pre-gap length : 00:02:00
Track gain : 7.72 dB
Peak : 0.282898
CRC32 hash (test run) : E855C203
CRC32 hash : E855C203
CRC32 hash (skip zero) : 6E6DBA1C
AccurateRip signature : AF8B2E3D
->Track not present in AccurateRip database.
Statistics
Read error : 0
Jitter error (maybe fixed) : 0
Retry sector count : 0
Damaged sector count : 0
Track 09
Filename : /Users/angerZen/Rips/09 Jeremy Soule - The Streets of Whiterun.flac
/Users/angerZen/Rips/09 Jeremy Soule - The Streets of Whiterun.m4a
/Users/angerZen/Rips/09 Jeremy Soule - The Streets of Whiterun(V0).mp3
/Users/angerZen/Rips/09 Jeremy Soule - The Streets of Whiterun(LAME 320kbps).mp3
Pre-gap length : 00:02:00
Track gain : -5.08 dB
Peak : 0.989319
CRC32 hash (test run) : C0D9DCA8
CRC32 hash : C0D9DCA8
CRC32 hash (skip zero) : BAB7F5F3
AccurateRip signature : FAE6B438
->Track not present in AccurateRip database.
Statistics
Read error : 0
Jitter error (maybe fixed) : 0
Retry sector count : 0
Damaged sector count : 0
Track 10
Filename : /Users/angerZen/Rips/10 Jeremy Soule - One They Fear.flac
/Users/angerZen/Rips/10 Jeremy Soule - One They Fear.m4a
/Users/angerZen/Rips/10 Jeremy Soule - One They Fear(V0).mp3
/Users/angerZen/Rips/10 Jeremy Soule - One They Fear(LAME 320kbps).mp3
Pre-gap length : 00:02:00
Track gain : -6.71 dB
Peak : 1.000000
CRC32 hash (test run) : 7E939081
CRC32 hash : 7E939081
CRC32 hash (skip zero) : 3CCD9439
AccurateRip signature : 36AA4701
->Track not present in AccurateRip database.
Statistics
Read error : 0
Jitter error (maybe fixed) : 0
Retry sector count : 0
Damaged sector count : 0
Track 11
Filename : /Users/angerZen/Rips/11 Jeremy Soule - The White River.flac
/Users/angerZen/Rips/11 Jeremy Soule - The White River.m4a
/Users/angerZen/Rips/11 Jeremy Soule - The White River(V0).mp3
/Users/angerZen/Rips/11 Jeremy Soule - The White River(LAME 320kbps).mp3
Pre-gap length : 00:02:00
Track gain : 1.01 dB
Peak : 0.987732
CRC32 hash (test run) : 20F9532E
CRC32 hash : 20F9532E
CRC32 hash (skip zero) : BF25AF59
AccurateRip signature : 1F93B367
->Track not present in AccurateRip database.
Statistics
Read error : 0
Jitter error (maybe fixed) : 0
Retry sector count : 0
Damaged sector count : 0
Track 12
Filename : /Users/angerZen/Rips/12 Jeremy Soule - Silence Unbroken.flac
/Users/angerZen/Rips/12 Jeremy Soule - Silence Unbroken.m4a
/Users/angerZen/Rips/12 Jeremy Soule - Silence Unbroken(V0).mp3
/Users/angerZen/Rips/12 Jeremy Soule - Silence Unbroken(LAME 320kbps).mp3
Pre-gap length : 00:02:00
Track gain : 2.31 dB
Peak : 0.988220
CRC32 hash (test run) : C5B95C03
CRC32 hash : C5B95C03
CRC32 hash (skip zero) : 6B5064BF
AccurateRip signature : 2CCEF1A7
->Track not present in AccurateRip database.
Statistics
Read error : 0
Jitter error (maybe fixed) : 0
Retry sector count : 0
Damaged sector count : 0
Track 13
Filename : /Users/angerZen/Rips/13 Jeremy Soule - Standing Stones.flac
/Users/angerZen/Rips/13 Jeremy Soule - Standing Stones.m4a
/Users/angerZen/Rips/13 Jeremy Soule - Standing Stones(V0).mp3
/Users/angerZen/Rips/13 Jeremy Soule - Standing Stones(LAME 320kbps).mp3
Pre-gap length : 00:02:00
Track gain : 1.49 dB
Peak : 0.616455
CRC32 hash (test run) : 8E1A7AF4
CRC32 hash : 8E1A7AF4
CRC32 hash (skip zero) : F7FE0346
AccurateRip signature : 3535F458
->Track not present in AccurateRip database.
Statistics
Read error : 0
Jitter error (maybe fixed) : 0
Retry sector count : 0
Damaged sector count : 0
Track 14
Filename : /Users/angerZen/Rips/14 Jeremy Soule - Beneath the Ice.flac
/Users/angerZen/Rips/14 Jeremy Soule - Beneath the Ice.m4a
/Users/angerZen/Rips/14 Jeremy Soule - Beneath the Ice(V0).mp3
/Users/angerZen/Rips/14 Jeremy Soule - Beneath the Ice(LAME 320kbps).mp3
Pre-gap length : 00:02:00
Track gain : 1.81 dB
Peak : 0.741180
CRC32 hash (test run) : B0EB5DA0
CRC32 hash : B0EB5DA0
CRC32 hash (skip zero) : FC4D2C04
AccurateRip signature : 17D9C4F8
->Track not present in AccurateRip database.
Statistics
Read error : 0
Jitter error (maybe fixed) : 0
Retry sector count : 0
Damaged sector count : 0
Track 15
Filename : /Users/angerZen/Rips/15 Jeremy Soule - Tundra.flac
/Users/angerZen/Rips/15 Jeremy Soule - Tundra.m4a
/Users/angerZen/Rips/15 Jeremy Soule - Tundra(V0).mp3
/Users/angerZen/Rips/15 Jeremy Soule - Tundra(LAME 320kbps).mp3
Pre-gap length : 00:02:00
Track gain : 2.59 dB
Peak : 0.658630
CRC32 hash (test run) : 8797919B
CRC32 hash : 8797919B
CRC32 hash (skip zero) : 16046976
AccurateRip signature : 967C75CC
->Track not present in AccurateRip database.
Statistics
Read error : 0
Jitter error (maybe fixed) : 0
Retry sector count : 0
Damaged sector count : 0
Track 16
Filename : /Users/angerZen/Rips/16 Jeremy Soule - Journey's End.flac
/Users/angerZen/Rips/16 Jeremy Soule - Journey's End.m4a
/Users/angerZen/Rips/16 Jeremy Soule - Journey's End(V0).mp3
/Users/angerZen/Rips/16 Jeremy Soule - Journey's End(LAME 320kbps).mp3
Pre-gap length : 00:02:00
Track gain : 3.48 dB
Peak : 0.563080
CRC32 hash (test run) : B0A7B290
CRC32 hash : B0A7B290
CRC32 hash (skip zero) : 1AA17980
AccurateRip signature : 2140A91E
->Track not present in AccurateRip database.
Statistics
Read error : 0
Jitter error (maybe fixed) : 0
Retry sector count : 0
Damaged sector count : 0
No errors occurred
End of status report
Продолжительность: 00:56:49

01. Before the Storm (1:09)
02. A Chance Meeting (3:12)
03. Out of the Cold (3:04)
04. Around the Fire (3:12)
05. Shadows and Echoes (2:21)
06. Caught off Guard (1:13)
07. Aurora (7:23)
08. Blood and Steel (2:12)
09. Towers and Shadows (2:24)
10. Seven Thousand Steps (1:08)
11. Solitude (2:12)
12. Watch the Skies (2:23)
13. The Gathering Storm (2:55)
14. Sky Above, Voice Within (3:59)
15. Death in the Darkness (2:38)
16. Shattered Shields (2:40)
17. Sovngarde (3:38)
18. Wind Guide You (9:05)
 
X Lossless Decoder version 20111113 (137.1)
XLD extraction logfile from 2011-12-05 21:31:11 +0000
Jeremy Soule / Disc 3
Used drive : HL-DT-ST DVDRW GS23N (revision SB03)
Ripper mode : XLD Secure Ripper
Disable audio cache : OK for the drive with a cache less than 1375KiB
Make use of C2 pointers : NO
Read offset correction : 667
Max retry count : 20
Gap status : Analyzed, Appended
TOC of the extracted CD
Track | Start | Length | Start sector | End sector
---------------------------------------------------------
1 | 00:00:00 | 01:09:04 | 0 | 5178
2 | 01:09:04 | 03:11:67 | 5179 | 19570
3 | 04:20:71 | 03:04:26 | 19571 | 33396
4 | 07:25:22 | 03:11:70 | 33397 | 47791
5 | 10:37:17 | 02:21:27 | 47792 | 58393
6 | 12:58:44 | 01:12:46 | 58394 | 63839
7 | 14:11:15 | 07:23:35 | 63840 | 97099
8 | 21:34:50 | 02:12:29 | 97100 | 107028
9 | 23:47:04 | 02:23:59 | 107029 | 117812
10 | 26:10:63 | 01:08:21 | 117813 | 122933
11 | 27:19:09 | 02:12:18 | 122934 | 132851
12 | 29:31:27 | 02:22:55 | 132852 | 143556
13 | 31:54:07 | 02:55:19 | 143557 | 156700
14 | 34:49:26 | 03:58:65 | 156701 | 174615
15 | 38:48:16 | 02:37:51 | 174616 | 186441
16 | 41:25:67 | 02:40:19 | 186442 | 198460
17 | 44:06:11 | 03:38:25 | 198461 | 214835
18 | 47:44:36 | 09:05:21 | 214836 | 255731
AccurateRip Summary
Disc not found in AccurateRip DB.
All Tracks
Album gain : -2.93 dB
Peak : 0.999969
Statistics
Read error : 0
Jitter error (maybe fixed) : 0
Retry sector count : 0
Damaged sector count : 0
Track 01
Filename : /Users/angerZen/Rips/01 Jeremy Soule - Before the Storm.flac
/Users/angerZen/Rips/01 Jeremy Soule - Before the Storm.m4a
/Users/angerZen/Rips/01 Jeremy Soule - Before the Storm(V0).mp3
/Users/angerZen/Rips/01 Jeremy Soule - Before the Storm(LAME 320kbps).mp3
Pre-gap length : 00:02:00
Track gain : 0.20 dB
Peak : 0.989502
CRC32 hash (test run) : D15ABB36
CRC32 hash : D15ABB36
CRC32 hash (skip zero) : F013C5FE
AccurateRip signature : 3A4D264C
->Track not present in AccurateRip database.
Statistics
Read error : 0
Jitter error (maybe fixed) : 0
Retry sector count : 0
Damaged sector count : 0
Track 02
Filename : /Users/angerZen/Rips/02 Jeremy Soule - A Chance Meeting.flac
/Users/angerZen/Rips/02 Jeremy Soule - A Chance Meeting.m4a
/Users/angerZen/Rips/02 Jeremy Soule - A Chance Meeting(V0).mp3
/Users/angerZen/Rips/02 Jeremy Soule - A Chance Meeting(LAME 320kbps).mp3
Pre-gap length : 00:02:00
Track gain : 8.96 dB
Peak : 0.331268
CRC32 hash (test run) : C38BED8F
CRC32 hash : C38BED8F
CRC32 hash (skip zero) : 562BADC4
AccurateRip signature : 29D2D80B
->Track not present in AccurateRip database.
Statistics
Read error : 0
Jitter error (maybe fixed) : 0
Retry sector count : 0
Damaged sector count : 0
Track 03
Filename : /Users/angerZen/Rips/03 Jeremy Soule - Out of the Cold.flac
/Users/angerZen/Rips/03 Jeremy Soule - Out of the Cold.m4a
/Users/angerZen/Rips/03 Jeremy Soule - Out of the Cold(V0).mp3
/Users/angerZen/Rips/03 Jeremy Soule - Out of the Cold(LAME 320kbps).mp3
Pre-gap length : 00:02:00
Track gain : 6.50 dB
Peak : 0.334045
CRC32 hash (test run) : 1924ABE5
CRC32 hash : 1924ABE5
CRC32 hash (skip zero) : A72773F6
AccurateRip signature : DFED3172
->Track not present in AccurateRip database.
Statistics
Read error : 0
Jitter error (maybe fixed) : 0
Retry sector count : 0
Damaged sector count : 0
Track 04
Filename : /Users/angerZen/Rips/04 Jeremy Soule - Around the Fire.flac
/Users/angerZen/Rips/04 Jeremy Soule - Around the Fire.m4a
/Users/angerZen/Rips/04 Jeremy Soule - Around the Fire(V0).mp3
/Users/angerZen/Rips/04 Jeremy Soule - Around the Fire(LAME 320kbps).mp3
Pre-gap length : 00:02:00
Track gain : 5.66 dB
Peak : 0.446442
CRC32 hash (test run) : 6B7E32E9
CRC32 hash : 6B7E32E9
CRC32 hash (skip zero) : 8654B71C
AccurateRip signature : 84D9DE15
->Track not present in AccurateRip database.
Statistics
Read error : 0
Jitter error (maybe fixed) : 0
Retry sector count : 0
Damaged sector count : 0
Track 05
Filename : /Users/angerZen/Rips/05 Jeremy Soule - Shadows and Echoes.flac
/Users/angerZen/Rips/05 Jeremy Soule - Shadows and Echoes.m4a
/Users/angerZen/Rips/05 Jeremy Soule - Shadows and Echoes(V0).mp3
/Users/angerZen/Rips/05 Jeremy Soule - Shadows and Echoes(LAME 320kbps).mp3
Pre-gap length : 00:02:00
Track gain : 5.98 dB
Peak : 0.988220
CRC32 hash (test run) : 93C81539
CRC32 hash : 93C81539
CRC32 hash (skip zero) : C8A0DB4A
AccurateRip signature : D65773FC
->Track not present in AccurateRip database.
Statistics
Read error : 0
Jitter error (maybe fixed) : 0
Retry sector count : 0
Damaged sector count : 0
Track 06
Filename : /Users/angerZen/Rips/06 Jeremy Soule - Caught off Guard.flac
/Users/angerZen/Rips/06 Jeremy Soule - Caught off Guard.m4a
/Users/angerZen/Rips/06 Jeremy Soule - Caught off Guard(V0).mp3
/Users/angerZen/Rips/06 Jeremy Soule - Caught off Guard(LAME 320kbps).mp3
Pre-gap length : 00:02:00
Track gain : -5.68 dB
Peak : 0.990356
CRC32 hash (test run) : 9119FAF4
CRC32 hash : 9119FAF4
CRC32 hash (skip zero) : DE7BD3AD
AccurateRip signature : 767B77F5
->Track not present in AccurateRip database.
Statistics
Read error : 0
Jitter error (maybe fixed) : 0
Retry sector count : 0
Damaged sector count : 0
Track 07
Filename : /Users/angerZen/Rips/07 Jeremy Soule - Aurora.flac
/Users/angerZen/Rips/07 Jeremy Soule - Aurora.m4a
/Users/angerZen/Rips/07 Jeremy Soule - Aurora(V0).mp3
/Users/angerZen/Rips/07 Jeremy Soule - Aurora(LAME 320kbps).mp3
Pre-gap length : 00:02:00
Track gain : 1.30 dB
Peak : 0.754547
CRC32 hash (test run) : 573765F8
CRC32 hash : 573765F8
CRC32 hash (skip zero) : EEEDCC27
AccurateRip signature : E9B4F58D
->Track not present in AccurateRip database.
Statistics
Read error : 0
Jitter error (maybe fixed) : 0
Retry sector count : 0
Damaged sector count : 0
Track 08
Filename : /Users/angerZen/Rips/08 Jeremy Soule - Blood and Steel.flac
/Users/angerZen/Rips/08 Jeremy Soule - Blood and Steel.m4a
/Users/angerZen/Rips/08 Jeremy Soule - Blood and Steel(V0).mp3
/Users/angerZen/Rips/08 Jeremy Soule - Blood and Steel(LAME 320kbps).mp3
Pre-gap length : 00:02:00
Track gain : -5.80 dB
Peak : 0.996490
CRC32 hash (test run) : 2ABE5719
CRC32 hash : 2ABE5719
CRC32 hash (skip zero) : D46FB971
AccurateRip signature : 9D57EA0C
->Track not present in AccurateRip database.
Statistics
Read error : 0
Jitter error (maybe fixed) : 0
Retry sector count : 0
Damaged sector count : 0
Track 09
Filename : /Users/angerZen/Rips/09 Jeremy Soule - Towers and Shadows.flac
/Users/angerZen/Rips/09 Jeremy Soule - Towers and Shadows.m4a
/Users/angerZen/Rips/09 Jeremy Soule - Towers and Shadows(V0).mp3
/Users/angerZen/Rips/09 Jeremy Soule - Towers and Shadows(LAME 320kbps).mp3
Pre-gap length : 00:02:00
Track gain : 8.55 dB
Peak : 0.516571
CRC32 hash (test run) : 83EA1CFC
CRC32 hash : 83EA1CFC
CRC32 hash (skip zero) : 32B0B5A2
AccurateRip signature : DF0A82E2
->Track not present in AccurateRip database.
Statistics
Read error : 0
Jitter error (maybe fixed) : 0
Retry sector count : 0
Damaged sector count : 0
Track 10
Filename : /Users/angerZen/Rips/10 Jeremy Soule - Seven Thousand Steps.flac
/Users/angerZen/Rips/10 Jeremy Soule - Seven Thousand Steps.m4a
/Users/angerZen/Rips/10 Jeremy Soule - Seven Thousand Steps(V0).mp3
/Users/angerZen/Rips/10 Jeremy Soule - Seven Thousand Steps(LAME 320kbps).mp3
Pre-gap length : 00:02:00
Track gain : -1.05 dB
Peak : 0.751556
CRC32 hash (test run) : 81A059A6
CRC32 hash : 81A059A6
CRC32 hash (skip zero) : 97695655
AccurateRip signature : E7A5BD5C
->Track not present in AccurateRip database.
Statistics
Read error : 0
Jitter error (maybe fixed) : 0
Retry sector count : 0
Damaged sector count : 0
Track 11
Filename : /Users/angerZen/Rips/11 Jeremy Soule - Solitude.flac
/Users/angerZen/Rips/11 Jeremy Soule - Solitude.m4a
/Users/angerZen/Rips/11 Jeremy Soule - Solitude(V0).mp3
/Users/angerZen/Rips/11 Jeremy Soule - Solitude(LAME 320kbps).mp3
Pre-gap length : 00:02:00
Track gain : -2.54 dB
Peak : 0.948151
CRC32 hash (test run) : 793A609F
CRC32 hash : 793A609F
CRC32 hash (skip zero) : 2C862BE9
AccurateRip signature : 66E4BAC8
->Track not present in AccurateRip database.
Statistics
Read error : 0
Jitter error (maybe fixed) : 0
Retry sector count : 0
Damaged sector count : 0
Track 12
Filename : /Users/angerZen/Rips/12 Jeremy Soule - Watch the Skies.flac
/Users/angerZen/Rips/12 Jeremy Soule - Watch the Skies.m4a
/Users/angerZen/Rips/12 Jeremy Soule - Watch the Skies(V0).mp3
/Users/angerZen/Rips/12 Jeremy Soule - Watch the Skies(LAME 320kbps).mp3
Pre-gap length : 00:02:00
Track gain : -6.85 dB
Peak : 0.999969
CRC32 hash (test run) : 0948E554
CRC32 hash : 0948E554
CRC32 hash (skip zero) : A3DA1483
AccurateRip signature : D0CE407A
->Track not present in AccurateRip database.
Statistics
Read error : 0
Jitter error (maybe fixed) : 0
Retry sector count : 0
Damaged sector count : 0
Track 13
Filename : /Users/angerZen/Rips/13 Jeremy Soule - The Gathering Storm.flac
/Users/angerZen/Rips/13 Jeremy Soule - The Gathering Storm.m4a
/Users/angerZen/Rips/13 Jeremy Soule - The Gathering Storm(V0).mp3
/Users/angerZen/Rips/13 Jeremy Soule - The Gathering Storm(LAME 320kbps).mp3
Pre-gap length : 00:02:00
Track gain : 2.02 dB
Peak : 0.541290
CRC32 hash (test run) : 81F7152C
CRC32 hash : 81F7152C
CRC32 hash (skip zero) : B9B84DCB
AccurateRip signature : C7966275
->Track not present in AccurateRip database.
Statistics
Read error : 0
Jitter error (maybe fixed) : 0
Retry sector count : 0
Damaged sector count : 0
Track 14
Filename : /Users/angerZen/Rips/14 Jeremy Soule - Sky Above, Voice Within.flac
/Users/angerZen/Rips/14 Jeremy Soule - Sky Above, Voice Within.m4a
/Users/angerZen/Rips/14 Jeremy Soule - Sky Above, Voice Within(V0).mp3
/Users/angerZen/Rips/14 Jeremy Soule - Sky Above, Voice Within(LAME 320kbps).mp3
Pre-gap length : 00:02:00
Track gain : 1.92 dB
Peak : 0.644928
CRC32 hash (test run) : C45001F7
CRC32 hash : C45001F7
CRC32 hash (skip zero) : 795078D2
AccurateRip signature : 47B31DA5
->Track not present in AccurateRip database.
Statistics
Read error : 0
Jitter error (maybe fixed) : 0
Retry sector count : 0
Damaged sector count : 0
Track 15
Filename : /Users/angerZen/Rips/15 Jeremy Soule - Death in the Darkness.flac
/Users/angerZen/Rips/15 Jeremy Soule - Death in the Darkness.m4a
/Users/angerZen/Rips/15 Jeremy Soule - Death in the Darkness(V0).mp3
/Users/angerZen/Rips/15 Jeremy Soule - Death in the Darkness(LAME 320kbps).mp3
Pre-gap length : 00:02:00
Track gain : 11.17 dB
Peak : 0.363922
CRC32 hash (test run) : 68BB0018
CRC32 hash : 68BB0018
CRC32 hash (skip zero) : 397C3DEB
AccurateRip signature : 1DDAFC13
->Track not present in AccurateRip database.
Statistics
Read error : 0
Jitter error (maybe fixed) : 0
Retry sector count : 0
Damaged sector count : 0
Track 16
Filename : /Users/angerZen/Rips/16 Jeremy Soule - Shattered Shields.flac
/Users/angerZen/Rips/16 Jeremy Soule - Shattered Shields.m4a
/Users/angerZen/Rips/16 Jeremy Soule - Shattered Shields(V0).mp3
/Users/angerZen/Rips/16 Jeremy Soule - Shattered Shields(LAME 320kbps).mp3
Pre-gap length : 00:02:00
Track gain : 11.32 dB
Peak : 0.337616
CRC32 hash (test run) : DC546055
CRC32 hash : DC546055
CRC32 hash (skip zero) : 464E6622
AccurateRip signature : D92AC9E4
->Track not present in AccurateRip database.
Statistics
Read error : 0
Jitter error (maybe fixed) : 0
Retry sector count : 0
Damaged sector count : 0
Track 17
Filename : /Users/angerZen/Rips/17 Jeremy Soule - Sovngarde.flac
/Users/angerZen/Rips/17 Jeremy Soule - Sovngarde.m4a
/Users/angerZen/Rips/17 Jeremy Soule - Sovngarde(V0).mp3
/Users/angerZen/Rips/17 Jeremy Soule - Sovngarde(LAME 320kbps).mp3
Pre-gap length : 00:02:00
Track gain : -5.55 dB
Peak : 0.994843
CRC32 hash (test run) : 5867D0E2
CRC32 hash : 5867D0E2
CRC32 hash (skip zero) : 0B906C59
AccurateRip signature : 40494DBC
->Track not present in AccurateRip database.
Statistics
Read error : 0
Jitter error (maybe fixed) : 0
Retry sector count : 0
Damaged sector count : 0
Track 18
Filename : /Users/angerZen/Rips/18 Jeremy Soule - Wind Guide You.flac
/Users/angerZen/Rips/18 Jeremy Soule - Wind Guide You.m4a
/Users/angerZen/Rips/18 Jeremy Soule - Wind Guide You(V0).mp3
/Users/angerZen/Rips/18 Jeremy Soule - Wind Guide You(LAME 320kbps).mp3
Pre-gap length : 00:02:00
Track gain : -0.91 dB
Peak : 0.990814
CRC32 hash (test run) : 1CDFB99F
CRC32 hash : 1CDFB99F
CRC32 hash (skip zero) : 3E80BB81
AccurateRip signature : A3FB1CC1
->Track not present in AccurateRip database.
Statistics
Read error : 0
Jitter error (maybe fixed) : 0
Retry sector count : 0
Damaged sector count : 0
No errors occurred
End of status report
Продолжительность: 00:42:34

01. Skyrim Atmospheres (42:35)
  • 01. Atmosphere 1 (4:53)
  • 02. Atmosphere 2 (3:17)
  • 03. Atmosphere 3 (3:06)
  • 04. Atmosphere 4 (3:03)
  • 05. Atmosphere 5 (3:23)
  • 06. Atmosphere 6 (3:30)
  • 07. Atmosphere 7 (3:39)
  • 08. Atmosphere 8 (3:41)
  • 09. Atmosphere 9 (2:41)
  • 10. Atmosphere 10 (3:53)
  • 11. Atmosphere 11 (2:14)
  • 12. Atmosphere 12 (5:15)
 
X Lossless Decoder version 20111113 (137.1)
XLD extraction logfile from 2011-12-05 21:52:26 +0000
Jeremy Soule / Disc 4
Used drive : HL-DT-ST DVDRW GS23N (revision SB03)
Ripper mode : XLD Secure Ripper
Disable audio cache : OK for the drive with a cache less than 1375KiB
Make use of C2 pointers : NO
Read offset correction : 667
Max retry count : 20
Gap status : Analyzed, Appended
TOC of the extracted CD
Track | Start | Length | Start sector | End sector
---------------------------------------------------------
1 | 00:00:00 | 42:34:66 | 0 | 191615
AccurateRip Summary
Disc not found in AccurateRip DB.
All Tracks
Album gain : 7.02 dB
Peak : 0.630707
Statistics
Read error : 0
Jitter error (maybe fixed) : 0
Retry sector count : 0
Damaged sector count : 0
Track 01
Filename : /Users/angerZen/Rips/01 Jeremy Soule - Skyrim Atmospheres.flac
/Users/angerZen/Rips/01 Jeremy Soule - Skyrim Atmospheres.m4a
/Users/angerZen/Rips/01 Jeremy Soule - Skyrim Atmospheres(V0).mp3
/Users/angerZen/Rips/01 Jeremy Soule - Skyrim Atmospheres(LAME 320kbps).mp3
Pre-gap length : 00:02:00
Track gain : 7.02 dB
Peak : 0.630707
CRC32 hash (test run) : 3853902A
CRC32 hash : 3853902A
CRC32 hash (skip zero) : EF6ED356
AccurateRip signature : 1EAAD289
->Track not present in AccurateRip database.
Statistics
Read error : 0
Jitter error (maybe fixed) : 0
Retry sector count : 0
Damaged sector count : 0
No errors occurred
End of status report

Джереми Соул (англ. Jeremy Soule) — известный композитор музыки для компьютерных и видеоигр.

Джереми Соул родился в семье художницы и учителя музыки в 1975 году в городе Киокак, штат Айова. Заниматься музыкой он начал в четыре года, примерно в этом же возрасте написал свою первую композицию. В двенадцать лет, благодаря отцовским связям, Джереми начал изучать музыку с лучшими университетскими преподавателями страны, попутно совершенствуя навыки игры на пианино и скрипке в симфоническом оркестре. Помимо музыки у Джереми было ещё одно хобби — видеоигры. Он играл сразу на четырёх платформах (Atari 2600, Atari 7800, NES и Sega Master System) и постепенно стал задумываться о том, почему в играх нет оркестровой музыки.

В 19 лет Джереми переехал в Сиэтл и устроился в местное отделение SquareSoft. Руководство компании относилось к нему с подозрением — как может такой юнец писать такую хорошую музыку? Джереми продолжал выполнять многочисленные тестовые задания и, чтобы казаться взрослым, отрастил бороду. В конце концов он был принят на работу и начал работать над своей первой игрой — The Secret of Evermore. Позже SquareSoft переехала в Лос-Анджелес, а Джереми устроился в компанию Humongous Entertainment, состоявшую на тот момент из трех человек и включавшую компанию Cavedog Entertainment и разрабатывавшую стратегию в реальном времени Total Annihilation. Несмотря на финансовые трудности, Джереми уговорил руководство выделить деньги на создание оркестровой музыки.

В 1997, когда была выпущена Total Annihilation, стало понятно, что настойчивость Джереми была не напрасна. Игра оказалась успешной, а Джереми Соул в один миг превратился в известнейшего композитора. Его музыку можно услышать в таких играх, как Icewind Dale, Neverwinter Nights, Dungeon Siege, The Elder Scrolls III: Morrowind, The Elder Scrolls IV: Oblivion, The Elder Scrolls V: Skyrim, Warhammer 40,000: Dawn of War, Prey, Guild Wars и многих других. В 2007 году за саундтрек к TES 4: Oblivion Джереми получил MTV Video Music Award.

© Wikipedia

info [Профиль]  [ЛС] 
Показать сообщения:    
Ответить на тему

Текущее время: 18-Июн 03:41

Часовой пояс: GMT + 4



Вы не можете начинать темы
Вы не можете отвечать на сообщения
Вы не можете редактировать свои сообщения
Вы не можете удалять свои сообщения
Вы не можете голосовать в опросах
Вы не можете прикреплять файлы к сообщениям
Вы не можете скачивать файлы