Ошибка
Загрузка...

(Score) Послезавтра / The Day After Tomorrow (Original Motion Picture Soundtrack) (by Harald Kloser) - 2004 г. FLAC (tracks), lossless

Ответить на тему
 
Автор Сообщение

Hobbit38

Пол: Пол:Муж

Стаж: 4 года 4 месяца

Сообщений: 651

Россия
Рейтинг

post 05-Май-2018 09:06 0[+]

[Цитировать] 


The Day After Tomorrow (Original Motion Picture Soundtrack)
Жанр: Score | Год выпуска диска: 2004

Страна-производитель диска: USA | Композитор: Harald Kloser

Аудио кодек: FLAC (.flac) | Тип рипа: tracks | Битрейт аудио: lossless

Продолжительность: 00:38:24

01. The Day After Tomorrow (03:27)
02. Tornado Warning (02:01)
03. Sam! (01:18)
04. Tidal Wave (03:14)
05. Body Heat (01:51)
06. Russian Ghost Ship (01:25)
07. Hall's Plan (00:53)
08. Rio Grande (01:11)
09. Bedtime Story (02:04)
10. Blizzard (02:18)
11. Superfreeze (03:04)
12. Cutting The Rope (03:29)
13. Because Of You (02:29)
14. President's Speech (04:20)
15. The Human Spirit (03:37)
16. Burning Books (01:43)
 
EAC extraction logfile from 13. October 2007, 23:07 for CD
Harald Kloser / The Day After Tomorrow
Used drive : HL-DT-STDVD-ROM GDR8163B Adapter: 0 ID: 0
Read mode : Secure with NO C2, accurate stream, disable cache
Read offset correction : 102
Overread into Lead-In and Lead-Out : No
Used output format : C:\Archivos de programa\FLAC\flac.exe (User Defined Encoder)
128 kBit/s
Additional command line options : -8 -V -T "ARTIST=%a" -T "TITLE=%t" -T "ALBUM=%g" -T "DATE=%y" -T "TRACKNUMBER=%n" -T "GENRE=%m" -T "COMMENT=EAC FLAC -8" %s
Other options :
Fill up missing offset samples with silence : Yes
Delete leading and trailing silent blocks : No
Native Win32 interface for Win NT & 2000
Track 1
Filename G:\Harald Kloser - The Day After Tomorrow (2004) [FLAC]\disc\01 - The Day After Tomorrow.wav
Pre-gap length 0:00:02.00
Peak level 89.8 %
Track quality 100.0 %
Test CRC 38887A1C
Copy CRC 38887A1C
Copy OK
Track 2
Filename G:\Harald Kloser - The Day After Tomorrow (2004) [FLAC]\disc\02 - Tornado Warning.wav
Peak level 93.1 %
Track quality 99.9 %
Test CRC 22499F4C
Copy CRC 22499F4C
Copy OK
Track 3
Filename G:\Harald Kloser - The Day After Tomorrow (2004) [FLAC]\disc\03 - Sam!.wav
Peak level 57.6 %
Track quality 100.0 %
Test CRC 56B13EAE
Copy CRC 56B13EAE
Copy OK
Track 4
Filename G:\Harald Kloser - The Day After Tomorrow (2004) [FLAC]\disc\04 - Tidal Wave.wav
Peak level 94.7 %
Track quality 100.0 %
Test CRC DCE5D868
Copy CRC DCE5D868
Copy OK
Track 5
Filename G:\Harald Kloser - The Day After Tomorrow (2004) [FLAC]\disc\05 - Body Heat.wav
Peak level 34.3 %
Track quality 99.9 %
Test CRC 91ABA42D
Copy CRC 91ABA42D
Copy OK
Track 6
Filename G:\Harald Kloser - The Day After Tomorrow (2004) [FLAC]\disc\06 - Russian Ghost Ship.wav
Peak level 69.3 %
Track quality 100.0 %
Test CRC D2AD0A26
Copy CRC D2AD0A26
Copy OK
Track 7
Filename G:\Harald Kloser - The Day After Tomorrow (2004) [FLAC]\disc\07 - Hall's Plan.wav
Peak level 58.3 %
Track quality 100.0 %
Test CRC 76F1A4C2
Copy CRC 76F1A4C2
Copy OK
Track 8
Filename G:\Harald Kloser - The Day After Tomorrow (2004) [FLAC]\disc\08 - Rio Grande.wav
Peak level 80.7 %
Track quality 100.0 %
Test CRC 558FA8A4
Copy CRC 558FA8A4
Copy OK
Track 9
Filename G:\Harald Kloser - The Day After Tomorrow (2004) [FLAC]\disc\09 - Bedtime Story.wav
Peak level 71.5 %
Track quality 100.0 %
Test CRC 83CB4887
Copy CRC 83CB4887
Copy OK
Track 10
Filename G:\Harald Kloser - The Day After Tomorrow (2004) [FLAC]\disc\10 - Blizzard.wav
Peak level 93.6 %
Track quality 100.0 %
Test CRC 80BBCE8D
Copy CRC 80BBCE8D
Copy OK
Track 11
Filename G:\Harald Kloser - The Day After Tomorrow (2004) [FLAC]\disc\11 - Superfreeze.wav
Peak level 95.6 %
Track quality 100.0 %
Test CRC 2B21FD01
Copy CRC 2B21FD01
Copy OK
Track 12
Filename G:\Harald Kloser - The Day After Tomorrow (2004) [FLAC]\disc\12 - Cutting The Rope.wav
Peak level 43.2 %
Track quality 100.0 %
Test CRC 9BE08959
Copy CRC 9BE08959
Copy OK
Track 13
Filename G:\Harald Kloser - The Day After Tomorrow (2004) [FLAC]\disc\13 - Because Of You.wav
Peak level 60.8 %
Track quality 99.9 %
Test CRC 9FBB10A0
Copy CRC 9FBB10A0
Copy OK
Track 14
Filename G:\Harald Kloser - The Day After Tomorrow (2004) [FLAC]\disc\14 - President's Speech.wav
Peak level 71.7 %
Track quality 100.0 %
Test CRC ADAB1020
Copy CRC ADAB1020
Copy OK
Track 15
Filename G:\Harald Kloser - The Day After Tomorrow (2004) [FLAC]\disc\15 - The Human Spirit.wav
Peak level 53.3 %
Track quality 100.0 %
Test CRC B7D07603
Copy CRC B7D07603
Copy OK
Track 16
Filename G:\Harald Kloser - The Day After Tomorrow (2004) [FLAC]\disc\16 - Burning Books.wav
Peak level 48.2 %
Track quality 100.0 %
Test CRC 842543CC
Copy CRC 842543CC
Copy OK
No errors occured
End of status report

info [Профиль]  [ЛС] 
Показать сообщения:    
Ответить на тему

Текущее время: 22-Сен 16:08

Часовой пояс: GMT + 4



Вы не можете начинать темы
Вы не можете отвечать на сообщения
Вы не можете редактировать свои сообщения
Вы не можете удалять свои сообщения
Вы не можете голосовать в опросах
Вы не можете прикреплять файлы к сообщениям
Вы не можете скачивать файлы