Ошибка
Загрузка...

(Score) Звездные Войны: Войны клонов / Star Wars ~The Clone Wars~ Original Motion Picture Soundtrack (by Kevin Kiner) - 2008 г., FLAC (tracks), lossless

Ответить на тему
 
Автор Сообщение

Hobbit38

Пол: Пол:Муж

Стаж: 4 года

Сообщений: 527

Россия
Рейтинг

post 30-Апр-2018 23:20 0[+]

[Цитировать] 


Star Wars ~The Clone Wars~ Original Motion Picture Soundtrack
Жанр: Score | Год выпуска диска: 2008

Композитор: Kevin Kiner | Исполнитель: The City of Prague Philharmonic Orchestra

Страна-производитель диска: US | Издатель (лейбл): Sony Classical 88697-35616-2

Аудио кодек: FLAC (.flac) | Тип рипа: tracks | Битрейт аудио: lossless

Продолжительность: 01:07:39

01. Star Wars Main Title & A Galaxy Divided 01:13
02. Admiral Yularen 00:57
03. Battle of Christophsis 03:19
04. Meet Ahsoka 02:45
05. Obi-Wan to the Rescue 01:24
06. Sneaking Under the Shield 04:25
07. Jabba's Palace 00:46
08. Anakin vs. Dooku 02:18
09. Landing On Teth 01:44
10. Destroying the Shield 03:09
11. B'omarr Monastery 03:11
12. General Loathsom & Battle Strategy 03:08
13. The Shield 01:37
14. Battle of Teth 02:45
15. Jedi Don't Run! 01:22
16. Obi-Wan's Negotiation 02:08
17. The Jedi Council 02:04
18. Ahsoka 03:40
19. Jabba's Chamber Dance 00:42
20. Ziro Surrounded 02:20
21. Scaling the Cliff 00:46
22. Ziro's Nightclub Band 00:53
23. Seedy City Swing 00:35
24. Escape from the Monastery 03:13
25. Infiltrating Ziro's Lair 02:22
26. Courtyard Fight 02:41
27. Dunes of Tatooine 02:00
28. Rough Landing 03:04
29. Padme Imprisoned 00:50
30. Dooku Speaks with Jabba 01:28
31. Fight to the End 03:59
32. End Credits 00:51
 
EAC extraction logfile from 17. August 2008, 9:32 for CD
Kevin Kiner and The City of Prague Philharmonic Orchestra / Star Wars--The Clone Wars OST
Used drive : SONY DVD RW DRU-810A Adapter: 3 ID: 0
Read mode : Secure with NO C2, accurate stream, disable cache
Read offset correction : 618
Overread into Lead-In and Lead-Out : No
Used output format : E:\Program Files\Exact Audio Copy\flac.exe (User Defined Encoder)
256 kBit/s
Additional command line options : -8 -A tukey(0.25) -A gauss(0.1875) -b 4096 -V -T "artist=%a" -T "title=%t" -T "album=%g" -T "date=%y" -T "tracknumber=%n" -T "genre=%m" %s --sector-align
Other options :
Fill up missing offset samples with silence : Yes
Delete leading and trailing silent blocks : No
Installed external ASPI interface
Track 1
Filename I:\~BT Uploads\Various Artists - Star Wars--The Clone Wars OST (2008 - FLAC)\01 - Kevin Kiner and The City of Prague Philharmonic Orchestra - Star Wars Main Title & A Galaxy Divided.wav
Pre-gap length 0:00:02.00
Peak level 97.7 %
Track quality 100.0 %
Test CRC D1241F91
Copy CRC D1241F91
Copy OK
Track 2
Filename I:\~BT Uploads\Various Artists - Star Wars--The Clone Wars OST (2008 - FLAC)\02 - Kevin Kiner and The City of Prague Philharmonic Orchestra - Admiral Yularen.wav
Peak level 97.7 %
Track quality 100.0 %
Test CRC 8E670A92
Copy CRC 8E670A92
Copy OK
Track 3
Filename I:\~BT Uploads\Various Artists - Star Wars--The Clone Wars OST (2008 - FLAC)\03 - Kevin Kiner and The City of Prague Philharmonic Orchestra - Battle of Christophsis.wav
Peak level 98.9 %
Track quality 100.0 %
Test CRC 6E6D28A1
Copy CRC 6E6D28A1
Copy OK
Track 4
Filename I:\~BT Uploads\Various Artists - Star Wars--The Clone Wars OST (2008 - FLAC)\04 - Kevin Kiner and The City of Prague Philharmonic Orchestra - Meet Ahsoka.wav
Peak level 97.7 %
Track quality 100.0 %
Test CRC 3C644D7F
Copy CRC 3C644D7F
Copy OK
Track 5
Filename I:\~BT Uploads\Various Artists - Star Wars--The Clone Wars OST (2008 - FLAC)\05 - Kevin Kiner and The City of Prague Philharmonic Orchestra - Obi-Wan to the Rescue.wav
Peak level 97.7 %
Track quality 100.0 %
Test CRC 141F942B
Copy CRC 141F942B
Copy OK
Track 6
Filename I:\~BT Uploads\Various Artists - Star Wars--The Clone Wars OST (2008 - FLAC)\06 - Kevin Kiner and The City of Prague Philharmonic Orchestra - Sneaking Under the Shield.wav
Peak level 97.7 %
Track quality 100.0 %
Test CRC 0F9AE9DC
Copy CRC 0F9AE9DC
Copy OK
Track 7
Filename I:\~BT Uploads\Various Artists - Star Wars--The Clone Wars OST (2008 - FLAC)\07 - Kevin Kiner and The City of Prague Philharmonic Orchestra - Jabba's Palace.wav
Peak level 97.7 %
Track quality 100.0 %
Test CRC C229436E
Copy CRC C229436E
Copy OK
Track 8
Filename I:\~BT Uploads\Various Artists - Star Wars--The Clone Wars OST (2008 - FLAC)\08 - Kevin Kiner and The City of Prague Philharmonic Orchestra - Anakin vs. Dooku.wav
Peak level 97.7 %
Track quality 99.9 %
Test CRC 6A16DB59
Copy CRC 6A16DB59
Copy OK
Track 9
Filename I:\~BT Uploads\Various Artists - Star Wars--The Clone Wars OST (2008 - FLAC)\09 - Kevin Kiner and The City of Prague Philharmonic Orchestra - Landing on Teth.wav
Peak level 97.7 %
Track quality 100.0 %
Test CRC F3BC59A3
Copy CRC F3BC59A3
Copy OK
Track 10
Filename I:\~BT Uploads\Various Artists - Star Wars--The Clone Wars OST (2008 - FLAC)\10 - Kevin Kiner and The City of Prague Philharmonic Orchestra - Destroying the Shield.wav
Peak level 98.8 %
Track quality 99.9 %
Test CRC ACE00E98
Copy CRC ACE00E98
Copy OK
Track 11
Filename I:\~BT Uploads\Various Artists - Star Wars--The Clone Wars OST (2008 - FLAC)\11 - Kevin Kiner and The City of Prague Philharmonic Orchestra - B'omarr Monastery.wav
Peak level 97.7 %
Track quality 100.0 %
Test CRC 6482DD2E
Copy CRC 6482DD2E
Copy OK
Track 12
Filename I:\~BT Uploads\Various Artists - Star Wars--The Clone Wars OST (2008 - FLAC)\12 - Kevin Kiner and The City of Prague Philharmonic Orchestra - General Loathsom & Battle Strategy.wav
Peak level 98.8 %
Track quality 100.0 %
Test CRC A8D09D76
Copy CRC A8D09D76
Copy OK
Track 13
Filename I:\~BT Uploads\Various Artists - Star Wars--The Clone Wars OST (2008 - FLAC)\13 - Kevin Kiner and The City of Prague Philharmonic Orchestra - The Shield.wav
Peak level 97.7 %
Track quality 100.0 %
Test CRC 6BBAF1B3
Copy CRC 6BBAF1B3
Copy OK
Track 14
Filename I:\~BT Uploads\Various Artists - Star Wars--The Clone Wars OST (2008 - FLAC)\14 - Kevin Kiner and The City of Prague Philharmonic Orchestra - Battle of Teth.wav
Peak level 99.2 %
Track quality 100.0 %
Test CRC 827928F7
Copy CRC 827928F7
Copy OK
Track 15
Filename I:\~BT Uploads\Various Artists - Star Wars--The Clone Wars OST (2008 - FLAC)\15 - Kevin Kiner and The City of Prague Philharmonic Orchestra - Jedi Don't Run.wav
Peak level 97.7 %
Track quality 99.8 %
Test CRC ECE08C4A
Copy CRC ECE08C4A
Copy OK
Track 16
Filename I:\~BT Uploads\Various Artists - Star Wars--The Clone Wars OST (2008 - FLAC)\16 - Kevin Kiner and The City of Prague Philharmonic Orchestra - Obi-Wan's Negotiation.wav
Peak level 97.7 %
Track quality 99.9 %
Test CRC 41ACD711
Copy CRC 41ACD711
Copy OK
Track 17
Filename I:\~BT Uploads\Various Artists - Star Wars--The Clone Wars OST (2008 - FLAC)\17 - Kevin Kiner and The City of Prague Philharmonic Orchestra - The Jedi Council.wav
Peak level 97.7 %
Track quality 100.0 %
Test CRC B92D6447
Copy CRC B92D6447
Copy OK
Track 18
Filename I:\~BT Uploads\Various Artists - Star Wars--The Clone Wars OST (2008 - FLAC)\18 - Kevin Kiner and The City of Prague Philharmonic Orchestra - General Loathsom & Ashoka.wav
Peak level 97.7 %
Track quality 100.0 %
Test CRC 37D2ADB0
Copy CRC 37D2ADB0
Copy OK
Track 19
Filename I:\~BT Uploads\Various Artists - Star Wars--The Clone Wars OST (2008 - FLAC)\19 - Kevin Kiner and The City of Prague Philharmonic Orchestra - Jabba's Chamber Dance.wav
Peak level 98.6 %
Track quality 100.0 %
Test CRC F1517A1C
Copy CRC F1517A1C
Copy OK
Track 20
Filename I:\~BT Uploads\Various Artists - Star Wars--The Clone Wars OST (2008 - FLAC)\20 - Kevin Kiner and The City of Prague Philharmonic Orchestra - Ziro Surrounded.wav
Peak level 97.7 %
Track quality 100.0 %
Test CRC A3C323D1
Copy CRC A3C323D1
Copy OK
Track 21
Filename I:\~BT Uploads\Various Artists - Star Wars--The Clone Wars OST (2008 - FLAC)\21 - Kevin Kiner and The City of Prague Philharmonic Orchestra - Scaling the Cliff.wav
Peak level 97.7 %
Track quality 100.0 %
Test CRC 8651339C
Copy CRC 8651339C
Copy OK
Track 22
Filename I:\~BT Uploads\Various Artists - Star Wars--The Clone Wars OST (2008 - FLAC)\22 - Kevin Kiner and The City of Prague Philharmonic Orchestra - Ziro's Nightclub Band.wav
Peak level 93.3 %
Track quality 99.8 %
Test CRC C53902BA
Copy CRC C53902BA
Copy OK
Track 23
Filename I:\~BT Uploads\Various Artists - Star Wars--The Clone Wars OST (2008 - FLAC)\23 - Kevin Kiner and The City of Prague Philharmonic Orchestra - Seedy City Swing.wav
Peak level 93.9 %
Track quality 100.0 %
Test CRC 46683C8E
Copy CRC 46683C8E
Copy OK
Track 24
Filename I:\~BT Uploads\Various Artists - Star Wars--The Clone Wars OST (2008 - FLAC)\24 - Kevin Kiner and The City of Prague Philharmonic Orchestra - Escape from the Monastery.wav
Peak level 97.7 %
Track quality 99.9 %
Test CRC A47B018F
Copy CRC A47B018F
Copy OK
Track 25
Filename I:\~BT Uploads\Various Artists - Star Wars--The Clone Wars OST (2008 - FLAC)\25 - Kevin Kiner and The City of Prague Philharmonic Orchestra - Infiltrating Ziro's Lair.wav
Peak level 97.7 %
Track quality 100.0 %
Test CRC CEE4A279
Copy CRC CEE4A279
Copy OK
Track 26
Filename I:\~BT Uploads\Various Artists - Star Wars--The Clone Wars OST (2008 - FLAC)\26 - Kevin Kiner and The City of Prague Philharmonic Orchestra - Courtyard Fight.wav
Peak level 97.7 %
Track quality 99.9 %
Test CRC 31C8B0CA
Copy CRC 31C8B0CA
Copy OK
Track 27
Filename I:\~BT Uploads\Various Artists - Star Wars--The Clone Wars OST (2008 - FLAC)\27 - Kevin Kiner and The City of Prague Philharmonic Orchestra - Dunes of Tatooine.wav
Peak level 98.8 %
Track quality 99.9 %
Test CRC E66D1147
Copy CRC E66D1147
Copy OK
Track 28
Filename I:\~BT Uploads\Various Artists - Star Wars--The Clone Wars OST (2008 - FLAC)\28 - Kevin Kiner and The City of Prague Philharmonic Orchestra - Rough Landing.wav
Peak level 97.7 %
Track quality 100.0 %
Test CRC 7D119BF9
Copy CRC 7D119BF9
Copy OK
Track 29
Filename I:\~BT Uploads\Various Artists - Star Wars--The Clone Wars OST (2008 - FLAC)\29 - Kevin Kiner and The City of Prague Philharmonic Orchestra - Padmй Imprisoned.wav
Peak level 97.7 %
Track quality 100.0 %
Test CRC 496EA1BC
Copy CRC 496EA1BC
Copy OK
Track 30
Filename I:\~BT Uploads\Various Artists - Star Wars--The Clone Wars OST (2008 - FLAC)\30 - Kevin Kiner and The City of Prague Philharmonic Orchestra - Doku Speak with Jabba.wav
Peak level 97.7 %
Track quality 100.0 %
Test CRC CE874C89
Copy CRC CE874C89
Copy OK
Track 31
Filename I:\~BT Uploads\Various Artists - Star Wars--The Clone Wars OST (2008 - FLAC)\31 - Kevin Kiner and The City of Prague Philharmonic Orchestra - Fight to the End.wav
Peak level 97.7 %
Track quality 99.9 %
Test CRC 779092F6
Copy CRC 779092F6
Copy OK
Track 32
Filename I:\~BT Uploads\Various Artists - Star Wars--The Clone Wars OST (2008 - FLAC)\32 - Kevin Kiner and The City of Prague Philharmonic Orchestra - End Credits.wav
Peak level 97.7 %
Track quality 100.0 %
Test CRC 61326A60
Copy CRC 61326A60
Copy OK
No errors occured
End of status report

info [Профиль]  [ЛС] 
Показать сообщения:    
Ответить на тему

Текущее время: 23-Май 19:09

Часовой пояс: GMT + 4



Вы не можете начинать темы
Вы не можете отвечать на сообщения
Вы не можете редактировать свои сообщения
Вы не можете удалять свои сообщения
Вы не можете голосовать в опросах
Вы не можете прикреплять файлы к сообщениям
Вы не можете скачивать файлы