Ошибка

(Score) Властелин колец / The Music of The Lord of the Rings Films: The Rarities Archives (by Howard Shore) - 2010 г., FLAC (tracks), lossless

Ответить на тему
 
Автор Сообщение

Hobbit38

Пол: Пол:Муж

Стаж: 4 года 4 месяца

Сообщений: 650

Россия
Рейтинг

post 30-Апр-2018 22:48 0[+]

[Цитировать] 


The Music of The Lord of the Rings Films
The Rarities Archives

Жанр: Score | Год выпуска диска: 2010 | Композитор: Howard Shore

Страна-производитель диска: USA | Издатель (лейбл): Howe Records

Аудио кодек: FLAC (.flac) | Тип рипа: tracks | Битрейт аудио: lossless

Продолжительность: 01:19:23

Диск идет как дополнение к книге "The Music of The Lord of the Rings Films" by Doug Adams, содержит раритетные записи Howard Shore к трем фильмам The Lord of the Rings, которые никогда не издавались.
THE FELLOWSHIP OF THE RING
01. Prologue: One Ring to Rule Them All (Alternate) (5:57)
02. The Shire/The Hobbits (Mock-Up) (2:00)
03. Out from Bree (Theatrical Version & Alternate) (4:04)
04. Flight to the Ford (Alternate) (4:04)
05. Moria (Mock-Up) (1:45)
06. The Fighting Uruk-hai (Alternate) (1:47)
07. The Argonath (Alternate) (2:18)

THE TWO TOWERS
08. Gwenwin in in ("Arwen's Song" Alternate/Mock-Up) (2:02)
09. Arwen's Somg (Complete) (2:11)
10. Emyn Muil (Alternate) (3:24)
11. The Rohan Fanfare (Mock-Up) (3:09)
12. The Eaves of Fangorn (Alternate) (5:29)
13. The Ent Theme (Mock-Up) (2:01)

THE RETURN OF THE KING
14. The Return of the King Trailer (2:35)
15. The Gondor Theme (Mock-Up) (2:19)
16. The Muster of Rohan (Alternate) (6:44)
17. The Siege of Gondor (Alternate) (3:13)
18. Shieldmaiden Of Rohan (Theatrical Version) (2:01)
19. Sammath Naur (Alternate) (8:53)
20. Frodo's Song ("Into The West" Alternate/Mock-Up) (2:23)
21. Elanor (Alternate) (1:30)

HOWARD SHORE & DOUG ADAMS
22. In Conversation (Part 1) (5:06)
23. In Conversation (Part 2) (4:28)
 
Exact Audio Copy V0.99 prebeta 5 from 4. May 2009
EAC extraction logfile from 12. October 2010, 16:45
Howard Shore / The Lord Of The Rings: The Rarities Archive
Used drive : PIONEER DVD-RW DVR-112D Adapter: 4 ID: 0
Read mode : Secure
Utilize accurate stream : Yes
Defeat audio cache : Yes
Make use of C2 pointers : No
Read offset correction : 48
Overread into Lead-In and Lead-Out : No
Fill up missing offset samples with silence : Yes
Delete leading and trailing silent blocks : No
Null samples used in CRC calculations : Yes
Used interface : Native Win32 interface for Win NT & 2000
Used output format : User Defined Encoder
Selected bitrate : 768 kBit/s
Quality : High
Add ID3 tag : No
Command line compressor : C:\Program Files (x86)\Exact Audio Copy\Flac\flac.exe
Additional command line options : -8 -V -T "artist=%a" -T "album=%g" -T "date=%y" -T "genre=%m" %s
TOC of the extracted CD
Track | Start | Length | Start sector | End sector
---------------------------------------------------------
1 | 0:00.00 | 5:56.38 | 0 | 26737
2 | 5:56.38 | 2:00.21 | 26738 | 35758
3 | 7:56.59 | 4:04.03 | 35759 | 54061
4 | 12:00.62 | 4:04.15 | 54062 | 72376
5 | 16:05.02 | 1:44.62 | 72377 | 80238
6 | 17:49.64 | 1:47.10 | 80239 | 88273
7 | 19:36.74 | 2:18.10 | 88274 | 98633
8 | 21:55.09 | 2:02.36 | 98634 | 107819
9 | 23:57.45 | 2:11.25 | 107820 | 117669
10 | 26:08.70 | 3:23.48 | 117670 | 132942
11 | 29:32.43 | 3:09.10 | 132943 | 147127
12 | 32:41.53 | 5:28.56 | 147128 | 171783
13 | 38:10.34 | 2:00.40 | 171784 | 180823
14 | 40:10.74 | 2:34.74 | 180824 | 192447
15 | 42:45.73 | 2:18.62 | 192448 | 202859
16 | 45:04.60 | 6:43.57 | 202860 | 233141
17 | 51:48.42 | 3:13.25 | 233142 | 247641
18 | 55:01.67 | 2:00.59 | 247642 | 256700
19 | 57:02.51 | 8:53.12 | 256701 | 296687
20 | 65:55.63 | 2:23.25 | 296688 | 307437
21 | 68:19.13 | 1:30.07 | 307438 | 314194
22 | 69:49.20 | 5:05.68 | 314195 | 337137
23 | 74:55.13 | 4:28.23 | 337138 | 357260
Range status and errors
Selected range
Filename C:\Users\Anto\Music\Nueva carpeta\Howard Shore - The Lord Of The Rings The Rarities Archive.wav
Peak level 99.5 %
Range quality 100.0 %
Test CRC 685B01D3
Copy CRC 685B01D3
Copy OK
No errors occurred
AccurateRip summary
Track 1 accurately ripped (confidence 2) [BDFBD4CD]
Track 2 accurately ripped (confidence 2) [92260A33]
Track 3 accurately ripped (confidence 2) [827105E2]
Track 4 accurately ripped (confidence 2) [29E17E86]
Track 5 accurately ripped (confidence 2) [160CDC40]
Track 6 accurately ripped (confidence 2) [F85C5AAF]
Track 7 accurately ripped (confidence 2) [BA12FBC6]
Track 8 accurately ripped (confidence 2) [6C587F04]
Track 9 accurately ripped (confidence 2) [6D56D813]
Track 10 accurately ripped (confidence 2) [8EB15A00]
Track 11 accurately ripped (confidence 2) [3FDE798D]
Track 12 accurately ripped (confidence 2) [BDB17A31]
Track 13 accurately ripped (confidence 2) [BC6940B4]
Track 14 accurately ripped (confidence 2) [8B3647AB]
Track 15 accurately ripped (confidence 2) [67304985]
Track 16 accurately ripped (confidence 2) [5C228701]
Track 17 accurately ripped (confidence 2) [61985A68]
Track 18 not present in database
Track 19 not present in database
Track 20 not present in database
Track 21 accurately ripped (confidence 2) [F7D43BD4]
Track 22 accurately ripped (confidence 2) [9E143D7D]
Track 23 not present in database
19 track(s) accurately ripped
4 track(s) not present in the AccurateRip database
Some tracks could not be verified as accurate
End of status report

info [Профиль]  [ЛС] 
Показать сообщения:    
Ответить на тему

Текущее время: 20-Сен 12:00

Часовой пояс: GMT + 4



Вы не можете начинать темы
Вы не можете отвечать на сообщения
Вы не можете редактировать свои сообщения
Вы не можете удалять свои сообщения
Вы не можете голосовать в опросах
Вы не можете прикреплять файлы к сообщениям
Вы не можете скачивать файлы