Ошибка
Загрузка...

(Score) Tales of Vesperia Original Soundtrack (by Motoi Sakuraba, Hibiki Aoyama) - 2008 г., FLAC (tracks), lossless

Ответить на тему
 
Автор Сообщение

Hobbit38

Пол: Пол:Муж

Стаж: 4 года

Сообщений: 527

Россия
Рейтинг

post 23-Апр-2018 19:15 0[+]

[Цитировать] 


Жанр: Score | Год выпуска: Aug 20, 2008 | Композитор: Motoi Sakuraba, Hibiki Aoyama

Издатель (лейбл): Warner Music Japan | Номер каталога: WPCL-10491~4

Аудиокодек: FLAC (.flac) | Тип рипа: tracks | Битрейт аудио: lossless

Продолжительность: 04:27:32


DISC 1 (31 / 1:11:31)
---------------------------------------------------------------------------------------------------------
01. The Dawn of Departure (1:19)
02. Trends of the World (1:05)
03. The Story Begins (0:56)
04. Omen (0:11)
05. Unfulfilled Wish (0:45)
06. Elegant Moment (4:39)
07. The Daily Routine of a Selfish Young Man (2:49)
08. Unforeseen Dangers (2:26)
09. Furnace of War (2:49)
10. Victory Cry (0:51)
11. Pledge to the Sword and Armor (2:07)
12. Unveiled Conspiracy (2:38)
13. Stirring Situation (2:33)
14. Madness (3:02)
15. Distorted Sword Light (2:32)
16. An Unwelcome State of Affairs (1:38)
17. Serenade of the Morning Star (5:06)
18. Comfortable Journey (3:04)
19. Impenetrable Wall (3:14)
20. Embers of Chaos (1:43)
21. Wavering Taboo (1:55)
22. A Bet on This Bout (4:07)
23. An Evening Requiem (1:37)
24. A Pleasant Scheme (2:46)
25. Miracle in the City of Blossoms (1:03)
26. Melody of Petals (2:59)
27. Mages of the Shadow's Depths (3:27)
28. The Young Sorceress' Foul Mood (2:42)
29. Thousand-Year Slumber of the Blastia (1:45)
30. Over the Small Hills (1:41)
31. Around the World (2:03)

DISC 2 (28 / 1:08:43)
---------------------------------------------------------------------------------------------------------
01. Full of Unrest (1:23)
02. Bonds (2:06)
03. The Sound of Waves Dancing in the Soul (2:36)
04. Rain-Soaked Ruins (1:48)
05. Evolution and Harmony of the Beautiful (4:43)
06. A Vow of Unity (2:58)
07. In the Deep and Peaceful Brush (1:29)
08. Break Through! Ghasfarost (0:52)
09. The Might of the Gigantic Fortress (0:19)
10. The Cold Morning Star Passes By (3:21)
11. Burning Fighting Spirit (3:18)
12. Absolute Victory! (1:01)
13. The Villain's Conspiracy and the Mechanical Tower (2:53)
14. Braving the Great Ocean (2:52)
15. Gentle Sunlight (2:51)
16. Nightmares Reflected in the Mirror (1:58)
17. Under the Flag of the Knights (3:30)
18. Malice Dwelling in the Cave (1:48)
19. The Tormenting Whisper of Water (3:13)
20. Arabesque of Golden Sand (1:42)
21. The Night the Cactus Flower Blooms (1:56)
22. A Formidable Foe Stands in the Way (2:50)
23. Beyond the Mirage (3:56)
24. Duke (1:51)
25. The Full Moon and the Morning Star ~ from 'Ring a Bell' (3:00)
26. The Wise One (3:38)
27. Tragic Decision (3:18)
28. A Solemn and Immoral Feast (1:32)

DISC 3 (36 / 1:04:33)
---------------------------------------------------------------------------------------------------------
01. The Tumultuous Mountain (2:00)
02. Judith, A Portrait of Solitude (3:26)
03. Soaring Over Day and Night (3:03)
04. Brilliant Life, Rising Light (1:40)
05. The Ancients Drift in the Sky (3:38)
06. Echo of a Hollow Past (2:06)
07. The Pursued Holy Core (0:25)
08. Countless Ages (3:04)
09. Ocean Pursuit (0:14)
10. Chance for a Big Reversal (2:27)
11. An Approaching Menace (3:03)
12. Moments Before the Main Battery Fires (0:47)
13. Omen of Destruction (2:51)
14. Across the Devastating Aer (1:15)
15. Estelle's Despair (0:28)
16. Diamond Dust (1:32)
17. Dein Nomos (0:26)
18. The Truth Hidden in the Shadows of the World (0:45)
19. Cry of the heart (0:48)
20. Source of the Seething Silence (3:29)
21. The Cold Morning Star and the Child of the Full Moon (0:56)
22. The World At His Fingertips (1:38)
23. Cutting Off the Dark Ambitions (4:23)
24. Seal of Destruction (0:49)
25. Loss (0:45)
26. Yuri Falls (0:38)
27. A Warm and Welcoming Bath (1:42)
28. Play Time (1:25)
29. Playing With the Wind ~ from 'Kaze no Klonoa' (2:09)
30. Fight, Our Beraboh Man ~ from 'Chouzetsu Rinjin Beraboh Man' (1:08)
31. Shadow Running Underground ~ from 'Metro Cross' (1:10)
32. Can We Do It? (1:20)
33. Fly, Ba'ul (1:26)
34. Serious Match! (1:49)
35. Labyrinth of a Faded Past (1:22)
36. Encounter with the Unknown (4:26)

DISC 4 (23 / 1:02:43)
---------------------------------------------------------------------------------------------------------
01. The Saviors' Determination (3:28)
02. Indomitable Tenacity (2:35)
03. Forest of Mysteries (1:46)
04. Undying Resolve (2:35)
05. Howling Wind in the Ravine (1:55)
06. In Pitiful Silence (2:02)
07. Activation (0:26)
08. Those Who Lost Protection (2:18)
09. Echoing Breath (3:34)
10. Scattering Sparks (3:05)
11. Moment of Ruin That Shakes the Heavens (2:42)
12. Aim for the Top (2:55)
13. Unrequited Feelings ~ from 'Ring a Bell' (3:43)
14. Hidden Power of the Ancient Tower City (2:13)
15. When Determination Clashes (4:25)
16. The Final Showdown (4:32)
17. A Once-in-a-Lifetime Duel (4:36)
18. Resolution of the People ~ from 'Ring a Bell' (2:27)
19. Answering the Call (0:42)
20. Swaying Heart (1:36)
21. Unite the Power of the Echoing Voices (1:20)
22. Soaring to a New World (0:57)
23. A Story Ends, A Journey Begins ~ from 'Ring a Bell' (6:52)
 
Exact Audio Copy V0.99 prebeta 3 from 28. July 2007
EAC extraction logfile from 20. August 2008, 9:28
- / テイルズ オブ ヴェスペリア オリジナル サウンドトラック Disk1
Used drive : MATSHITADVD-RAM SW-9585S Adapter: 0 ID: 0
Read mode : Secure
Utilize accurate stream : Yes
Defeat audio cache : No
Make use of C2 pointers : Yes
Read offset correction : 72
Overread into Lead-In and Lead-Out : No
Fill up missing offset samples with silence : Yes
Delete leading and trailing silent blocks : No
Null samples used in CRC calculations : No
Used interface : Native Win32 interface for Win NT & 2000
Used output format : User Defined Encoder
Selected bitrate : 1024 kBit/s
Quality : High
Add ID3 tag : No
Command line compressor : C:\Program Files\Exact Audio Copy\ttaenc-3\ttaenc.exe
TOC of the extracted CD
Track | Start | Length | Start sector | End sector
---------------------------------------------------------
1 | 0:00.00 | 1:18.43 | 0 | 5892
2 | 1:18.43 | 1:04.69 | 5893 | 10761
3 | 2:23.37 | 0:55.50 | 10762 | 14936
4 | 3:19.12 | 0:11.05 | 14937 | 15766
5 | 3:30.17 | 0:45.10 | 15767 | 19151
6 | 4:15.27 | 4:38.63 | 19152 | 40064
7 | 8:54.15 | 2:49.00 | 40065 | 52739
8 | 11:43.15 | 2:26.00 | 52740 | 63689
9 | 14:09.15 | 2:48.69 | 63690 | 76358
10 | 16:58.09 | 0:50.60 | 76359 | 80168
11 | 17:48.69 | 2:07.01 | 80169 | 89694
12 | 19:55.70 | 2:38.12 | 89695 | 101556
13 | 22:34.07 | 2:33.36 | 101557 | 113067
14 | 25:07.43 | 3:02.21 | 113068 | 126738
15 | 28:09.64 | 2:32.12 | 126739 | 138150
16 | 30:42.01 | 1:37.63 | 138151 | 145488
17 | 32:19.64 | 5:06.27 | 145489 | 168465
18 | 37:26.16 | 3:03.45 | 168466 | 182235
19 | 40:29.61 | 3:13.66 | 182236 | 196776
20 | 43:43.52 | 1:43.30 | 196777 | 204531
21 | 45:27.07 | 1:55.00 | 204532 | 213156
22 | 47:22.07 | 4:06.39 | 213157 | 231645
23 | 51:28.46 | 1:37.03 | 231646 | 238923
24 | 53:05.49 | 2:45.48 | 238924 | 251346
25 | 55:51.22 | 1:02.71 | 251347 | 256067
26 | 56:54.18 | 2:59.00 | 256068 | 269492
27 | 59:53.18 | 3:27.00 | 269493 | 285017
28 | 63:20.18 | 2:42.00 | 285018 | 297167
29 | 66:02.18 | 1:45.00 | 297168 | 305042
30 | 67:47.18 | 1:41.00 | 305043 | 312617
31 | 69:28.18 | 2:03.14 | 312618 | 321856
Range status and errors
Selected range
Filename D:\[EAC] テイルズ オブ ヴェスペリア オリジナル サウンドトラック (080820 tta+cue+jpg rr3)\テイルズ オブ ヴェスペリア オリジナル サウンドトラック Disk1.wav
Peak level 99.8 %
Range quality 100.0 %
Copy CRC 9D7DE509
Copy OK
No errors occurred
End of status report
 
Exact Audio Copy V0.99 prebeta 3 from 28. July 2007
EAC extraction logfile from 20. August 2008, 10:28
- / テイルズ オブ ヴェスペリア オリジナル サウンドトラック Disk2
Used drive : MATSHITADVD-RAM SW-9585S Adapter: 0 ID: 0
Read mode : Secure
Utilize accurate stream : Yes
Defeat audio cache : No
Make use of C2 pointers : Yes
Read offset correction : 72
Overread into Lead-In and Lead-Out : No
Fill up missing offset samples with silence : Yes
Delete leading and trailing silent blocks : No
Null samples used in CRC calculations : No
Used interface : Native Win32 interface for Win NT & 2000
Used output format : User Defined Encoder
Selected bitrate : 1024 kBit/s
Quality : High
Add ID3 tag : No
Command line compressor : C:\Program Files\Exact Audio Copy\ttaenc-3\ttaenc.exe
TOC of the extracted CD
Track | Start | Length | Start sector | End sector
---------------------------------------------------------
1 | 0:00.00 | 1:23.03 | 0 | 6227
2 | 1:23.03 | 2:06.06 | 6228 | 15683
3 | 3:29.09 | 2:36.00 | 15684 | 27383
4 | 6:05.09 | 1:48.00 | 27384 | 35483
5 | 7:53.09 | 4:43.00 | 35484 | 56708
6 | 12:36.09 | 2:58.30 | 56709 | 70088
7 | 15:34.39 | 1:29.00 | 70089 | 76763
8 | 17:03.39 | 0:52.05 | 76764 | 80668
9 | 17:55.44 | 0:18.65 | 80669 | 82083
10 | 18:14.34 | 3:20.42 | 82084 | 97125
11 | 21:35.01 | 3:18.24 | 97126 | 111999
12 | 24:53.25 | 1:01.02 | 112000 | 116576
13 | 25:54.27 | 2:53.00 | 116577 | 129551
14 | 28:47.27 | 2:52.00 | 129552 | 142451
15 | 31:39.27 | 2:50.45 | 142452 | 155246
16 | 34:29.72 | 1:58.34 | 155247 | 164130
17 | 36:28.31 | 3:30.27 | 164131 | 179907
18 | 39:58.58 | 1:48.00 | 179908 | 188007
19 | 41:46.58 | 3:13.00 | 188008 | 202482
20 | 44:59.58 | 1:42.30 | 202483 | 210162
21 | 46:42.13 | 1:56.24 | 210163 | 218886
22 | 48:38.37 | 2:50.00 | 218887 | 231636
23 | 51:28.37 | 3:55.66 | 231637 | 249327
24 | 55:24.28 | 1:51.00 | 249328 | 257652
25 | 57:15.28 | 3:00.00 | 257653 | 271152
26 | 60:15.28 | 3:38.00 | 271153 | 287502
27 | 63:53.28 | 3:17.57 | 287503 | 302334
28 | 67:11.10 | 1:32.05 | 302335 | 309239
Range status and errors
Selected range
Filename D:\[EAC] テイルズ オブ ヴェスペリア オリジナル サウンドトラック (080820 tta+cue+jpg rr3)\テイルズ オブ ヴェスペリア オリジナル サウンドトラック Disk2.wav
Peak level 99.8 %
Range quality 100.0 %
Copy CRC AB8BC6CC
Copy OK
No errors occurred
End of status report
 
Exact Audio Copy V0.99 prebeta 3 from 28. July 2007
EAC extraction logfile from 20. August 2008, 11:37
- / テイルズ オブ ヴェスペリア オリジナル サウンドトラック Disk3
Used drive : MATSHITADVD-RAM SW-9585S Adapter: 0 ID: 0
Read mode : Secure
Utilize accurate stream : Yes
Defeat audio cache : No
Make use of C2 pointers : Yes
Read offset correction : 72
Overread into Lead-In and Lead-Out : No
Fill up missing offset samples with silence : Yes
Delete leading and trailing silent blocks : No
Null samples used in CRC calculations : No
Used interface : Native Win32 interface for Win NT & 2000
Used output format : User Defined Encoder
Selected bitrate : 1024 kBit/s
Quality : High
Add ID3 tag : No
Command line compressor : C:\Program Files\Exact Audio Copy\ttaenc-3\ttaenc.exe
TOC of the extracted CD
Track | Start | Length | Start sector | End sector
---------------------------------------------------------
1 | 0:00.00 | 2:00.00 | 0 | 8999
2 | 2:00.00 | 3:26.00 | 9000 | 24449
3 | 5:26.00 | 3:03.00 | 24450 | 38174
4 | 8:29.00 | 1:40.00 | 38175 | 45674
5 | 10:09.00 | 3:38.00 | 45675 | 62024
6 | 13:47.00 | 2:06.18 | 62025 | 71492
7 | 15:53.18 | 0:25.04 | 71493 | 73371
8 | 16:18.22 | 3:04.00 | 73372 | 87171
9 | 19:22.22 | 0:14.36 | 87172 | 88257
10 | 19:36.58 | 2:27.30 | 88258 | 99312
11 | 22:04.13 | 3:03.00 | 99313 | 113037
12 | 25:07.13 | 0:46.49 | 113038 | 116536
13 | 25:53.62 | 2:51.21 | 116537 | 129382
14 | 28:45.08 | 1:15.08 | 129383 | 135015
15 | 30:00.16 | 0:28.01 | 135016 | 137116
16 | 30:28.17 | 1:32.00 | 137117 | 144016
17 | 32:00.17 | 0:26.34 | 144017 | 146000
18 | 32:26.51 | 0:44.57 | 146001 | 149357
19 | 33:11.33 | 0:48.32 | 149358 | 152989
20 | 33:59.65 | 3:29.06 | 152990 | 168670
21 | 37:28.71 | 0:55.39 | 168671 | 172834
22 | 38:24.35 | 1:38.00 | 172835 | 180184
23 | 40:02.35 | 4:23.00 | 180185 | 199909
24 | 44:25.35 | 0:49.07 | 199910 | 203591
25 | 45:14.42 | 0:44.57 | 203592 | 206948
26 | 45:59.24 | 0:37.58 | 206949 | 209781
27 | 46:37.07 | 1:42.00 | 209782 | 217431
28 | 48:19.07 | 1:25.00 | 217432 | 223806
29 | 49:44.07 | 2:09.00 | 223807 | 233481
30 | 51:53.07 | 1:08.00 | 233482 | 238581
31 | 53:01.07 | 1:09.48 | 238582 | 243804
32 | 54:10.55 | 1:20.00 | 243805 | 249804
33 | 55:30.55 | 1:26.00 | 249805 | 256254
34 | 56:56.55 | 1:49.00 | 256255 | 264429
35 | 58:45.55 | 1:21.69 | 264430 | 270573
36 | 60:07.49 | 4:25.63 | 270574 | 290511
Range status and errors
Selected range
Filename D:\[EAC] テイルズ オブ ヴェスペリア オリジナル サウンドトラック (080820 tta+cue+jpg rr3)\テイルズ オブ ヴェスペリア オリジナル サウンドトラック Disk3.wav
Peak level 99.8 %
Range quality 100.0 %
Copy CRC 87F0A58F
Copy OK
No errors occurred
End of status report
 
Exact Audio Copy V0.99 prebeta 3 from 28. July 2007
EAC extraction logfile from 20. August 2008, 12:05
- / テイルズ オブ ヴェスペリア オリジナル サウンドトラック Disk4
Used drive : MATSHITADVD-RAM SW-9585S Adapter: 0 ID: 0
Read mode : Secure
Utilize accurate stream : Yes
Defeat audio cache : No
Make use of C2 pointers : Yes
Read offset correction : 72
Overread into Lead-In and Lead-Out : No
Fill up missing offset samples with silence : Yes
Delete leading and trailing silent blocks : No
Null samples used in CRC calculations : No
Used interface : Native Win32 interface for Win NT & 2000
Used output format : User Defined Encoder
Selected bitrate : 1024 kBit/s
Quality : High
Add ID3 tag : No
Command line compressor : C:\Program Files\Exact Audio Copy\ttaenc-3\ttaenc.exe
TOC of the extracted CD
Track | Start | Length | Start sector | End sector
---------------------------------------------------------
1 | 0:00.00 | 3:28.09 | 0 | 15608
2 | 3:28.09 | 2:35.00 | 15609 | 27233
3 | 6:03.09 | 1:46.00 | 27234 | 35183
4 | 7:49.09 | 2:35.00 | 35184 | 46808
5 | 10:24.09 | 1:55.00 | 46809 | 55433
6 | 12:19.09 | 2:02.00 | 55434 | 64583
7 | 14:21.09 | 0:26.27 | 64584 | 66560
8 | 14:47.36 | 2:18.00 | 66561 | 76910
9 | 17:05.36 | 3:34.00 | 76911 | 92960
10 | 20:39.36 | 3:05.00 | 92961 | 106835
11 | 23:44.36 | 2:42.03 | 106836 | 118988
12 | 26:26.39 | 2:54.42 | 118989 | 132080
13 | 29:21.06 | 3:42.48 | 132081 | 148778
14 | 33:03.54 | 2:13.00 | 148779 | 158753
15 | 35:16.54 | 4:25.03 | 158754 | 178631
16 | 39:41.57 | 4:31.69 | 178632 | 199025
17 | 44:13.51 | 4:36.00 | 199026 | 219725
18 | 48:49.51 | 2:27.00 | 219726 | 230750
19 | 51:16.51 | 0:41.52 | 230751 | 233877
20 | 51:58.28 | 1:35.48 | 233878 | 241050
21 | 53:34.01 | 1:20.09 | 241051 | 247059
22 | 54:54.10 | 0:56.69 | 247060 | 251328
23 | 55:51.04 | 6:52.32 | 251329 | 282260
Range status and errors
Selected range
Filename D:\[EAC] テイルズ オブ ヴェスペリア オリジナル サウンドトラック (080820 tta+cue+jpg rr3)\テイルズ オブ ヴェスペリア オリジナル サウンドトラック Disk4.wav
Peak level 99.8 %
Range quality 100.0 %
Copy CRC 497F3F7E
Copy OK
No errors occurred
End of status report
Composed by NAMCO TALES STUDIO LTD.
excluding: BONNIE PINK [Disc2:25 Disc4:13,18,23]
NBGI [Disc3:29-31]
Arranged by NAMCO TALES STUDIO LTD. [Disc2:25 Disc4:13,18,23]

Composer info from the liner notes:
- Motoi Sakuraba: live piano in the songs he did, movies, end roll (theme song arrange)
- Hibiki Aoyama: characters (melodic), dungeons (simple and minimal mood), towns (in between those two), 1-31

NBGI Reprises:
3.29: "The Windmill Song" from Klonoa: Door to Phantomile (Kaze no Klonoa), composed by Junko Ozawa
3.30: "Bgm1" from Bravoman (Chouzetsu Rinjin Beraboh Man), composed by Norio Nakagata
3.31: "Main BGM" from Metro Cross, composed by Nobuyuki Ohnogi

[Original Soundtrack Staff]

Mastered by Ryuichi Tanaka (MIXER'S LAB) at Warner Music Mastering

Art Direction & Design : Yasuyuki Tamenaga (black★bath)

A&R : Souichiro Takakura (WARNER MUSIC JAPAN), Ryoma Suzuki (WARNER MUSIC JAPAN)
A&R Assistant : Kazuma Inasaki (WARNER MUSIC JAPAN)
Sales Promotion : Yasushi Suzuki (WARNER MUSIC JAPAN)
Products Coordination : Masayo Kuroda (WARNER MUSIC JAPAN)
Executive Producer : Takashi Yoshida (WARNER MUSIC JAPAN)

Special Thanks to
Shuji Ikegami, Takeshi Yokoyama, Takashi Hasegawa, Kenji Anabuki
Kenta Seino, Shoko Metoki, Natsuko Kaneko

info [Профиль]  [ЛС] 
Показать сообщения:    
Ответить на тему

Текущее время: 23-Май 19:09

Часовой пояс: GMT + 4



Вы не можете начинать темы
Вы не можете отвечать на сообщения
Вы не можете редактировать свои сообщения
Вы не можете удалять свои сообщения
Вы не можете голосовать в опросах
Вы не можете прикреплять файлы к сообщениям
Вы не можете скачивать файлы