Ошибка

Бегущий по лезвию 2049 / Blade Runner 2049 (2036: Возрождение Nexus / 2048: Некуда бежать / Блэкаут 2022) (Люк Скотт, Синъитиро Ватанабэ) [2017 г., Фантастика, боевик, короткометражка, аниме, HD-AVC 720p]

Ответить на тему
 
Автор Сообщение

Pray

Пол: Пол:Муж

Стаж: 7 лет

Сообщений: 1305

Украина
Рейтинг

post 28-Мар-2018 21:22 1[+]

[Цитировать] 

Бегущий по лезвию 2049 (2036: Возрождение Nexus / 2048: Некуда бежать / Блэкаут 2022)

Год выпуска: 2017
Страна: США
Жанр: Фантастика, боевик, короткометражка, аниме
Продолжительность: 00:06:30 / 00:05:45 / 00:15:47
Перевод: Профессиональный (полное дублирование) + SHIZA Project (Любительский, многоголосый)

Режиссер:
  • Люк Скотт и Синъитиро Ватанабэ


В ролях:
  • Джарерд Лето, Дэйв Батиста, Герард Миллер, Биджан Данешманд, Бенедикт Вонг, Нед Деннехи, Эйд Сапара, Аня Марсон


Описание: Перед выходом «Бегущего по лезвию 2049» — продолжения фильма 1982 года — создатели выпустили три короткометражки, которые посвящены ключевым событиям между двумя частями. В них рассказывается о восстании репликантов после событий первого фильма, о запрете на производство андроидов и о том, почему несмотря на это, оно продолжилось.

Первые две короткометражки снял сын автора оригинального фильма Ридли Скота - Люк Скотт. Первая посвящена событиям 2036 года и герою Джарерда Лето Ниандру Уоллесу, который после запрета репликантов нашел новый способ избавиться от голода и теперь выступает против запрета на производство. Его имя носит корпорация, пришедшая на смену Tyrell из первой части. В ролике он показывает андроида нового поколения Nexus 9, который не должен повторить ошибки предыдущих моделей и выйти из-под контроля.

Вторая короткометражка «2048: Некуда бежать» посвящена репликанту Сапперу Мортону, которого сыграл Дейв Батиста. Из-за запрета репликантов он вынужден скрываться, но его раскрывают, когда он вступается за маленькую девочку и ее маму.

Режиссер третьей часть Синъитиро Ватанабэ создал аниме «Аниматрица» и «Ковбой Бибоп». Короткометражка «Блэкаут 2022» также выполнена в стиле аниме и она самая продолжительная из трех фильмов. Ее события разворачиваются через три года после первого фильма и посвящены блэкауту — отключению электричества после восстания репликантов, которые сбросили на Лос-Анджелес электромагнитную бомбу. В итоге корпорация Tyrell из первой части рушится, а права на создание новых роботов более чем через 10 лет получает пришедшая ей на смену Wallace, которой и посвящена вторая часть фильма.
Качество: HD-AVC
Формат: MPEG-4
Видео кодек: avc1
Аудио кодек: AAC
Видео: MPEG4 Video (H264), 1280x720, 23.976fps, 836(742)kbps
Аудио: AAC, 44100Hz, stereo, 126kbps
General
Complete name : E:\Видео\Бегущий по лезвию 2049 - Короткометражки\Бегущий по лезвию 2049 - 2036. Возрождение Nexus.mp4
Format : MPEG-4
Format profile : Base Media / Version 2
Codec ID : mp42
File size : 25.2 MiB
Duration : 6mn 30s
Overall bit rate mode : Variable
Overall bit rate : 542 Kbps
Encoded date : UTC 2017-10-03 02:12:12
Tagged date : UTC 2017-10-03 02:12:12
gsst : 0
gstd : 390443

Video
ID : 1
Format : AVC
Format/Info : Advanced Video Codec
Format profile : Main@L3.1
Format settings, CABAC : Yes
Format settings, ReFrames : 3 frames
Codec ID : avc1
Codec ID/Info : Advanced Video Coding
Duration : 6mn 30s
Bit rate mode : Variable
Bit rate : 412 Kbps
Width : 1 280 pixels
Height : 720 pixels
Display aspect ratio : 16:9
Frame rate mode : Variable
Frame rate : 23.976 fps
Minimum frame rate : 23.974 fps
Maximum frame rate : 23.981 fps
Color space : YUV
Chroma subsampling : 4:2:0
Bit depth : 8 bits
Scan type : Progressive
Bits/(Pixel*Frame) : 0.019
Stream size : 19.2 MiB (76%)
Title : ISO Media file produced by Google Inc. Created on: 10/02/2017.
Encoded date : UTC 2017-10-03 02:12:12
Tagged date : UTC 2017-10-03 02:12:12
Color primaries : BT.709
Transfer characteristics : BT.709
Matrix coefficients : BT.709

Audio
ID : 2
Format : AAC
Format/Info : Advanced Audio Codec
Format profile : LC
Codec ID : 40
Duration : 6mn 30s
Bit rate mode : Variable
Bit rate : 126 Kbps
Channel(s) : 2 channels
Channel positions : Front: L R
Sampling rate : 44.1 KHz
Compression mode : Lossy
Delay relative to video : 42ms
Stream size : 5.84 MiB (23%)
Title : ISO Media file produced by Google Inc. Created on: 10/02/2017.
Encoded date : UTC 2017-10-03 02:12:12
Tagged date : UTC 2017-10-03 02:12:12
General
Complete name : E:\Видео\Бегущий по лезвию 2049 - Короткометражки\Бегущий по лезвию 2049 - 2048 Некуда бежать.mp4
Format : MPEG-4
Format profile : Base Media / Version 2
Codec ID : mp42
File size : 35.9 MiB
Duration : 5mn 45s
Overall bit rate mode : Variable
Overall bit rate : 872 Kbps
Encoded date : UTC 2017-10-03 02:42:50
Tagged date : UTC 2017-10-03 02:42:50
gsst : 0
gstd : 345420

Video
ID : 1
Format : AVC
Format/Info : Advanced Video Codec
Format profile : Main@L3.1
Format settings, CABAC : Yes
Format settings, ReFrames : 3 frames
Codec ID : avc1
Codec ID/Info : Advanced Video Coding
Duration : 5mn 45s
Bit rate mode : Variable
Bit rate : 742 Kbps
Width : 1 280 pixels
Height : 720 pixels
Display aspect ratio : 16:9
Frame rate mode : Variable
Frame rate : 23.976 fps
Minimum frame rate : 23.974 fps
Maximum frame rate : 23.981 fps
Color space : YUV
Chroma subsampling : 4:2:0
Bit depth : 8 bits
Scan type : Progressive
Bits/(Pixel*Frame) : 0.034
Stream size : 30.6 MiB (85%)
Title : ISO Media file produced by Google Inc. Created on: 10/02/2017.
Encoded date : UTC 2017-10-03 02:42:50
Tagged date : UTC 2017-10-03 02:42:50
Color primaries : BT.709
Transfer characteristics : BT.709
Matrix coefficients : BT.709

Audio
ID : 2
Format : AAC
Format/Info : Advanced Audio Codec
Format profile : LC
Codec ID : 40
Duration : 5mn 45s
Bit rate mode : Variable
Bit rate : 126 Kbps
Channel(s) : 2 channels
Channel positions : Front: L R
Sampling rate : 44.1 KHz
Compression mode : Lossy
Delay relative to video : 42ms
Stream size : 5.17 MiB (14%)
Title : ISO Media file produced by Google Inc. Created on: 10/02/2017.
Encoded date : UTC 2017-10-03 02:42:50
Tagged date : UTC 2017-10-03 02:42:50
General
Complete name : E:\Видео\Бегущий по лезвию 2049 - Короткометражки\Бегущий по лезвию 2049 - Блэкаут 2022.mp4
Format : MPEG-4
Format profile : Base Media / Version 2
Codec ID : mp42
File size : 109 MiB
Duration : 15mn 47s
Overall bit rate mode : Variable
Overall bit rate : 967 Kbps
Encoded date : UTC 2017-10-10 08:12:05
Tagged date : UTC 2017-10-10 08:12:05
gsst : 0
gstd : 948047

Video
ID : 1
Format : AVC
Format/Info : Advanced Video Codec
Format profile : Main@L3.1
Format settings, CABAC : Yes
Format settings, ReFrames : 3 frames
Codec ID : avc1
Codec ID/Info : Advanced Video Coding
Duration : 15mn 47s
Bit rate mode : Variable
Bit rate : 837 Kbps
Width : 1 280 pixels
Height : 720 pixels
Display aspect ratio : 16:9
Frame rate mode : Variable
Frame rate : 23.976 fps
Minimum frame rate : 23.974 fps
Maximum frame rate : 23.981 fps
Color space : YUV
Chroma subsampling : 4:2:0
Bit depth : 8 bits
Scan type : Progressive
Bits/(Pixel*Frame) : 0.038
Stream size : 94.5 MiB (87%)
Title : ISO Media file produced by Google Inc. Created on: 10/10/2017.
Encoded date : UTC 2017-10-10 08:12:05
Tagged date : UTC 2017-10-10 08:12:05
Color primaries : BT.709
Transfer characteristics : BT.709
Matrix coefficients : BT.709

Audio
ID : 2
Format : AAC
Format/Info : Advanced Audio Codec
Format profile : LC
Codec ID : 40
Duration : 15mn 47s
Bit rate mode : Variable
Bit rate : 126 Kbps
Channel(s) : 2 channels
Channel positions : Front: L R
Sampling rate : 44.1 KHz
Compression mode : Lossy
Delay relative to video : 42ms
Stream size : 14.2 MiB (13%)
Title : ISO Media file produced by Google Inc. Created on: 10/10/2017.
Encoded date : UTC 2017-10-10 08:12:05
Tagged date : UTC 2017-10-10 08:12:05
info [Профиль]  [ЛС] 

post 28-Мар-2018 22:10 (спустя 47 минут) [-]0[+]

Топик был перенесен из форума Зарубежное кино | Rips в форум Прочее | Трейлеры и доп. материалы (Зарубежное кино)

BZzz
 

ЕДИНЫЙ

Пол: Пол:Муж

Стаж: 11 месяцев

Сообщений: 6

Россия
Рейтинг

post 28-Мар-2018 22:45 (спустя 1 час 22 минуты) [-]0[+]

[Цитировать] 

помотрел ну знай одназначного ответа нет. проясняет да. ну фильм уже просмотрен
info [Профиль]  [ЛС] 

otets

Пол: Пол:Муж

Стаж: 8 лет 4 месяца

Сообщений: 316

ОАЭ
Рейтинг

post 29-Мар-2018 01:50 (спустя 3 часа) [-]0[+]

[Цитировать] 

На пстере - Бегущий по лезвию 2048; а в названии темы 2049....это как так? По моему 2049 он называется

_________________
ASUS X299 Deluxe/ Intel Core i7 7820x 3.6ГГц / ASUS GeForce GTX 1080 A8G 8Гб / 32Гб ОЗУ G.skill tridentZ 3200mhz(c14)/Samsun ssd m.2 960pro 512mb/samsung ssd 850evo 240/ Corsair RMi 1000W
info [Профиль]  [ЛС] 

ShadowGraves

Пол: Пол:Муж

Стаж: 8 лет

Сообщений: 157

Россия
Рейтинг

post 29-Мар-2018 06:46 (спустя 4 часа) [-]0[+]

[Цитировать] 

otets писал(а):

На пстере - Бегущий по лезвию 2048; а в названии темы 2049....это как так? По моему 2049 он называется
Это названия короткометражек.
info [Профиль]  [ЛС] 
Показать сообщения:    
Ответить на тему

Текущее время: 19-Июл 07:58

Часовой пояс: GMT + 4



Вы не можете начинать темы
Вы не можете отвечать на сообщения
Вы не можете редактировать свои сообщения
Вы не можете удалять свои сообщения
Вы не можете голосовать в опросах
Вы не можете прикреплять файлы к сообщениям
Вы не можете скачивать файлы