Ошибка

Игра на выживание: Начало / No Game No Life: Zero [Movie] [2017] [трагедия, драма, фэнтези, приключения, мистика] [BDRip1080p] [Любительская] [AniDub]

Ответить на тему
 
Автор Сообщение

Chel90RUS

Пол: Пол:Муж

Стаж: 7 лет 5 месяцев

Сообщений: 569

Россия
Рейтинг

post 01-Мар-2018 16:18 1[+]

[Цитировать] 

pic="https://static2.anidub.com/tracker/poster/202d7c53c0.jpg"
Игра на выживание: Начало
No Game No Life: Zero / ノーゲーム・ノーライフ ゼロ

Год выпуска: 2017
Жанр: Трагедия, драма, фэнтези, приключения, мистика
Страна: Япония
Тип: BDRip
Продолжительность: 110 мин
Дата выпуска: 15.07.2017
Режиссер: Исидзука Ацуко
Автор оригинала / Сценарист: Камия Ю
Озвучено: JAM, Trina_D
Перевод: Добрые люди
Тайминг и работа со звуком: Angrod, ValeK_TV
Студия: Madhouse Studios
Аудио: Audio: AAC 48000Hz stereo [A: English [eng] (aac lc, 48000 Hz, stereo) [default]]
Видео: MPEG4 Video (H264) 1920x1080 23.976fps [V: h264 main L4.1, yuv420p, 1920x1080 [default]]
General
Unique ID : 211332416474110855297648036337622279953 (0x9EFD2495CC0693088247E69612E96711)
Complete name : \[AniDub]_No_Game_No_Life_Zero_[BDRip_1920x1080_x264_Aac]_[JAM_Trina_D].mkv
Format : Matroska
Format version : Version 4 / Version 2
File size : 4.79 GiB
Duration : 1 h 46 min
Overall bit rate : 6 439 kb/s
Encoded date : UTC 2018-02-28 18:30:21
Writing application : mkvmerge v9.2.0 ('Photograph') 64bit
Writing library : libebml v1.3.3 + libmatroska v1.4.4

Video
ID : 1
Format : AVC
Format/Info : Advanced Video Codec
Format profile : Main@L4.1
Format settings, CABAC : Yes
Format settings, RefFrames : 4 frames
Codec ID : V_MPEG4/ISO/AVC
Duration : 1 h 46 min
Bit rate : 6 308 kb/s
Width : 1 920 pixels
Height : 1 080 pixels
Display aspect ratio : 16:9
Frame rate mode : Constant
Frame rate : 23.976 (24000/1001) FPS
Color space : YUV
Chroma subsampling : 4:2:0
Bit depth : 8 bits
Scan type : Progressive
Bits/(Pixel*Frame) : 0.127
Stream size : 4.69 GiB (98%)
Writing library : x264 core 155 r2867+74 66b5600 t_mod_Custom_2 [8-bit@all X86_64]
Encoding settings : cabac=1 / ref=3 / deblock=1:0:0 / analyse=0x1:0x131 / me=umh / subme=9 / psy=1 / fade_compensate=0.00 / psy_rd=1.00:0.00 / mixed_ref=1 / me_range=32 / chroma_me=1 / trellis=1 / 8x8dct=0 / cqm=0 / deadzone=21,11 / fast_pskip=1 / chroma_qp_offset=-2 / threads=18 / lookahead_threads=1 / sliced_threads=0 / nr=0 / decimate=1 / interlaced=0 / bluray_compat=0 / constrained_intra=0 / fgo=0 / bframes=3 / b_pyramid=2 / b_adapt=1 / b_bias=0 / direct=1 / weightb=1 / open_gop=0 / weightp=2 / keyint=240 / keyint_min=1 / scenecut=40 / intra_refresh=0 / rc_lookahead=40 / rc=crf / mbtree=1 / crf=17.0000 / qcomp=0.60 / qpmin=0:0:0 / qpmax=69:69:69 / qpstep=4 / ip_ratio=1.40 / aq=1:1.00 / aq-sensitivity=10.00 / aq-factor=1.00:1.00:1.00 / aq2=0 / aq3=0
Default : Yes
Forced : No

Audio
ID : 2
Format : AAC
Format/Info : Advanced Audio Codec
Format profile : LC
Codec ID : A_AAC
Duration : 1 h 46 min
Bit rate : 128 kb/s
Channel(s) : 2 channels
Channel positions : Front: L R
Sampling rate : 48.0 kHz
Frame rate : 46.875 FPS (1024 SPF)
Compression mode : Lossy
Stream size : 97.5 MiB (2%)
Language : English
Default : Yes
Forced : No


Описание:Главными героями в этот раз выступают человек Рику и экс-машина Шуви, решившие положить конец войне Древних Богов, которая не прекращается уже много столетий.

Инцидент задолго до того, как все стало решаться в играх, задолго до того, как любые битвы были запрещены, и был создан «Дисборд».
Это эпоха великой войны, в которой каждый борется за то, чтобы стать единственным Богом. Страшная война, разрывающая небеса, разрушающая землю и даже уничтожающая звезды, привела к неминуемой гибели тех, кто не имел возможности сражаться.
Молодой человек по имени Рику ведет группу представителей разных рас, обладающих неописуемой силой. Он пробует все, чтобы люди могли выжить.
Однажды в городе эльфов Рику встречает молодую механическую девушку по имени Шуви. Бывшие товарищи бросили ее из-за интереса в отношении «сердца» - того, чего у машины никогда не может быть, - что вызвало системную ошибку. Шуви просит Рику научить ее «человеческому сердцу», чтобы исправить ошибку.
Это история о «старейшем мифе», который случился более шести тысяч лет назад и однажды приведет к «новейшему мифу».
Нерассказанная история, которая нигде не записана, которую никто не запомнит, вот-вот начнется...
info [Профиль]  [ЛС] 

1deru

Пол: Пол:Муж

Стаж: 6 лет 5 месяцев

Сообщений: 71

Россия
Рейтинг

post 04-Мар-2018 09:39 (спустя 2 дня 17 часов) [-]0[+]

[Цитировать] 

судя по описанию, это приквел к чему-то?
info [Профиль]  [ЛС] 

Grem

Пол: Пол:Муж

Стаж: 9 лет 3 месяца

Сообщений: 82

Россия
Рейтинг

post 04-Мар-2018 09:51 (спустя 11 минут) [-]0[+]

[Цитировать] 

1deru писал(а):

судя по описанию, это приквел к чему-то?
Да, к первому сезону этого аниме

_________________
info [Профиль]  [ЛС] 

Сайгалка

Пол: Пол:Муж

Стаж: 8 лет 2 месяца

Сообщений: 63

Россия
Рейтинг

post 04-Мар-2018 09:52 (спустя 25 секунд) [-]1[+]

[Цитировать] 

1deru писал(а):

судя по описанию, это приквел к чему-то?
http://tapochek.net/viewtopic.php?t=154268

_________________
Не можешь жить для себя, - живи для других.
info [Профиль]  [ЛС] 

PzrOzod

Пол: Пол:Муж

Стаж: 5 лет 9 месяцев

Сообщений: 9

Украина
Рейтинг

post 04-Мар-2018 12:41 (спустя 2 часа 48 минут) [-]0[+]

[Цитировать] 

Рисовка очень красивая, судя по скринам. А как насчёт наполнения? Очередной среднячок или стоит смотреть?
info [Профиль]  [ЛС] 

lix08

Пол: Пол:Муж

Стаж: 9 лет 4 месяца

Сообщений: 22

Внешние малые острова (США)
Рейтинг

post 04-Мар-2018 13:17 (спустя 36 минут) [-]2[+]

[Цитировать] 

Думал очередная ерунда, а оказалось одно из лучшего что смотрел за последние месяцы.
info [Профиль]  [ЛС] 
Показать сообщения:    
Ответить на тему

Текущее время: 12-Дек 15:02

Часовой пояс: GMT + 4



Вы не можете начинать темы
Вы не можете отвечать на сообщения
Вы не можете редактировать свои сообщения
Вы не можете удалять свои сообщения
Вы не можете голосовать в опросах
Вы не можете прикреплять файлы к сообщениям
Вы не можете скачивать файлы