Ошибка

(Post-rock, Ambient, Experimental) Red Sparowes - At The Soundless Dawn (Japan Edition) - 2005, FLAC (tracks+.cue), lossless

Ответить на тему
 
Автор Сообщение

chernichnoe

Пол: Пол:Жен

Стаж: 1 год 6 месяцев

Сообщений: 34

Россия
Рейтинг

post 10-Фев-2018 23:47 0[+]

[Цитировать] 

Red Sparowes - At The Soundless Dawn (Japan Edition)


pic="http://e-cdn-images.deezer.com/images/cover/4a425b27b7f906ecf05abd40fac040dc/500x500.jpg"


Жанр: Post-rock, Ambient, Experimental
Год издания данного носителя: 2005
Страна-производитель носителя: Japan
Лейбл: Daymare Recordings
Каталоговый номер: PTCD-1020
Аудио кодек: FLAC
Тип рипа: tracks+.cue
Битрейт аудио: lossless
Продолжительность: 1:09:51

Треклист:
01. Alone And Unaware, The Landscape Was Transformed In Front Of Our Eyes ... 8:28
02. Buildings Began To Stretch Wide Across The Sky, And The Air Filled With A Reddish Glow ... 7:23
03. The Soundless Dawn Came Alive As Cities Began To Mark The Horizon. ... 4:19
04. Mechanical Sounds Cascaded Through The City Walls And Everyone Reveled In Their Ignorance. ... 11:20
05. A Brief Moment Of Clarity Broke Through The Deafening Hum, But It Was Too Late. ... 6:00
06. Our Happiest Days Slowly Began To Turn Into Dust. ... 5:41
07. The Sixth Extinction Crept Up Slowly, Like Sunlight Through The Shutters, As We Looked Back In Regret. ... 19:33
08. I Saw The Sky In The North Open To The Ground And Fire Poured Out. ... 7:07
EAC extraction logfile from 16. May 2008, 11:44 for CD 
Red Sparowes / At the Soundless Dawn

Used drive : PLEXTOR DVDR PX-750A Adapter: 0 ID: 0
Read mode : Secure with NO C2, accurate stream, disable cache
Read offset correction : 102
Overread into Lead-In and Lead-Out : No

Used output format : C:Program FilesExact Audio CopyFLACflac.exe (User Defined Encoder)
192 kBit/s
Additional command line options : -V -8 -T "artist=%a" -T "title=%t" -T "album=%g" -T "date=%y" -T "tracknumber=%n" -T "genre=%m" %s

Other options :
Fill up missing offset samples with silence : Yes
Delete leading and trailing silent blocks : No
Installed external ASPI interface

Track 1
Filename E:FLACRed Sparowes - At the Soundless Dawn1 - Alone And Unaware, The Landscape Was Transformed In Front Of Our Eyes.wav

Pre-gap length 0:00:02.00

Peak level 98.7 %
Track quality 99.9 %
Test CRC 91A26AA0
Copy CRC 91A26AA0
Copy OK

Track 2
Filename E:FLACRed Sparowes - At the Soundless Dawn2 - Buildings Began To Stretch Wide Across The Sky, And The Air Filled With A Reddish Glow.wav

Pre-gap length 0:02:03.66

Peak level 98.2 %
Track quality 100.0 %
Test CRC B38AB897
Copy CRC B38AB897
Copy OK

Track 3
Filename E:FLACRed Sparowes - At the Soundless Dawn3 - The Soundless Dawn Came Alive As Cities Began To Mark The Horizon..wav

Pre-gap length 0:01:16.00

Peak level 94.9 %
Track quality 100.0 %
Test CRC 936933A8
Copy CRC 936933A8
Copy OK

Track 4
Filename E:FLACRed Sparowes - At the Soundless Dawn4 - Mechanical Sounds Cascaded Through The City Walls And Everyone Reveled In Their Ignorance..wav

Peak level 94.3 %
Track quality 100.0 %
Test CRC C3F110FA
Copy CRC C3F110FA
Copy OK

Track 5
Filename E:FLACRed Sparowes - At the Soundless Dawn5 - A Brief Moment Of Clarity Broke Through The Deafening Hum, But It Was Too Late..wav

Pre-gap length 0:02:16.53

Peak level 98.7 %
Track quality 100.0 %
Test CRC AF565BCC
Copy CRC AF565BCC
Copy OK

Track 6
Filename E:FLACRed Sparowes - At the Soundless Dawn6 - Our Happiest Days Slowly Began To Turn Into Dust..wav

Pre-gap length 0:02:12.46

Peak level 98.6 %
Track quality 100.0 %
Test CRC 9ECA209D
Copy CRC 9ECA209D
Copy OK

Track 7
Filename E:FLACRed Sparowes - At the Soundless Dawn7 - The Sixth Extinction Crept Up Slowly, Like Sunlight Through The Shutters, As We Looked Back In Regret..wav

Peak level 98.1 %
Track quality 100.0 %
Test CRC 49C879C4
Copy CRC 49C879C4
Copy OK

Track 8
Filename E:FLACRed Sparowes - At the Soundless Dawn8 - I Saw The Sky In The North Open To The Ground And Fire Poured Out..wav

Peak level 100.0 %
Track quality 100.0 %
Test CRC 97A70C70
Copy CRC 97A70C70
Copy OK

No errors occured

End of status report
REM GENRE Hardcore 
REM DATE 2005
REM DISCID 67105F08
REM COMMENT "ExactAudioCopy v0.95b4"
PERFORMER "Red Sparowes"
TITLE "At the Soundless Dawn"
FILE "01 - Alone And Unaware, The Landscape Was Transformed In Front Of Our Eyes.wav" WAVE
TRACK 01 AUDIO
TITLE "Alone And Unaware, The Landscape Was Transformed In Front Of Our Eyes"
PERFORMER "Red Sparowes"
INDEX 01 00:00:00
TRACK 02 AUDIO
TITLE "Buildings Began To Stretch Wide Across The Sky, And The Air Filled With A Red..."
PERFORMER "Red Sparowes"
INDEX 00 06:24:39
FILE "02 - Buildings Began To Stretch Wide Across The Sky, And The Air Filled With A Reddish Glow.wav" WAVE
INDEX 01 00:00:00
TRACK 03 AUDIO
TITLE "The Soundless Dawn Came Alive As Cities Began To Mark The Horizon."
PERFORMER "Red Sparowes"
INDEX 00 06:07:15
FILE "03 - The Soundless Dawn Came Alive As Cities Began To Mark The Horizon..wav" WAVE
INDEX 01 00:00:00
FILE "04 - Mechanical Sounds Cascaded Through The City Walls And Everyone Reveled In Their Ignorance..wav" WAVE
TRACK 04 AUDIO
TITLE "Mechanical Sounds Cascaded Through The City Walls And Everyone Reveled In The..."
PERFORMER "Red Sparowes"
INDEX 01 00:00:00
TRACK 05 AUDIO
TITLE "A Brief Moment Of Clarity Broke Through The Deafening Hum, But It Was Too Late."
PERFORMER "Red Sparowes"
INDEX 00 09:03:39
FILE "05 - A Brief Moment Of Clarity Broke Through The Deafening Hum, But It Was Too Late..wav" WAVE
INDEX 01 00:00:00
TRACK 06 AUDIO
TITLE "Our Happiest Days Slowly Began To Turn Into Dust."
PERFORMER "Red Sparowes"
INDEX 00 03:47:15
FILE "06 - Our Happiest Days Slowly Began To Turn Into Dust..wav" WAVE
INDEX 01 00:00:00
FILE "07 - The Sixth Extinction Crept Up Slowly, Like Sunlight Through The Shutters, As We Looked Back In Regret..wav" WAVE
TRACK 07 AUDIO
TITLE "The Sixth Extinction Crept Up Slowly, Like Sunlight Through The Shutters, As ..."
PERFORMER "Red Sparowes"
INDEX 01 00:00:00
FILE "08 - I Saw The Sky In The North Open To The Ground And Fire Poured Out..wav" WAVE
TRACK 08 AUDIO
TITLE "I Saw The Sky In The North Open To The Ground And Fire Poured Out."
PERFORMER "Red Sparowes"
INDEX 01 00:00:00
info [Профиль]  [ЛС] 
Показать сообщения:    
Ответить на тему

Текущее время: 20-Окт 22:24

Часовой пояс: GMT + 4



Вы не можете начинать темы
Вы не можете отвечать на сообщения
Вы не можете редактировать свои сообщения
Вы не можете удалять свои сообщения
Вы не можете голосовать в опросах
Вы не можете прикреплять файлы к сообщениям
Вы не можете скачивать файлы