Ошибка
Загрузка...

(Score) Divinity: Original Sin Soundtrack (by Kirill Pokrovsky / Кирилл Покровский) (GOG 24-44.1) - 2014 г., FLAC (image+.cue), lossless

Ответить на тему
 
Автор Сообщение

Hobbit38

Пол: Пол:Муж

Стаж: 4 года

Сообщений: 527

Россия
Рейтинг

post 06-Фев-2018 13:43 [-]0[+]

[Цитировать] 


Divinity: Original Sin Soundtrack
Жанр: Score | Год выпуска: 2014 | Композитор: Kirill Pokrovsky / Кирилл Покровский

Страна-производитель диска: Belgium | Издатель (лейбл): Larian Studios (GOG) | № каталога: N/A

Аудиокодек: FLAC (.flac) | Тип рипа: image+.cue | Битрейт аудио: lossless | Разрядность: 24bit / 44100 Hz

Продолжительность: 01:06:06

01. Original Sin
02. Mirror of Truth
03. Guardians of Light
04. Beyond the Waves of Time
05. Bittersweet Regrets
06. Forest of Fairytales
07. Pleasure of Simplicity Alt
08. Beyond the Waves of Time Alt
09. Memories of the Future
10. Dance of Death
11. Desert of Illusions Alt
12. Medieval Tears Alt
13. Mysterious Guest
14. Power of Innocence
15. Revenge of the Forgotten Gods
16. Drowning Hope
17. Flutter of a Butterfly
18. Voice of Reason Alt
19. Lake of Serenity
20. Source Hunter Alt
21. Warmth of a Smile
22. Righteous Reflections
 
foobar2000 1.3.5 / Замер динамического диапазона (DR) 1.1.1
Дата отчёта: 2016-05-12 15:31:46
--------------------------------------------------------------------------------
Анализ: Kirill Pokrovsky / Divinity: Original Sin Soundtrack
--------------------------------------------------------------------------------
DR Пики RMS Продолжительность трека
--------------------------------------------------------------------------------
DR9 -0.30 дБ -11.95 дБ 2:49 01-Original Sin
DR10 -0.30 дБ -12.30 дБ 2:46 02-Mirror of Truth
DR9 -0.30 дБ -11.66 дБ 1:50 03-Guardians of Light
DR8 -0.30 дБ -10.17 дБ 2:52 04-Beyond the Waves of Time
DR11 -0.77 дБ -14.24 дБ 2:01 05-Bittersweet Regrets
DR10 -0.30 дБ -11.51 дБ 2:57 06-Forest of Fairytales
DR11 -3.04 дБ -15.58 дБ 2:10 07-Pleasure of Simplicity Alt
DR9 -0.30 дБ -10.88 дБ 2:52 08-Beyond the Waves of Time Alt
DR10 -0.30 дБ -13.07 дБ 6:14 09-Memories of the Future
DR7 -0.30 дБ -8.92 дБ 2:05 10-Dance of Death
DR9 -0.30 дБ -11.59 дБ 2:10 11-Desert of Illusions Alt
DR7 -1.90 дБ -11.68 дБ 2:35 12-Medieval Tears Alt
DR9 -0.30 дБ -10.90 дБ 3:46 13-Mysterious Guest
DR8 -0.30 дБ -11.24 дБ 3:19 14-Power of Innocence
DR8 -0.30 дБ -10.34 дБ 4:35 15-Revenge of the Forgotten Gods
DR10 -0.46 дБ -13.68 дБ 3:50 16-Drowning Hope
DR9 -0.30 дБ -11.23 дБ 2:48 17-Flutter of a Butterfly
DR8 -0.30 дБ -11.14 дБ 5:00 18-Voice of Reason Alt
DR11 -3.94 дБ -18.69 дБ 2:49 19-Lake of Serenity
DR9 -0.30 дБ -11.41 дБ 2:32 20-Source Hunter Alt
DR9 -0.30 дБ -12.25 дБ 2:01 21-Warmth of a Smile
DR8 -0.30 дБ -11.13 дБ 2:04 22-Righteous Reflections
--------------------------------------------------------------------------------
Количество треков: 22
Реальные значения DR: DR9
Частота: 44100 Гц
Каналов: 2
Разрядность: 24
Битрейт: 1483 кбит/с
Кодек: FLAC
================================================================================

info [Профиль]  [ЛС] 

post 22-Фев-2018 00:00 (спустя 15 дней) [-]0[+]

Топик был перенесен из форума Саундтреки к играм (lossless) в форум Архив (Саундтреки)

The Buzzhorn
 
Показать сообщения:    
Ответить на тему

Текущее время: 24-Май 12:23

Часовой пояс: GMT + 4



Вы не можете начинать темы
Вы не можете отвечать на сообщения
Вы не можете редактировать свои сообщения
Вы не можете удалять свои сообщения
Вы не можете голосовать в опросах
Вы не можете прикреплять файлы к сообщениям
Вы не можете скачивать файлы