Ошибка
Загрузка...

(Krautrock, Avant-garde, Progressive rock, Experimental, Psychedelic rock) Faust - So Far - 1972, FLAC (tracks+.cue), lossless

Ответить на тему
 
Автор Сообщение

chernichnoe

Пол: Пол:Жен

Стаж: 1 год 1 месяц

Сообщений: 34

Россия
Рейтинг

post 05-Фев-2018 01:01 0[+]

[Цитировать] 

Faust - So Far


pic="https://images-na.ssl-images-amazon.com/images/I/513PZ7ofwVL._SX450_.jpg"


Жанр: Krautrock, Avant-garde, Progressive rock, Experimental, Psychedelic rock
Год издания данного носителя: 1972
Страна-производитель носителя: Germany
Аудио кодек: FLAC
Тип рипа: tracks+.cue
Битрейт аудио: lossless
Продолжительность: 00:40:35

Треклист:
1. It's a Rainy Day, Sunshine Girl
2. On the Way to Abamäe
3. No Harm
4. So Far
5. Mamie Is Blue
6. I've Got My Car and My TV
7. Picnic on a Frozen River
8. Me Lack Space...
9. ...In the Spirit
Exact Audio Copy V0.99 prebeta 4 from 23. January 2008 

EAC extraction logfile from 27. December 2008, 14:55

Faust / So Far

Used drive : LITE-ON DVDRW SHM-165H6S Adapter: 0 ID: 0

Read mode : Secure
Utilize accurate stream : Yes
Defeat audio cache : Yes
Make use of C2 pointers : No

Read offset correction : 6
Overread into Lead-In and Lead-Out : No
Fill up missing offset samples with silence : Yes
Delete leading and trailing silent blocks : No
Null samples used in CRC calculations : Yes
Used interface : Native Win32 interface for Win NT & 2000
Gap handling : Appended to previous track

Used output format : User Defined Encoder
Selected bitrate : 768 kBit/s
Quality : High
Add ID3 tag : No
Command line compressor : C:Program FilesExact Audio CopyFLACFLAC.EXE
Additional command line options : -V -8 -T "artist=%a" -T "title=%t" -T "album=%g" -T "date=%y" -T "tracknumber=%n" -T "genre=%m" %s

TOC of the extracted CD

Track | Start | Length | Start sector | End sector
---------------------------------------------------------
1 | 0:00.37 | 7:32.28 | 37 | 33964
2 | 7:32.65 | 2:45.62 | 33965 | 46401
3 | 10:18.52 | 10:22.05 | 46402 | 93056
4 | 20:40.57 | 6:20.25 | 93057 | 121581
5 | 27:01.07 | 6:05.70 | 121582 | 149026
6 | 33:07.02 | 3:51.33 | 149027 | 166384
7 | 36:58.35 | 0:43.50 | 166385 | 169659
8 | 37:42.10 | 0:40.67 | 169660 | 172726
9 | 38:23.02 | 2:17.05 | 172727 | 183006

Track 1

Filename F:EACripsFaust - 1972 - So Far1 - It's A Rainy Day, Sunshine Girl.wav

Pre-gap length 0:00:02.49

Peak level 77.3 %
Track quality 100.0 %
Copy CRC A19B1956
Track not present in AccurateRip database
Copy OK

Track 2

Filename F:EACripsFaust - 1972 - So Far2 - On The Way To Abamдe.wav

Pre-gap length 0:00:05.18

Peak level 32.2 %
Track quality 100.0 %
Copy CRC E279A1CA
Track not present in AccurateRip database
Copy OK

Track 3

Filename F:EACripsFaust - 1972 - So Far3 - No Harm.wav

Pre-gap length 0:00:06.48

Peak level 79.0 %
Track quality 100.0 %
Copy CRC EDAEAA57
Track not present in AccurateRip database
Copy OK

Track 4

Filename F:EACripsFaust - 1972 - So Far4 - So Far.wav

Pre-gap length 0:00:04.85

Peak level 74.7 %
Track quality 100.0 %
Copy CRC 7ED2678D
Track not present in AccurateRip database
Copy OK

Track 5

Filename F:EACripsFaust - 1972 - So Far5 - Mamie Is Blue.wav

Peak level 71.1 %
Track quality 99.9 %
Copy CRC F7B853C0
Track not present in AccurateRip database
Copy OK

Track 6

Filename F:EACripsFaust - 1972 - So Far6 - I've Got My Car And My TV.wav

Pre-gap length 0:00:05.58

Peak level 69.1 %
Track quality 99.9 %
Copy CRC 54984D7E
Track not present in AccurateRip database
Copy OK

Track 7

Filename F:EACripsFaust - 1972 - So Far7 - Picnic On A Frozen River.wav

Pre-gap length 0:00:06.16

Peak level 59.5 %
Track quality 100.0 %
Copy CRC 669831EA
Track not present in AccurateRip database
Copy OK

Track 8

Filename F:EACripsFaust - 1972 - So Far8 - Me Lack Space....wav

Pre-gap length 0:00:05.16

Peak level 62.1 %
Track quality 100.0 %
Copy CRC 6B571758
Track not present in AccurateRip database
Copy OK

Track 9

Filename F:EACripsFaust - 1972 - So Far9 - ...In The Spirit.wav

Peak level 72.5 %
Track quality 100.0 %
Copy CRC EE016D2D
Track not present in AccurateRip database
Copy OK

None of the tracks are present in the AccurateRip database

No errors occurred

End of status report
REM GENRE "Psychedelic Rock" 
REM DATE 1972
REM DISCID 65098809
REM COMMENT "ExactAudioCopy v0.99pb4"
FILE "Faust - 1972 - So Far1 - It's A Rainy Day, Sunshine Girl.wav" WAVE
TRACK 01 AUDIO
PREGAP 00:00:37
INDEX 01 00:00:00
TRACK 02 AUDIO
INDEX 00 07:27:14
FILE "Faust - 1972 - So Far2 - On The Way To Abamдe.wav" WAVE
INDEX 01 00:00:00
TRACK 03 AUDIO
INDEX 00 02:39:26
FILE "Faust - 1972 - So Far3 - No Harm.wav" WAVE
INDEX 01 00:00:00
TRACK 04 AUDIO
INDEX 00 10:17:16
FILE "Faust - 1972 - So Far4 - So Far.wav" WAVE
INDEX 01 00:00:00
FILE "Faust - 1972 - So Far5 - Mamie Is Blue.wav" WAVE
TRACK 05 AUDIO
INDEX 01 00:00:00
TRACK 06 AUDIO
INDEX 00 06:00:26
FILE "Faust - 1972 - So Far6 - I've Got My Car And My TV.wav" WAVE
INDEX 01 00:00:00
TRACK 07 AUDIO
INDEX 00 03:45:21
FILE "Faust - 1972 - So Far7 - Picnic On A Frozen River.wav" WAVE
INDEX 01 00:00:00
TRACK 08 AUDIO
INDEX 00 00:38:38
FILE "Faust - 1972 - So Far8 - Me Lack Space....wav" WAVE
INDEX 01 00:00:00
FILE "Faust - 1972 - So Far9 - ...In The Spirit.wav" WAVE
TRACK 09 AUDIO
INDEX 01 00:00:00
info [Профиль]  [ЛС] 
Показать сообщения:    
Ответить на тему

Текущее время: 26-Май 17:56

Часовой пояс: GMT + 4



Вы не можете начинать темы
Вы не можете отвечать на сообщения
Вы не можете редактировать свои сообщения
Вы не можете удалять свои сообщения
Вы не можете голосовать в опросах
Вы не можете прикреплять файлы к сообщениям
Вы не можете скачивать файлы