Ошибка

Metallica: Quebec Magnetic (Уэйн Ишам) [2012 г., Thrash Metal, BDRip 720p]

Ответить на тему
 
Автор Сообщение

Hobbit38

Пол: Пол:Муж

Стаж: 3 года 9 месяцев

Сообщений: 356

Россия
Рейтинг

post 04-Фев-2018 19:41 1[+]

[Цитировать] 


Metallica: Quebec Magnetic

Год выпуска: 2012
Выпущено: Германия | Universal Music
Жанр: Thrash Metal
Продолжительность: 02:15:01 + 00:42:18
Режиссёр: Уэйн Ишам
Треклист:
01. That Was Just Your Life
02. The End Of The Line
03. The Four Horsemen
04. The Shortest Straw
05. One
06. Broken, Beat & Scarred
07. My Apocalypse
08. Sad But True
09. Welcome Home (Sanitarium)
10. The Judas Kiss
11. The Day That Never Comes
12. Master of Puppets
13. Battery
14. Nothing Else Matters
15. Enter Sandman
16. Killing Time
17. Whiplash
18. Seek & Destroy
Bonus Songs
01. For Whom the Bell Tolls
02. Holier Than Thou
03. Cyanide
04. Turn the Page
05. All Nightmare Long
06. Damage, Inc.
07. Breadfan
08. Phantom Lord

Цитата:

Полные выступления с нового диска "Quebec Magnetic" группы Metallica в Квебеке (Канада), которые проходили в рамках мирового тура "World Magnetic Tour" с октября 2008 по сентябрь 2010 года. В трек-лист вошли 7 песен из знаменитого альбома "Death Magnetic". Кроме того, группа включила свои самые популярные хиты, известные во всем мире: "One", "Sad But True", "Master of Puppets", "Nothing Else Matters", "Seek & Destroy" и "For Whom the Bell Tolls".

Режиссером "Quebec Magnetic" выступил Уэйн Ишам, известный клипмейкер, который работал с Def Leppard, Pink Floyd, Queensryche и Kiss...

  • Качество: BDRip
  • Автор Рипа: DON
  • Источник: Metallica.Quebec.Magnetic.2009.COMPLETE.MBLURAY-COPYRiOT
  • Формат: MKV

  • Видео: 1280x720 at 29.970 fps, x264@L4.1, CRF18, ~7529 kbps avg
  • Aудио#1: 48 kHz, FLAC, 2/0 (L,R) ch
  • Aудио#2: 48 kHz, DTS, 2/0 (L,R) ch, ~1536.00 kbps avg
  • Aудио#3: 48 kHz, DTS, 3/2 (L,C,R,l,r) + LFE ch, ~1536.00 kbps avg
 
General
Unique ID : 237855907582034572928876839793800330714 (0xB2F161A913C7B2A0B9ECB9AF5C653DDA)
Complete name : E:\Музыка\Metallica.Quebec.Magnetic.2012.720p.BluRay.DTS.x264-DON\Metallica.Quebec.Magnetic.2012.720p.BluRay.DTS.x264-DON.mkv
Format : Matroska
Format version : Version 4 / Version 2
File size : 10.9 GiB
Duration : 2h 15mn
Overall bit rate mode : Variable
Overall bit rate : 11.5 Mbps
Encoded date : UTC 2010-02-22 21:41:31
Writing application : mkvmerge v5.9.0 ('On The Loose') built on Dec 9 2012 15:37:01
Writing library : libebml v1.3.0 + libmatroska v1.4.0

Video
ID : 1
Format : AVC
Format/Info : Advanced Video Codec
Format profile : High@L4.1
Format settings, CABAC : Yes
Format settings, ReFrames : 9 frames
Codec ID : V_MPEG4/ISO/AVC
Duration : 2h 15mn
Width : 1 280 pixels
Height : 720 pixels
Display aspect ratio : 16:9
Frame rate mode : Constant
Frame rate : 29.970 fps
Color space : YUV
Chroma subsampling : 4:2:0
Bit depth : 8 bits
Scan type : Progressive
Writing library : x264 core 129 r2230kMod 1cffe9f
Encoding settings : cabac=1 / ref=9 / deblock=1:-3:-3 / analyse=0x3:0x113 / me=umh / subme=9 / psy=1 / fade_compensate=0.00 / psy_rd=1.00:0.00 / mixed_ref=1 / me_range=16 / chroma_me=1 / trellis=2 / 8x8dct=1 / cqm=0 / deadzone=21,11 / fast_pskip=0 / chroma_qp_offset=-2 / threads=6 / lookahead_threads=1 / sliced_threads=0 / nr=0 / decimate=0 / interlaced=0 / bluray_compat=0 / constrained_intra=0 / bframes=8 / b_pyramid=2 / b_adapt=2 / b_bias=0 / direct=3 / weightb=1 / open_gop=0 / weightp=2 / keyint=250 / keyint_min=25 / scenecut=40 / intra_refresh=0 / rc_lookahead=40 / rc=crf / mbtree=1 / crf=18.0000 / qcomp=0.70 / qpmin=0 / qpmax=69 / qpstep=4 / ip_ratio=1.20 / aq=1:0.95
Language : English
Default : Yes
Forced : No

Audio #1
ID : 2
Format : FLAC
Format/Info : Free Lossless Audio Codec
Codec ID : A_FLAC
Duration : 2h 15mn
Bit rate mode : Variable
Channel(s) : 2 channels
Sampling rate : 48.0 KHz
Bit depth : 16 bits
Writing library : libFLAC 1.2.1 (UTC 2007-09-17)
Language : English
Default : Yes
Forced : No

Audio #2
ID : 3
Format : DTS
Format/Info : Digital Theater Systems
Mode : 16
Format settings, Endianness : Big
Codec ID : A_DTS
Duration : 2h 15mn
Bit rate mode : Constant
Bit rate : 1 509 Kbps
Channel(s) : 2 channels
Channel positions : Front: L R
Sampling rate : 48.0 KHz
Bit depth : 24 bits
Compression mode : Lossy
Stream size : 1.42 GiB (13%)
Language : English
Default : No
Forced : No

Audio #3
ID : 4
Format : DTS
Format/Info : Digital Theater Systems
Mode : 16
Format settings, Endianness : Big
Codec ID : A_DTS
Duration : 2h 15mn
Bit rate mode : Constant
Bit rate : 1 509 Kbps
Channel(s) : 6 channels
Channel positions : Front: L C R, Side: L R, LFE
Sampling rate : 48.0 KHz
Bit depth : 24 bits
Compression mode : Lossy
Stream size : 1.42 GiB (13%)
Language : English
Default : No
Forced : No

Menu
00:00:00.000 : en:00:00:00.000
00:01:36.096 : en:00:01:36.096
00:08:44.958 : en:00:08:44.958
00:16:31.257 : en:00:16:31.257
00:21:58.784 : en:00:21:58.784
00:28:08.287 : en:00:28:08.287
00:36:01.893 : en:00:36:01.893
00:44:29.167 : en:00:44:29.167
00:51:12.703 : en:00:51:12.703
00:57:13.397 : en:00:57:13.397
01:03:23.500 : en:01:03:23.500
01:13:12.188 : en:01:13:12.188
01:21:10.733 : en:01:21:10.733
01:29:17.319 : en:01:29:17.319
01:36:23.611 : en:01:36:23.611
01:42:08.756 : en:01:42:08.756
01:50:59.119 : en:01:50:59.119
01:53:53.927 : en:01:53:53.927
02:00:58.818 : en:02:00:58.818
02:08:09.782 : en:02:08:09.782
 
General
Unique ID : 248434442951246935408846728471228675092 (0xBAE6BBB8DFA2A60694B38E92E48B7414)
Complete name : E:\Музыка\Metallica.Quebec.Magnetic.2012.720p.BluRay.DTS.x264-DON\Metallica.Quebec.Magnetic.Bonus.2012.720p.BluRay.DTS.x264-DON.mkv
Format : Matroska
Format version : Version 4 / Version 2
File size : 3.45 GiB
Duration : 42mn 18s
Overall bit rate mode : Variable
Overall bit rate : 11.7 Mbps
Encoded date : UTC 2010-02-22 21:41:31
Writing application : mkvmerge v5.9.0 ('On The Loose') built on Dec 9 2012 15:37:01
Writing library : libebml v1.3.0 + libmatroska v1.4.0

Video
ID : 1
Format : AVC
Format/Info : Advanced Video Codec
Format profile : High@L4.1
Format settings, CABAC : Yes
Format settings, ReFrames : 9 frames
Codec ID : V_MPEG4/ISO/AVC
Duration : 42mn 18s
Width : 1 280 pixels
Height : 720 pixels
Display aspect ratio : 16:9
Frame rate mode : Constant
Frame rate : 29.970 fps
Color space : YUV
Chroma subsampling : 4:2:0
Bit depth : 8 bits
Scan type : Progressive
Writing library : x264 core 129 r2230kMod 1cffe9f
Encoding settings : cabac=1 / ref=9 / deblock=1:-3:-3 / analyse=0x3:0x113 / me=umh / subme=9 / psy=1 / fade_compensate=0.00 / psy_rd=1.00:0.00 / mixed_ref=1 / me_range=16 / chroma_me=1 / trellis=2 / 8x8dct=1 / cqm=0 / deadzone=21,11 / fast_pskip=0 / chroma_qp_offset=-2 / threads=6 / lookahead_threads=1 / sliced_threads=0 / nr=0 / decimate=0 / interlaced=0 / bluray_compat=0 / constrained_intra=0 / bframes=8 / b_pyramid=2 / b_adapt=2 / b_bias=0 / direct=3 / weightb=1 / open_gop=0 / weightp=2 / keyint=250 / keyint_min=25 / scenecut=40 / intra_refresh=0 / rc_lookahead=40 / rc=crf / mbtree=1 / crf=18.0000 / qcomp=0.70 / qpmin=0 / qpmax=69 / qpstep=4 / ip_ratio=1.20 / aq=1:0.95
Language : English
Default : Yes
Forced : No

Audio #1
ID : 2
Format : FLAC
Format/Info : Free Lossless Audio Codec
Codec ID : A_FLAC
Duration : 42mn 18s
Bit rate mode : Variable
Channel(s) : 2 channels
Sampling rate : 48.0 KHz
Bit depth : 16 bits
Writing library : libFLAC 1.2.1 (UTC 2007-09-17)
Language : English
Default : Yes
Forced : No

Audio #2
ID : 3
Format : DTS
Format/Info : Digital Theater Systems
Mode : 16
Format settings, Endianness : Big
Codec ID : A_DTS
Duration : 42mn 18s
Bit rate mode : Constant
Bit rate : 1 509 Kbps
Channel(s) : 2 channels
Channel positions : Front: L R
Sampling rate : 48.0 KHz
Bit depth : 24 bits
Compression mode : Lossy
Stream size : 457 MiB (13%)
Language : English
Default : No
Forced : No

Audio #3
ID : 4
Format : DTS
Format/Info : Digital Theater Systems
Mode : 16
Format settings, Endianness : Big
Codec ID : A_DTS
Duration : 42mn 18s
Bit rate mode : Constant
Bit rate : 1 509 Kbps
Channel(s) : 6 channels
Channel positions : Front: L C R, Side: L R, LFE
Sampling rate : 48.0 KHz
Bit depth : 24 bits
Compression mode : Lossy
Stream size : 457 MiB (13%)
Language : English
Default : No
Forced : No

Menu
00:00:00.000 : en:00:00:00.000
00:05:06.840 : en:00:05:06.840
00:08:52.532 : en:00:08:52.532
00:15:51.050 : en:00:15:51.050
00:21:10.202 : en:00:21:10.202
00:29:02.774 : en:00:29:02.774
00:34:21.359 : en:00:34:21.359
00:38:30.341 : en:00:38:30.341

info [Профиль]  [ЛС] 
Показать сообщения:    
Ответить на тему

Текущее время: 24-Фев 22:01

Часовой пояс: GMT + 4



Вы не можете начинать темы
Вы не можете отвечать на сообщения
Вы не можете редактировать свои сообщения
Вы не можете удалять свои сообщения
Вы не можете голосовать в опросах
Вы не можете прикреплять файлы к сообщениям
Вы не можете скачивать файлы