Ошибка

До окончания фрилича осталось:


(Fantasy Musical) Последнее Испытание (Various Artists (участники групп Мельница, Тол Мириам, Тинтал)) - 2009-2010 г., TAK (tracks), lossless

Ответить на тему
 
Автор Сообщение

Hobbit38

Пол: Пол:Муж

Стаж: 4 года 1 месяц

Сообщений: 578

Россия
Рейтинг

post 23-Янв-2018 22:39 1[+]

[Цитировать] 


Последнее Испытание
Жанр: Fantasy Musical | Издатель (лейбл): Перекрёсток Рекордс | Страна: Россия | Год выпуска: 2009-2010

Композитор: Антон Круглов | Автор текста: Елена Ханпира

Аудиокодек: TAK (.tak) | Тип рипа: tracks | Битрейт аудио: lossless

Продолжительность: 02:00:20


Жанр: Fantasy Musical
Год выпуска: 2009
Страна: Россия
Издатель (лейбл): Перекрёсток Рекордс
Продолжительность:[/color] 00:59:03

Часть 1: Тьма и Свет
01. Ария Чародея ('Те глаза')
02. Зов бездны
03. Ссора братьев
04. Молитва
05. Встреча у Летописца
06. Игра с огнем
07. Возвращенное письмо (фрагмент сцены 'Кабак')
08. Конклав Магов
09. Я дам тебе имя

Часть 2: Всё во имя веры
10. Ария Короля-Жреца
11. Восторг
12. Прокурор
13. Все во имя веры
14. Обличение Короля-Жреца
15. О братстве
16. Гладиатор
17. Арена
18. Месса
19. Плач об Истаре
20. Легенда о Вратах
 
Отчёт EAC об извлечении, выполненном 10. апреля 2009, 0:00 для диска:
Последнее испытание / Последнее испытание
Дисковод: ASUS DRW-1814BLT Adapter: 1 ID: 0
Режим чтения: Достоверный (C2: нет, Точный поток: да, Отключение кэша: да)
Коррекция смещения при чтении: 6
Способность читать области Lead-in и Lead-out : Нет
Выходной формат: C:\Program Files\Monkey's Audio\MAC.exe (Monkey's Audio (без потерь))
High Lossless Compression
Другие параметры:
Заполнение пропущенных сэмплов тишиной : Да
Удаление блоков с тишиной в начале и конце : Нет
Установленный внешний ASPI-интерфейс
Характеристики диапазона извлечения и сообщения об ошибках
Выбранный диапазон
Имя файла D:\MUSIC\Последнее испытание - Последнее испытание.wav
Пиковый уровень 99.2 %
Качество диапазона 99.9 %
CRC 44366672
Копирование... OK
Ошибок не произошло
Конец отчёта
Жанр: Fantasy Musical
Год выпуска: 2010
Страна: Россия
Издатель (лейбл): Перекрёсток Рекордс
Продолжительность:[/color] 01:01:16

01. Пролог
02. Примирение братьев
03. Армия чародея
04. Победа
05. Соблазнение
06. Дуэт «О любви»
07. Колыбельная
08. Присяга
09. Испытание огнем
10. Встреча с Такхизис
11. Изида под покрывалом
12. Кошмары
13 Танго со смертью
14. Жертва
15. Отречение
16. Прозрение
17. Властелин Ничего
 
Exact Audio Copy V0.99 prebeta 5 from 4. May 2009
EAC extraction logfile from 28. November 2010, 1:31
Саруман / Последнее испытание Часть 2
Used drive : PLEXTOR DVDR PX-860A Adapter: 0 ID: 0
Read mode : Secure
Utilize accurate stream : Yes
Defeat audio cache : Yes
Make use of C2 pointers : No
Read offset correction : 96
Overread into Lead-In and Lead-Out : No
Fill up missing offset samples with silence : Yes
Delete leading and trailing silent blocks : No
Null samples used in CRC calculations : Yes
Used interface : Installed external ASPI interface
Used output format : Monkey's Audio Lossless Encoder
Selected bitrate : Normal Lossless Compression
Quality : High
Add ID3 tag : Yes
Command line compressor : C:\Program Files\Monkey's Audio\MAC.exe
TOC of the extracted CD
Track | Start | Length | Start sector | End sector
---------------------------------------------------------
1 | 0:00.00 | 1:11.37 | 0 | 5361
2 | 1:11.37 | 1:54.01 | 5362 | 13912
3 | 3:05.38 | 3:24.24 | 13913 | 29236
4 | 6:29.62 | 3:29.18 | 29237 | 44929
5 | 9:59.05 | 4:10.73 | 44930 | 63752
6 | 14:10.03 | 5:35.29 | 63753 | 88906
7 | 19:45.32 | 3:13.11 | 88907 | 103392
8 | 22:58.43 | 2:36.18 | 103393 | 115110
9 | 25:34.61 | 3:59.44 | 115111 | 133079
10 | 29:34.30 | 5:39.00 | 133080 | 158504
11 | 35:13.30 | 3:18.58 | 158505 | 173412
12 | 38:32.13 | 2:55.26 | 173413 | 186563
13 | 41:27.39 | 2:33.37 | 186564 | 198075
14 | 44:01.01 | 4:17.29 | 198076 | 217379
15 | 48:18.30 | 3:13.71 | 217380 | 231925
16 | 51:32.26 | 3:26.24 | 231926 | 247399
17 | 54:58.50 | 6:18.02 | 247400 | 275751
Range status and errors
Selected range
Filename J:\MUSIC\Саруман - Последнее испытание Часть 2.wav
Peak level 100.0 %
Range quality 100.0 %
Test CRC CCFC0C96
Copy CRC CCFC0C96
Copy OK
No errors occurred
AccurateRip summary
Track 1 not present in database
Track 2 not present in database
Track 3 not present in database
Track 4 not present in database
Track 5 not present in database
Track 6 not present in database
Track 7 not present in database
Track 8 not present in database
Track 9 not present in database
Track 10 not present in database
Track 11 not present in database
Track 12 not present in database
Track 13 not present in database
Track 14 not present in database
Track 15 not present in database
Track 16 not present in database
Track 17 not present in database
None of the tracks are present in the AccurateRip database
End of status report
«Последнее испытание» - российский мюзикл по мотивам серии книг «Сага о копье». Был впервые частично презентован на Зилантконе в 1998 году. Первые 2 части (из 4) были выпущены в январе 2009 года сетевым релизом. Третья часть была выпущена 25 мая 2009 года тем же способом. Четвёртая - финальная - часть выпущена 31 декабря 2009 года. На данный момент существует не только в формате альбома, но и есть в форме постановка на сцене расширенной версии. Премьера состоялась 12 апреля 2014.

Записан на студии «Saruman Records». Издан на CD компанией «Перекрёсток Рекордс». Обложки - Марина Красильникова. Буклет - Екатерина Белецкая.

Театральные постановки - Театр-Студия Lege Artis.

Авторы:

Композитор: Антон Круглов
Автор текста: Елена Ханпира

Аудиоверсия:

Астинус - Летописец - Владимир Антоник, актёр театра и кино
Такхизис - богиня Тьмы - Наталья О′Шей (Хелависа), лидер группы «Мельница»
Крисания - Светлая жрица - Елена Ханпира (Мириам), лидер группы «Тол Мириам»
Рейстлин - Чародей - Антон Круглов (Саруман)
Карамон - Брат чародея - Роман Сусалёв
Король-Жрец - Фëдор Воскресенский - лидер группы «Тинтал»
Даламар - Ученик чародея - Влад Стекунов
Пар-Салиан - Верховный маг - Никита Коледин, режиссёр театра «Тампль»
Стражник в тюрьме - Павел Румянцев (группа «Тол Мириам»)
Соблазнительница в «Кошмарах» - Ирина Круглова (Айрэ)
Детские голоса в «Кошмарах» - Варвара Круглова, некто Аркадий

Музыканты:

Ударные - Дмитрий Фролов, Дмитрий Кривенков
Соло-гитара - Александр Петухов, Сергей Седых

info [Профиль]  [ЛС] 

ilia krit

Стаж: 8 лет 9 месяцев

Сообщений: 112

Рейтинг

post 24-Янв-2018 23:04 (спустя 1 день) [-]0[+]

[Цитировать] 

Супер. Спасибо. Если кто найдет очень прошу скиньте на трекер фильм-спектакль "Последнее Испытание" под режиссурой Руслана Герасименко. Нигде нет. Насколько знаю был только закрытый показ. На ютубе только отрывки. А вещь просто класс.
info [Профиль]  [ЛС] 

Hobbit38

Пол: Пол:Муж

Стаж: 4 года 1 месяц

Сообщений: 578

Россия
Рейтинг

post 25-Фев-2018 10:18 (спустя 1 месяц) [-]0[+]

[Цитировать] 

Обновление:
  • Замена на потрековый релиз.
info [Профиль]  [ЛС] 

Hobbit38

Пол: Пол:Муж

Стаж: 4 года 1 месяц

Сообщений: 578

Россия
Рейтинг

post 02-Май-2018 09:03 (спустя 2 месяца 4 дня) [-]0[+]

[Цитировать] 

del
info [Профиль]  [ЛС] 
Показать сообщения:    
Ответить на тему

Текущее время: 25-Июн 08:04

Часовой пояс: GMT + 4



Вы не можете начинать темы
Вы не можете отвечать на сообщения
Вы не можете редактировать свои сообщения
Вы не можете удалять свои сообщения
Вы не можете голосовать в опросах
Вы не можете прикреплять файлы к сообщениям
Вы не можете скачивать файлы