Ошибка
Загрузка...

Добро пожаловать на паркет / Ballroom e Youkoso / Welcome to the Ballroom [TV][01-24 из 24] [2017] [комедия, романтика, драма, спорт, сёнэн] [HDTVRip] [720p] [Субтитры (JAP)]

Ответить на тему
 
Автор Сообщение

GreeDamage

Пол: Пол:Муж

Стаж: 5 лет 2 месяца

Сообщений: 15

Япония
Рейтинг

post 20-Янв-2018 23:14 0[+]

[Цитировать] 

Добро пожаловать на паркет
Ballroom e Youkoso | Welcome to the Ballroom

Год выпуска: 2017г
Страна: Япония
Жанр: спорт, романтика, комедия
Тип: TV
Продолжительность: (24 эп.), 25 мин.)
Студия:
Режиссер: Итадзу Ёсими
Автор оригинала: Такэути Томо
Русские субтитры: ASS, внешним файлом
  1. SovetRomantica - (эп. 01-24)
    Перевод: Shika2009
    Редактура: Akira

  2. AniPlay - (эп. 01-24)
    Перевод: Octupus, ShiYoru

  3. laci - (эп. 01-12)
    Перевод: laci
    Редактура: AleX_MytH

Описание:
Обучение в средней школе уже подходило к концу, а Татара Фуджита до сих пор не имел понятия о том, чем ему хочется заниматься в этой жизни. И пока его одноклассники уже строили планы о том, в какую старшую школу им поступить, он всё ещё смутно представлял, куда ему двигаться дальше. Так бы он и провёл остаток времени в раздумьях и сомнениях, если бы не один случай, который коренным образом изменил его дальнейшую жизнь.

Однажды на улице к Фуджите прицепились хулиганы и начали вымогать у него деньги. Всё закончилось бы плачевно, если бы не вмешался человек на мотоцикле. Им оказался учитель бальных танцев Канамэ Сенгоку. Ошибочно подумав, что Фуджита рассматривал рекламу его студии танцев Огасавара, Сенгоку потащил парня в зал. Очарованный страстью учителя к своему делу, Фуджита решается на пробный урок. Встретив там свою одноклассницу Шизуку, он понимает, что в танце та становится совершенно другим человеком. Фуджита начинает восхищаться её целеустремлённостью, и это приводит его в мир спортивных бальных танцев, полный соревнований и любви к искусству!

Информационные ссылки: AniDB|MyAnimeList|World Art
Автор рипа:Leopard-Raws
Качество: HDTVRip
Тип релиза:Без хардсаба
Формат видео: MP4
Видео: x264, 8 bit, 1280x720, ~1786 Kbps, 23.976 fps
Аудио Jap: JAP, AAC, 48000 Hz, ~192 Kbps, 2 ch
General
Format : MPEG-4
Format profile : Base Media
Codec ID : isom (isom/avc1/iso6)
File size : 347 MiB
Duration : 24 min 29 s
Overall bit rate mode : Variable
Overall bit rate : 1 981 kb/s
Encoded date : UTC 2017-07-09 13:33:44
Tagged date : UTC 2017-07-09 13:33:44

Video
ID : 1
Format : AVC
Format/Info : Advanced Video Codec
Format profile : High@L4.1
Format settings, CABAC : Yes
Format settings, RefFrames : 4 frames
Codec ID : avc1
Codec ID/Info : Advanced Video Coding
Duration : 24 min 29 s
Bit rate : 1 786 kb/s
Maximum bit rate : 11.1 Mb/s
Width : 1 280 pixels
Height : 720 pixels
Display aspect ratio : 16:9
Frame rate mode : Constant
Frame rate : 23.976 (24000/1001) FPS
Color space : YUV
Chroma subsampling : 4:2:0
Bit depth : 8 bits
Scan type : Progressive
Bits/(Pixel*Frame) : 0.081
Stream size : 313 MiB (90%)
Title : 264:fps=23.976@GPAC0.5.2-DEV-rev376-g5eeb74d-master
Writing library : x264 core 129 r2245+729M 1a52e03
Encoding settings : cabac=1 / ref=4 / deblock=1:1:-1 / analyse=0x3:0x113 / me=umh / subme=9 / psy=1 / fade_compensate=0.00 / psy_rd=1.00:0.00 / mixed_ref=1 / me_range=24 / chroma_me=1 / trellis=2 / 8x8dct=1 / cqm=0 / deadzone=21,11 / fast_pskip=1 / chroma_qp_offset=-2 / threads=8 / lookahead_threads=1 / sliced_threads=0 / nr=0 / decimate=1 / interlaced=0 / bluray_compat=0 / constrained_intra=0 / fgo=0 / bframes=9 / b_pyramid=2 / b_adapt=2 / b_bias=0 / direct=1 / weightb=1 / open_gop=0 / weightp=2 / keyint=240 / keyint_min=24 / scenecut=40 / intra_refresh=0 / rc=crf / mbtree=0 / crf=18.5 / qcomp=0.72 / qpmin=0 / qpmax=69 / qpstep=4 / ip_ratio=1.40 / pb_ratio=1.30 / aq=1:0.85
Encoded date : UTC 2017-07-09 13:33:44
Tagged date : UTC 2017-07-09 13:33:49
Color range : Limited
Color primaries : BT.709
Transfer characteristics : BT.709
Matrix coefficients : BT.709

Audio
ID : 2
Format : AAC
Format/Info : Advanced Audio Codec
Format profile : LC
Codec ID : 40
Duration : 24 min 29 s
Bit rate mode : Variable
Bit rate : 192 kb/s
Maximum bit rate : 224 kb/s
Channel(s) : 2 channels
Channel positions : Front: L R
Sampling rate : 48.0 kHz
Frame rate : 46.875 FPS (1024 SPF)
Compression mode : Lossy
Stream size : 33.6 MiB (10%)
Language : Japanese
Encoded date : UTC 2017-07-08 18:43:47
Tagged date : UTC 2017-07-09 13:33:49
info [Профиль]  [ЛС] 

post 21-Янв-2018 15:56 (спустя 16 часов) [-]0[+]

Топик был перенесен из форума Анонсы в форум HD Rips

Pharaon
 
Показать сообщения:    
Ответить на тему

Текущее время: 26-Май 18:09

Часовой пояс: GMT + 4



Вы не можете начинать темы
Вы не можете отвечать на сообщения
Вы не можете редактировать свои сообщения
Вы не можете удалять свои сообщения
Вы не можете голосовать в опросах
Вы не можете прикреплять файлы к сообщениям
Вы не можете скачивать файлы