Ошибка

(Rock, Classic Rock) The Rolling Stones - Aftermath - 2006, FLAC (tracks+.cue), lossless

Ответить на тему
 
Автор Сообщение

Молескин

Пол: Пол:Муж

Стаж: 11 месяцев 4 дня

Сообщений: 119

Россия
Рейтинг

post 14-Янв-2018 03:42 1[+]

[Цитировать] 

The Rolling Stones - Aftermath
pic="http://i102.fastpic.ru/big/2018/0114/d3/e81baf6151b777f440e0ced2e1f602d3.jpg"

Жанр: Rock, Classic Rock
Год издания данного носителя: 2006
Страна-производитель носителя: Japan
Лейбл: ABKCO Records
Каталоговый номер: UICY-93020
Аудио кодек: FLAC
Тип рипа: tracks+.cue
Битрейт аудио: lossless
Продолжительность: 00:42:58
Источник: CD
Полиграфия: Присутствует


Треклист:
01. Paint It Black
02. Stupid Girl
03. Lady Jane
04. Under My Thumb
05. Doncha Bother Me
06. Think
07. Flight 505
08. High And Dry
09. It's Not Easy
10. I Am Waiting
11. Going Home


Exact Audio Copy V1.0 beta 3 from 29. August 2011 

EAC extraction logfile from 8. December 2015, 21:04

The Rolling Stones / Aftermath

Used drive : TSSTcorpCDDVDW SH-224DB Adapter: 0 ID: 1

Read mode : Secure
Utilize accurate stream : Yes
Defeat audio cache : Yes
Make use of C2 pointers : No

Read offset correction : 6
Overread into Lead-In and Lead-Out : No
Fill up missing offset samples with silence : Yes
Delete leading and trailing silent blocks : No
Null samples used in CRC calculations : Yes
Used interface : Installed external ASPI interface
Gap handling : Appended to previous track

Used output format : User Defined Encoder
Selected bitrate : 1024 kBit/s
Quality : High
Add ID3 tag : No
Command line compressor : D:\Program Files\Foobar2000\encoders\flac.exe
Additional command line options : -V -8 -T "Date=%year%" -T "Genre=%genre%" %source%

TOC of the extracted CD

Track | Start | Length | Start sector | End sector
---------------------------------------------------------
1 | 0:00.00 | 3:22.45 | 0 | 15194
2 | 3:22.45 | 2:56.35 | 15195 | 28429
3 | 6:19.05 | 3:08.62 | 28430 | 42591
4 | 9:27.67 | 3:42.00 | 42592 | 59241
5 | 13:09.67 | 2:41.28 | 59242 | 71344
6 | 15:51.20 | 3:09.32 | 71345 | 85551
7 | 19:00.52 | 3:27.55 | 85552 | 101131
8 | 22:28.32 | 3:08.33 | 101132 | 115264
9 | 25:36.65 | 2:56.25 | 115265 | 128489
10 | 28:33.15 | 3:11.30 | 128490 | 142844
11 | 31:44.45 | 11:13.20 | 142845 | 193339

Track 1

Filename D:\Desktop\The Rolling Stones - Aftermath (2006)\01. Paint It Black.wav

Pre-gap length 0:00:02.00

Peak level 99.8 %
Extraction speed 4.8 X
Track quality 100.0 %
Test CRC AF6FCF3D
Copy CRC AF6FCF3D
Accurately ripped (confidence 6) [2E4528EB] (AR v2)
Copy OK

Track 2

Filename D:\Desktop\The Rolling Stones - Aftermath (2006)\02. Stupid Girl.wav

Pre-gap length 0:00:00.17

Peak level 98.8 %
Extraction speed 5.0 X
Track quality 100.0 %
Test CRC 3EB0ABD3
Copy CRC 3EB0ABD3
Accurately ripped (confidence 6) [2D1F4F06] (AR v2)
Copy OK

Track 3

Filename D:\Desktop\The Rolling Stones - Aftermath (2006)\03. Lady Jane.wav

Pre-gap length 0:00:01.04

Peak level 82.6 %
Extraction speed 5.3 X
Track quality 100.0 %
Test CRC 92085C95
Copy CRC 92085C95
Accurately ripped (confidence 6) [6006F0DA] (AR v2)
Copy OK

Track 4

Filename D:\Desktop\The Rolling Stones - Aftermath (2006)\04. Under My Thumb.wav

Pre-gap length 0:00:00.43

Peak level 98.8 %
Extraction speed 5.8 X
Track quality 100.0 %
Test CRC B3FC1909
Copy CRC B3FC1909
Accurately ripped (confidence 6) [E38D2B3D] (AR v2)
Copy OK

Track 5

Filename D:\Desktop\The Rolling Stones - Aftermath (2006)\05. Doncha Bother Me.wav

Pre-gap length 0:00:00.24

Peak level 98.8 %
Extraction speed 5.7 X
Track quality 100.0 %
Test CRC 956A333E
Copy CRC 956A333E
Accurately ripped (confidence 6) [915053A7] (AR v2)
Copy OK

Track 6

Filename D:\Desktop\The Rolling Stones - Aftermath (2006)\06. Think.wav

Pre-gap length 0:00:00.10

Peak level 98.8 %
Extraction speed 6.1 X
Track quality 100.0 %
Test CRC 1CB56FA4
Copy CRC 1CB56FA4
Accurately ripped (confidence 6) [5E205517] (AR v2)
Copy OK

Track 7

Filename D:\Desktop\The Rolling Stones - Aftermath (2006)\07. Flight 505.wav

Peak level 98.8 %
Extraction speed 6.5 X
Track quality 100.0 %
Test CRC E05D6FF3
Copy CRC E05D6FF3
Accurately ripped (confidence 6) [42718F30] (AR v2)
Copy OK

Track 8

Filename D:\Desktop\The Rolling Stones - Aftermath (2006)\08. High And Dry.wav

Pre-gap length 0:00:00.35

Peak level 96.6 %
Extraction speed 6.6 X
Track quality 100.0 %
Test CRC 0C54A1F6
Copy CRC 0C54A1F6
Accurately ripped (confidence 6) [CE8197AE] (AR v2)
Copy OK

Track 9

Filename D:\Desktop\The Rolling Stones - Aftermath (2006)\09. It's Not Easy.wav

Pre-gap length 0:00:00.23

Peak level 98.8 %
Extraction speed 6.8 X
Track quality 100.0 %
Test CRC 26D061B3
Copy CRC 26D061B3
Accurately ripped (confidence 6) [1C06AB7E] (AR v2)
Copy OK

Track 10

Filename D:\Desktop\The Rolling Stones - Aftermath (2006)\10. I Am Waiting.wav

Pre-gap length 0:00:00.04

Peak level 98.8 %
Extraction speed 7.1 X
Track quality 100.0 %
Test CRC 58D96D52
Copy CRC 58D96D52
Accurately ripped (confidence 6) [6BF906FE] (AR v2)
Copy OK

Track 11

Filename D:\Desktop\The Rolling Stones - Aftermath (2006)\11. Going Home.wav

Pre-gap length 0:00:00.26

Peak level 98.8 %
Extraction speed 7.7 X
Track quality 99.9 %
Test CRC 54CF9481
Copy CRC 54CF9481
Accurately ripped (confidence 6) [81A79318] (AR v2)
Copy OK

All tracks accurately ripped

No errors occurred

End of status report

==== Log checksum 4CC94F0D963CFF3974822F4256088EC127F728DE94903D392672F557016A5BA0 ====

REM GENRE Rock 
REM DATE 2006
REM DISCID 8A0A110B
REM COMMENT "ExactAudioCopy v1.0b3"
PERFORMER "The Rolling Stones"
TITLE "Aftermath"
FILE "01. Paint It Black.wav" WAVE
TRACK 01 AUDIO
TITLE "Paint It Black"
PERFORMER "The Rolling Stones"
INDEX 01 00:00:00
TRACK 02 AUDIO
TITLE "Stupid Girl"
PERFORMER "The Rolling Stones"
INDEX 00 03:22:28
FILE "02. Stupid Girl.wav" WAVE
INDEX 01 00:00:00
TRACK 03 AUDIO
TITLE "Lady Jane"
PERFORMER "The Rolling Stones"
INDEX 00 02:55:31
FILE "03. Lady Jane.wav" WAVE
INDEX 01 00:00:00
TRACK 04 AUDIO
TITLE "Under My Thumb"
PERFORMER "The Rolling Stones"
INDEX 00 03:08:19
FILE "04. Under My Thumb.wav" WAVE
INDEX 01 00:00:00
TRACK 05 AUDIO
TITLE "Doncha Bother Me"
PERFORMER "The Rolling Stones"
INDEX 00 03:41:51
FILE "05. Doncha Bother Me.wav" WAVE
INDEX 01 00:00:00
TRACK 06 AUDIO
TITLE "Think"
PERFORMER "The Rolling Stones"
INDEX 00 02:41:18
FILE "06. Think.wav" WAVE
INDEX 01 00:00:00
FILE "07. Flight 505.wav" WAVE
TRACK 07 AUDIO
TITLE "Flight 505"
PERFORMER "The Rolling Stones"
INDEX 01 00:00:00
TRACK 08 AUDIO
TITLE "High And Dry"
PERFORMER "The Rolling Stones"
INDEX 00 03:27:20
FILE "08. High And Dry.wav" WAVE
INDEX 01 00:00:00
TRACK 09 AUDIO
TITLE "It's Not Easy"
PERFORMER "The Rolling Stones"
INDEX 00 03:08:10
FILE "09. It's Not Easy.wav" WAVE
INDEX 01 00:00:00
TRACK 10 AUDIO
TITLE "I Am Waiting"
PERFORMER "The Rolling Stones"
INDEX 00 02:56:21
FILE "10. I Am Waiting.wav" WAVE
INDEX 01 00:00:00
TRACK 11 AUDIO
TITLE "Going Home"
PERFORMER "The Rolling Stones"
INDEX 00 03:11:04
FILE "11. Going Home.wav" WAVE
INDEX 01 00:00:00


Discogs

          
info [Профиль]  [ЛС] 
Показать сообщения:    
Ответить на тему

Текущее время: 13-Дек 00:10

Часовой пояс: GMT + 4



Вы не можете начинать темы
Вы не можете отвечать на сообщения
Вы не можете редактировать свои сообщения
Вы не можете удалять свои сообщения
Вы не можете голосовать в опросах
Вы не можете прикреплять файлы к сообщениям
Вы не можете скачивать файлы