Ошибка
Загрузка...

(Rock) Альфа - Grand Collection - 2000, FLAC (image+.cue), lossless

Ответить на тему
 
Автор Сообщение

Молескин

Пол: Пол:Муж

Стаж: 8 месяцев 13 дней

Сообщений: 117

Россия
Рейтинг

post 14-Янв-2018 01:51 0[+]

[Цитировать] 

Альфа - Grand Collection

Жанр: Rock
Год издания данного носителя: 2000
Страна-производитель носителя: Россия
Лейбл: Квадро-Диск
Каталоговый номер: GCR 008
Аудио кодек: FLAC
Тип рипа: image+.cue
Битрейт аудио: lossless
Продолжительность: 01:10:05
Источник: CD
Полиграфия: Присутствует


Треклист:
01. Шторм
02. Расклейщик афиш
03. Гуляка
04. Театр
05. Я стал таким невзрачным
06. Зеркало-река
07. Африка
08. Что такое один
09. Привычка
10. Время
11. Звёзды нам светят
12. Чудо-тройка
13. Ворон
14. Тёплый ветер
15. Я сегодня никому не нужен
16. Инструментальная пьеса


Exact Audio Copy V1.0 beta 3 from 29. August 2011 

EAC extraction logfile from 31. July 2016, 18:14

Альфа / Grand Collection

Used drive : TSSTcorpCDDVDW SH-224DB Adapter: 0 ID: 1

Read mode : Secure
Utilize accurate stream : Yes
Defeat audio cache : Yes
Make use of C2 pointers : No

Read offset correction : 6
Overread into Lead-In and Lead-Out : No
Fill up missing offset samples with silence : Yes
Delete leading and trailing silent blocks : No
Null samples used in CRC calculations : Yes
Used interface : Installed external ASPI interface

Used output format : User Defined Encoder
Selected bitrate : 1024 kBit/s
Quality : High
Add ID3 tag : No
Command line compressor : D:\Program Files\Exact Audio Copy\FLAC\FLAC.EXE
Additional command line options : -V -8 -T "Genre=%genre%" -T "Artist=%artist%" -T "Title=%title%" -T "Album=%albumtitle%" -T "Date=%year%" -T "Tracknumber=%tracknr%" -T "Comment=%comment%" %source%

TOC of the extracted CD

Track | Start | Length | Start sector | End sector
---------------------------------------------------------
1 | 0:00.00 | 5:24.22 | 0 | 24321
2 | 5:24.22 | 4:23.18 | 24322 | 44064
3 | 9:47.40 | 3:22.50 | 44065 | 59264
4 | 13:10.15 | 5:29.22 | 59265 | 83961
5 | 18:39.37 | 3:55.05 | 83962 | 101591
6 | 22:34.42 | 3:58.05 | 101592 | 119446
7 | 26:32.47 | 5:41.70 | 119447 | 145091
8 | 32:14.42 | 4:22.52 | 145092 | 164793
9 | 36:37.19 | 3:54.45 | 164794 | 182388
10 | 40:31.64 | 4:27.18 | 182389 | 202431
11 | 44:59.07 | 4:41.48 | 202432 | 223554
12 | 49:40.55 | 5:07.13 | 223555 | 246592
13 | 54:47.68 | 4:25.63 | 246593 | 266530
14 | 59:13.56 | 4:44.16 | 266531 | 287846
15 | 63:57.72 | 4:45.71 | 287847 | 309292
16 | 68:43.68 | 1:20.72 | 309293 | 315364

Range status and errors

Selected range

Filename D:\Desktop\Альфа - Grand Collection (2000)\Альфа - Grand Collection.wav

Peak level 100.0 %
Extraction speed 3.3 X
Range quality 100.0 %
Test CRC 3BD9963E
Copy CRC 3BD9963E
Copy OK

No errors occurred

AccurateRip summary
Track 1 accurately ripped (confidence 1) [10344B09] (AR v2)
Track 2 accurately ripped (confidence 1) [65CF9321] (AR v2)
Track 3 accurately ripped (confidence 1) [FD1CF712] (AR v2)
Track 4 accurately ripped (confidence 1) [8495AB1E] (AR v2)
Track 5 accurately ripped (confidence 1) [FC057462] (AR v2)
Track 6 accurately ripped (confidence 1) [C3DB0E8D] (AR v2)
Track 7 accurately ripped (confidence 1) [28EECBB2] (AR v2)
Track 8 accurately ripped (confidence 1) [668E0B9F] (AR v2)
Track 9 accurately ripped (confidence 1) [F12DAC89] (AR v2)
Track 10 accurately ripped (confidence 1) [87404036] (AR v2)
Track 11 accurately ripped (confidence 1) [138DD461] (AR v2)
Track 12 accurately ripped (confidence 1) [214B05CC] (AR v2)
Track 13 accurately ripped (confidence 1) [AABDAB98] (AR v2)
Track 14 accurately ripped (confidence 1) [3CC51BF4] (AR v2)
Track 15 accurately ripped (confidence 1) [C4D13DCC] (AR v2)
Track 16 accurately ripped (confidence 1) [35CF163F] (AR v2)
All tracks accurately ripped

End of status report

==== Log checksum 12673DD4189BA4C3EE85BBAA8C579F576CDBA3063EEF6CDEC95792ED3AA80E41 ====

REM GENRE Rock 
REM DATE 2000
REM DISCID FA106C10
REM COMMENT "ExactAudioCopy v1.0b3"
PERFORMER "Альфа"
TITLE "Grand Collection"
FILE "Альфа - Grand Collection.flac" WAVE
TRACK 01 AUDIO
TITLE "Шторм"
PERFORMER "Альфа"
INDEX 01 00:00:00
TRACK 02 AUDIO
TITLE "Расклейщик афиш"
PERFORMER "Альфа"
INDEX 00 05:22:22
INDEX 01 05:24:22
TRACK 03 AUDIO
TITLE "Гуляка"
PERFORMER "Альфа"
INDEX 00 09:45:40
INDEX 01 09:47:40
TRACK 04 AUDIO
TITLE "Театр"
PERFORMER "Альфа"
INDEX 00 13:08:15
INDEX 01 13:10:15
TRACK 05 AUDIO
TITLE "Я стал таким невзрачным"
PERFORMER "Альфа"
INDEX 00 18:37:37
INDEX 01 18:39:37
TRACK 06 AUDIO
TITLE "Зеркало-река"
PERFORMER "Альфа"
INDEX 00 22:32:42
INDEX 01 22:34:42
TRACK 07 AUDIO
TITLE "Африка"
PERFORMER "Альфа"
INDEX 00 26:30:47
INDEX 01 26:32:47
TRACK 08 AUDIO
TITLE "Что такое один"
PERFORMER "Альфа"
INDEX 00 32:12:42
INDEX 01 32:14:42
TRACK 09 AUDIO
TITLE "Привычка"
PERFORMER "Альфа"
INDEX 00 36:35:19
INDEX 01 36:37:19
TRACK 10 AUDIO
TITLE "Время"
PERFORMER "Альфа"
INDEX 00 40:29:64
INDEX 01 40:31:64
TRACK 11 AUDIO
TITLE "Звёзды нам светят"
PERFORMER "Альфа"
INDEX 00 44:57:07
INDEX 01 44:59:07
TRACK 12 AUDIO
TITLE "Чудо-тройка"
PERFORMER "Альфа"
INDEX 00 49:38:56
INDEX 01 49:40:55
TRACK 13 AUDIO
TITLE "Ворон"
PERFORMER "Альфа"
INDEX 00 54:45:69
INDEX 01 54:47:68
TRACK 14 AUDIO
TITLE "Тёплый ветер"
PERFORMER "Альфа"
INDEX 00 59:11:56
INDEX 01 59:13:56
TRACK 15 AUDIO
TITLE "Я сегодня никому не нужен"
PERFORMER "Альфа"
INDEX 00 63:55:71
INDEX 01 63:57:72
TRACK 16 AUDIO
TITLE "Инструментальная пьеса"
PERFORMER "Альфа"
INDEX 00 68:41:68
INDEX 01 68:43:68


Discogs
          
info [Профиль]  [ЛС] 
Показать сообщения:    
Ответить на тему

Текущее время: 22-Сен 14:09

Часовой пояс: GMT + 4



Вы не можете начинать темы
Вы не можете отвечать на сообщения
Вы не можете редактировать свои сообщения
Вы не можете удалять свои сообщения
Вы не можете голосовать в опросах
Вы не можете прикреплять файлы к сообщениям
Вы не можете скачивать файлы