Ошибка

Вайолет Эвергарден/ Violet Evergarden [TV] [1 из 14] [2018] [Драма, Фэнтези] [WEBRip] [1080p] [Субтитры (JAP)]

Ответить на тему
 
Автор Сообщение

anoningen

Стаж: 4 года 8 месяцев

Сообщений: 582

Самоа
Рейтинг

post 13-Янв-2018 14:18 0[+]

[Цитировать] 

Вайолет Эвергарден
Violet Evergarden
ヴァイオレット・エヴァーガーデン

Год выпуска: 2018.
Тип: TV
Жанр: Драма, Фэнтези
Режиссер: Исидатэ Тайти
Автор оригинала: Акацуки Кана
Студия:
Продолжительность: 14 эп. по 25 мин
Русские субтитры: ASS, внешним файлом
Субтитры 1:
Переводчик: Андрей Зайцев
Редактор: Алиса Трушина
Субтитры 2: [nnm-club^anime]
Переводчик/Оформитель: kvaking
Редактор/Тайм-кодер: ElSwanko
Субтитры 3:
Переводчик: Amanri

Описание:
Учёный Орландо ради своей любимой супруги Молли был готов пойти на многое. Когда та начала терять зрение, учёный создал человекообразного робота, чтобы он помогал ей.
Это изобретение он назвал «автозапоминающей куклой». Внешне робот был прекрасен: он выглядел как молодая девушка и должен был переносить мысли владельца в слова, что так нужно было жене-писательнице Орландо. В итоге многие фирмы и компании начали приобретать таких роботов. Эти куклы получили широкий спрос, и учёный охотно продал права на их создание.
Однако, со временем ряд компаний решил «усовершенствовать» автозапоминающих кукол, превратив их из обычных «голосовых» помощников в красивые военные машины. Теперь автозапоминающие куклы — живые девушки, имеющие те же функции, что и оригинальное изобретение, но вместе с этим способные выполнить боевые задачи.
Вайолет Эвергарден, ныне сотрудница почтовой службы «C-H», одна из кукол последнего военного поколения. Выполняя свои профессиональные обязанности, Вайолет пытается найти значение слов, когда-то сказанных ей близким человеком.
Автор рипа: HorribleSubs
Качество: WEBRip
Формат видео: MPEG-4
Видео: AVC, 8 бит, 1920x1080; 23.976 кадра/сек; 3480 Кбит/сек, (16:9)
Аудио: E-AC-3, 48,0 КГц, 128 Кбит/сек, 2 канала
Общее
Уникальный идентификатор : 218089855072357796295585458354786103958 (0xA4129407DED1F3A1B9575F84368B7296)
Полное имя : G:\Anime\Violet Evergarden\[HorribleSubs] Violet Evergarden - 01 [1080p].mkv
Формат : Matroska
Версия формата : Version 4 / Version 2
Размер файла : 620 Мбайт
Продолжительность : 24 м. 13 с.
Режим общего битрейта : Переменный
Общий поток : 3575 Кбит/сек
Дата кодирования : UTC 2018-01-11 08:13:48 / UTC 2018-01-09 01:18:31
Программа кодирования : mkvmerge v8.3.0 ('Over the Horizon') 32bit
Библиотека кодирования : libebml v1.3.1 + libmatroska v1.4.2 / Lavf58.0.0
Attachments : OpenSans-Semibold.ttf

Видео
Идентификатор : 1
Формат : AVC
Формат/Информация : Advanced Video Codec
Профиль формата : Main@L4
Настройки формата : CABAC / 3 Ref Frames
Параметр CABAC формата : Да
Параметр RefFrames формата : 3 кадра
Идентификатор кодека : V_MPEG4/ISO/AVC
Продолжительность : 24 м. 13 с.
Вид битрейта : Переменный
Битрейт : 3480 Кбит/сек
Максимальный битрейт : 5220 Кбит/сек
Ширина : 1920 пикселей
Высота : 1080 пикселей
Соотношение сторон : 16:9
Режим частоты кадров : Постоянный
Частота кадров : 23,976 (24000/1001) кадра/сек
Цветовое пространство : YUV
Субдискретизация насыщенности : 4:2:0
Битовая глубина : 8 бит
Тип развёртки : Прогрессивная
Бит/(Пиксели*Кадры) : 0.070
Размер потока : 585 Мбайт (94%)
Библиотека кодирования : x264 core 148 r2714 2daf636
Настройки программы : cabac=1 / ref=3 / deblock=1:0:0 / analyse=0x1:0x111 / me=umh / subme=10 / psy=1 / psy_rd=1.00:0.00 / mixed_ref=1 / me_range=24 / chroma_me=1 / trellis=2 / 8x8dct=0 / cqm=0 / deadzone=21,11 / fast_pskip=1 / chroma_qp_offset=-2 / threads=8 / lookahead_threads=1 / sliced_threads=0 / nr=0 / decimate=1 / interlaced=0 / bluray_compat=0 / stitchable=1 / constrained_intra=0 / bframes=2 / b_pyramid=0 / b_adapt=2 / b_bias=0 / direct=3 / weightb=1 / open_gop=0 / weightp=2 / keyint=48 / keyint_min=25 / scenecut=0 / intra_refresh=0 / rc_lookahead=48 / rc=2pass / mbtree=1 / bitrate=3480 / ratetol=1.0 / qcomp=0.50 / qpmin=6 / qpmax=51 / qpstep=4 / cplxblur=20.0 / qblur=0.5 / vbv_maxrate=5220 / vbv_bufsize=6960 / nal_hrd=vbr / filler=0 / ip_ratio=1.40 / aq=1:1.00
Default : Да
Forced : Нет
Statistics Tags Issue : mkvmerge v8.3.0 ('Over the Horizon') 32bit 2018-01-11 08:13:48 / mkvmerge v8.3.0 ('Over the Horizon') 32bit 2018-01-11 08:13:48 / UTC 2018-01-09 01:18:31
FromStats_BitRate : 3443243
FromStats_Duration : 00:24:13.744000000
FromStats_FrameCount : 34855
FromStats_StreamSize : 625699266

Аудио
Идентификатор : 2
Формат : E-AC-3
Формат/Информация : Enhanced Audio Coding 3
Идентификатор кодека : A_EAC3
Продолжительность : 24 м. 13 с.
Вид битрейта : Постоянный
Битрейт : 128 Кбит/сек
Каналы : 2 канала
Расположение каналов : Front: L R
Частота : 48,0 КГц
Частота кадров : 187,500 кадров/сек (256 SPF)
Метод сжатия : С потерями
Размер потока : 22,2 Мбайт (4%)
Язык : Japanese
ServiceKind/String : Complete Main
Default : Да
Forced : Нет
Дата кодирования : UTC 2018-01-09 01:18:31
Statistics Tags Issue : mkvmerge v8.3.0 ('Over the Horizon') 32bit 2018-01-11 08:13:48 / mkvmerge v8.3.0 ('Over the Horizon') 32bit 2018-01-11 08:13:48 / UTC 2018-01-09 01:18:31
FromStats_BitRate : 128000
FromStats_Duration : 00:24:13.856000000
FromStats_FrameCount : 45433
FromStats_StreamSize : 23261696

Текст #1
Идентификатор : 3
Формат : ASS
Идентификатор кодека : S_TEXT/ASS
Идентификатор кодека/Информация : Advanced Sub Station Alpha
Метод сжатия : Без потерь
Заголовок : English
Язык : English
Default : Да
Forced : Да
Statistics Tags Issue : mkvmerge v8.3.0 ('Over the Horizon') 32bit 2018-01-11 08:13:48 / mkvmerge v8.3.0 ('Over the Horizon') 32bit 2018-01-11 08:13:48 / UTC 2018-01-09 01:18:31
FromStats_BitRate : 95
FromStats_Duration : 00:23:24.070000000
FromStats_FrameCount : 328
FromStats_StreamSize : 16842

Текст #2
Идентификатор : 4
Формат : ASS
Идентификатор кодека : S_TEXT/ASS
Идентификатор кодека/Информация : Advanced Sub Station Alpha
Метод сжатия : Без потерь
Заголовок : French
Язык : French
Default : Нет
Forced : Нет
Statistics Tags Issue : mkvmerge v8.3.0 ('Over the Horizon') 32bit 2018-01-11 08:13:48 / mkvmerge v8.3.0 ('Over the Horizon') 32bit 2018-01-11 08:13:48 / UTC 2018-01-09 01:18:31
FromStats_BitRate : 91
FromStats_Duration : 00:23:46.930000000
FromStats_FrameCount : 328
FromStats_StreamSize : 16242

Текст #3
Идентификатор : 5
Формат : ASS
Идентификатор кодека : S_TEXT/ASS
Идентификатор кодека/Информация : Advanced Sub Station Alpha
Метод сжатия : Без потерь
Заголовок : Spanish
Язык : Spanish
Default : Нет
Forced : Нет
Statistics Tags Issue : mkvmerge v8.3.0 ('Over the Horizon') 32bit 2018-01-11 08:13:48 / mkvmerge v8.3.0 ('Over the Horizon') 32bit 2018-01-11 08:13:48 / UTC 2018-01-09 01:18:31
FromStats_BitRate : 94
FromStats_Duration : 00:23:46.720000000
FromStats_FrameCount : 325
FromStats_StreamSize : 16768

Текст #4
Идентификатор : 6
Формат : ASS
Идентификатор кодека : S_TEXT/ASS
Идентификатор кодека/Информация : Advanced Sub Station Alpha
Метод сжатия : Без потерь
Заголовок : German
Язык : German
Default : Нет
Forced : Нет
Statistics Tags Issue : mkvmerge v8.3.0 ('Over the Horizon') 32bit 2018-01-11 08:13:48 / mkvmerge v8.3.0 ('Over the Horizon') 32bit 2018-01-11 08:13:48 / UTC 2018-01-09 01:18:31
FromStats_BitRate : 90
FromStats_Duration : 00:23:50.720000000
FromStats_FrameCount : 324
FromStats_StreamSize : 16265

Текст #5
Идентификатор : 7
Формат : ASS
Идентификатор кодека : S_TEXT/ASS
Идентификатор кодека/Информация : Advanced Sub Station Alpha
Метод сжатия : Без потерь
Заголовок : Italian
Язык : Italian
Default : Нет
Forced : Нет
Statistics Tags Issue : mkvmerge v8.3.0 ('Over the Horizon') 32bit 2018-01-11 08:13:48 / mkvmerge v8.3.0 ('Over the Horizon') 32bit 2018-01-11 08:13:48 / UTC 2018-01-09 01:18:31
FromStats_BitRate : 90
FromStats_Duration : 00:23:50.760000000
FromStats_FrameCount : 316
FromStats_StreamSize : 16116
info [Профиль]  [ЛС] 

anoningen

Стаж: 4 года 8 месяцев

Сообщений: 582

Самоа
Рейтинг

post 13-Янв-2018 14:25 (спустя 7 минут) [-]0[+]

[Цитировать] 

Новые серии добавляются по мере выхода субтитров.
На раздаче по вечерам в будни и весь день в выходные.
Приятного просмотра!
info [Профиль]  [ЛС] 
Показать сообщения:    
Ответить на тему

Текущее время: 16-Янв 15:02

Часовой пояс: GMT + 4



Вы не можете начинать темы
Вы не можете отвечать на сообщения
Вы не можете редактировать свои сообщения
Вы не можете удалять свои сообщения
Вы не можете голосовать в опросах
Вы не можете прикреплять файлы к сообщениям
Вы не можете скачивать файлы