Ошибка

(Pop) Игорь Саруханов - Grand Collection - 2002, FLAC (image+.cue), lossless

Ответить на тему
 
Автор Сообщение

Молескин

Пол: Пол:Муж

Стаж: 2 года 7 месяцев

Сообщений: 123

Россия
Рейтинг

post 10-Янв-2018 22:35 0[+]

[Цитировать] 

Игорь Саруханов - Grand Collection

Жанр: Pop
Год издания данного носителя: 2002
Страна-производитель носителя: Россия
Лейбл: Квадро-Диск
Каталоговый номер: GCR 058
Аудио кодек: FLAC
Тип рипа: image+.cue
Битрейт аудио: lossless
Продолжительность: 01:17:26
Источник: CD
Полиграфия: Присутствует


Треклист:
01. Маскарад
02. Слово в слово
03. Позади крутой поворот
04. Вчерашний день
05. Сухуми
06. Ящики почтовые
07. Парень с гитарой
08. Желаю тебе
09. Я хочу побыть один
10. Дорогие мои старики
11. Зеленые глаза
12. Поминальная
13. Зачем вернулась ты
14. Скрипка-Лиса
15. Это не любовь
16. Лодочка


Exact Audio Copy V1.3 from 2. September 2016 

EAC extraction logfile from 17. June 2017, 17:03

Игорь Саруханов / Grand Collection

Used drive : HL-DT-STDVDRAM GH24NSD1 Adapter: 0 ID: 1

Read mode : Secure
Utilize accurate stream : Yes
Defeat audio cache : Yes
Make use of C2 pointers : No

Read offset correction : 6
Overread into Lead-In and Lead-Out : No
Fill up missing offset samples with silence : Yes
Delete leading and trailing silent blocks : No
Null samples used in CRC calculations : Yes
Used interface : Installed external ASPI interface

Used output format : User Defined Encoder
Selected bitrate : 1024 kBit/s
Quality : High
Add ID3 tag : No
Command line compressor : D:\Program Files\Exact Audio Copy\Flac\flac.exe
Additional command line options : -V -8 -T "Genre=%genre%" -T "Artist=%artist%" -T "Title=%title%" -T "Album=%albumtitle%" -T "Date=%year%" -T "Tracknumber=%tracknr%" -T "Comment=%comment%" %source%

TOC of the extracted CD

Track | Start | Length | Start sector | End sector
---------------------------------------------------------
1 | 0:00.00 | 5:02.11 | 0 | 22660
2 | 5:02.11 | 5:34.70 | 22661 | 47780
3 | 10:37.06 | 5:06.23 | 47781 | 70753
4 | 15:43.29 | 5:46.43 | 70754 | 96746
5 | 21:29.72 | 4:17.62 | 96747 | 116083
6 | 25:47.59 | 3:37.44 | 116084 | 132402
7 | 29:25.28 | 4:25.54 | 132403 | 152331
8 | 33:51.07 | 4:33.59 | 152332 | 172865
9 | 38:24.66 | 5:09.22 | 172866 | 196062
10 | 43:34.13 | 3:50.08 | 196063 | 213320
11 | 47:24.21 | 5:19.02 | 213321 | 237247
12 | 52:43.23 | 5:29.26 | 237248 | 261948
13 | 58:12.49 | 3:58.51 | 261949 | 279849
14 | 62:11.25 | 6:16.27 | 279850 | 308076
15 | 68:27.52 | 4:29.04 | 308077 | 328255
16 | 72:56.56 | 4:30.00 | 328256 | 348505

Range status and errors

Selected range

Filename D:\Desktop\Игорь Саруханов - Grand Collection (2002)\Игорь Саруханов - Grand Collection.wav

Peak level 100.0 %
Extraction speed 6.5 X
Range quality 99.9 %
Test CRC 7219DA49
Copy CRC 7219DA49
Copy OK

No errors occurred

AccurateRip summary
Track 1 accurately ripped (confidence 1) [BDB1418C] (AR v1)
Track 2 accurately ripped (confidence 1) [5C8BB313] (AR v1)
Track 3 accurately ripped (confidence 2) [89B929B1] (AR v1)
Track 4 accurately ripped (confidence 1) [7BB31EF8] (AR v1)
Track 5 accurately ripped (confidence 1) [5CF724C7] (AR v1)
Track 6 accurately ripped (confidence 1) [710A4A7D] (AR v1)
Track 7 accurately ripped (confidence 1) [9D65F1B0] (AR v1)
Track 8 accurately ripped (confidence 2) [CD018F30] (AR v1)
Track 9 accurately ripped (confidence 1) [C9CD2869] (AR v1)
Track 10 accurately ripped (confidence 2) [66721AAE] (AR v1)
Track 11 accurately ripped (confidence 1) [1B0B2CCF] (AR v1)
Track 12 accurately ripped (confidence 1) [FD9A6A04] (AR v1)
Track 13 accurately ripped (confidence 1) [6D77C1C0] (AR v1)
Track 14 accurately ripped (confidence 1) [330C22D7] (AR v1)
Track 15 accurately ripped (confidence 1) [FA15DA1F] (AR v1)
Track 16 accurately ripped (confidence 1) [AB0A78A2] (AR v1)
All tracks accurately ripped

End of status report

==== Log checksum 0D74BE08BC553773BB808FE40ADE1792AB3ED490F0B021209C984047AFBAE37B ====

REM GENRE Pop 
REM DATE 2002
REM DISCID EF122610
REM COMMENT "ExactAudioCopy v1.3"
PERFORMER "Игорь Саруханов"
TITLE "Grand Collection"
REM COMPOSER ""
FILE "Игорь Саруханов - Grand Collection.flac" WAVE
TRACK 01 AUDIO
TITLE "Маскарад"
PERFORMER "Игорь Саруханов"
REM COMPOSER ""
INDEX 01 00:00:00
TRACK 02 AUDIO
TITLE "Слово в слово"
PERFORMER "Игорь Саруханов"
REM COMPOSER ""
INDEX 00 05:00:12
INDEX 01 05:02:11
TRACK 03 AUDIO
TITLE "Позади крутой поворот"
PERFORMER "Игорь Саруханов"
REM COMPOSER ""
INDEX 00 10:35:06
INDEX 01 10:37:06
TRACK 04 AUDIO
TITLE "Вчерашний день"
PERFORMER "Игорь Саруханов"
REM COMPOSER ""
INDEX 00 15:41:29
INDEX 01 15:43:29
TRACK 05 AUDIO
TITLE "Сухуми"
PERFORMER "Игорь Саруханов"
REM COMPOSER ""
INDEX 00 21:27:72
INDEX 01 21:29:72
TRACK 06 AUDIO
TITLE "Ящики почтовые"
PERFORMER "Игорь Саруханов"
REM COMPOSER ""
INDEX 00 25:45:59
INDEX 01 25:47:59
TRACK 07 AUDIO
TITLE "Парень с гитарой"
PERFORMER "Игорь Саруханов"
REM COMPOSER ""
INDEX 00 29:23:28
INDEX 01 29:25:28
TRACK 08 AUDIO
TITLE "Желаю тебе"
PERFORMER "Игорь Саруханов"
REM COMPOSER ""
INDEX 00 33:49:07
INDEX 01 33:51:07
TRACK 09 AUDIO
TITLE "Я хочу побыть один"
PERFORMER "Игорь Саруханов"
REM COMPOSER ""
INDEX 00 38:22:66
INDEX 01 38:24:66
TRACK 10 AUDIO
TITLE "Дорогие мои старики"
PERFORMER "Игорь Саруханов"
REM COMPOSER ""
INDEX 00 43:32:13
INDEX 01 43:34:13
TRACK 11 AUDIO
TITLE "Зеленые глаза"
PERFORMER "Игорь Саруханов"
REM COMPOSER ""
INDEX 00 47:22:21
INDEX 01 47:24:21
TRACK 12 AUDIO
TITLE "Поминальная"
PERFORMER "Игорь Саруханов"
REM COMPOSER ""
INDEX 00 52:41:23
INDEX 01 52:43:23
TRACK 13 AUDIO
TITLE "Зачем вернулась ты"
PERFORMER "Игорь Саруханов"
REM COMPOSER ""
INDEX 00 58:10:49
INDEX 01 58:12:49
TRACK 14 AUDIO
TITLE "Скрипка-Лиса"
PERFORMER "Игорь Саруханов"
REM COMPOSER ""
INDEX 00 62:09:25
INDEX 01 62:11:25
TRACK 15 AUDIO
TITLE "Это не любовь"
PERFORMER "Игорь Саруханов"
REM COMPOSER ""
INDEX 00 68:25:52
INDEX 01 68:27:52
TRACK 16 AUDIO
TITLE "Лодочка"
PERFORMER "Игорь Саруханов"
REM COMPOSER ""
INDEX 00 72:54:56
INDEX 01 72:56:56


Discogs
info [Профиль]  [ЛС] 
Показать сообщения:    
Ответить на тему

Текущее время: 14-Авг 20:33

Часовой пояс: GMT + 4



Вы не можете начинать темы
Вы не можете отвечать на сообщения
Вы не можете редактировать свои сообщения
Вы не можете удалять свои сообщения
Вы не можете голосовать в опросах
Вы не можете прикреплять файлы к сообщениям
Вы не можете скачивать файлы