Ошибка

(Score, Soundtrack) The Longest Journey (Dreamfall) Soundtrack Collection (by Bjorn Arve Lagim, Magnet, Leon Willett, Simon Poole) - 2001-2016 г., FLAC (image+.cue), lossless

Ответить на тему
 
Автор Сообщение

Hobbit38

Пол: Пол:Муж

Стаж: 4 года 7 месяцев

Сообщений: 761

Предупреждений: 1

Россия
Рейтинг

post 17-Дек-2017 16:13 [-]0[+]

[Цитировать] 


The Longest Journey (Dreamfall) Soundtrack Collection
Жанр: Score, Soundtrack | Страна: Norway | Год выпуска: 2001-2016

Композиторы: Various Artists (см. спойлеры)

Аудиокодек: FLAC (.flac) | Тип рипа: image+.cue | Битрейт аудио: lossless

Продолжительность: 04:38:21

Композитор: Bjorn Arve Lagim
Год выпуска: Apr 21, 2001
Страна-производитель диска: Norway
Издатель (лейбл): Funcom
№ Каталога: FCM-TLJ-00
Продолжительность: 01:17:10

01 Main Menu 2:01
02 Prologue 1:38
03 Main Titles 2:57
04 Venice 1:02
05 The First Shift 0:56
06 Marcuria and the Northlands 4:27
07 The Gribbler 1:01
08 The Subway and Hope Street 0:50
09 The Great Library 0:33
10 Reading Music 1:39
11 The Gargoyle and the Labyrinth 2:47
12 The Storm and the Sea 2:08
13 Alais 1:41
14 Inside the Alatien City 0:51
15 The Deep and the Old God 1:43
16 The House of All Worlds 0:41
17 Jacob McAllen 2:29
18 Death and Rebirth 0:47
19 Danger 1:32
20 Into the Wormhole 1:29
21 Desolation and the Well of Making 0:42
22 The Ghost House 1:35
23 The Tower 1:41
24 Epilogue 1:44
25 End Credits 3:26
26 The Longest Journey Suite 12:05
27 Dragon 5:06
28 Eagle 3:32
29 Dolphin 6:37
30 Unicorn 7:34
 
Exact Audio Copy V0.99 prebeta 4 from 23. January 2008
EAC extraction logfile from 5. July 2008, 13:07
Various / The Longest Journey Original Soundtrack
Used drive : HL-DT-STDVDRAM GSA-H42L Adapter: 0 ID: 0
Read mode : Secure
Utilize accurate stream : Yes
Defeat audio cache : Yes
Make use of C2 pointers : No
Read offset correction : 667
Overread into Lead-In and Lead-Out : No
Fill up missing offset samples with silence : Yes
Delete leading and trailing silent blocks : No
Null samples used in CRC calculations : Yes
Used interface : Native Win32 interface for Win NT & 2000
Gap handling : Appended to previous track
Used output format : User Defined Encoder
Selected bitrate : 768 kBit/s
Quality : High
Add ID3 tag : No
Command line compressor : C:\Program Files\Exact Audio Copy\FLAC\FLAC.EXE
Additional command line options : -V -8 -T "artist=%a" -T "title=%t" -T "album=%g" -T "date=%y" -T "tracknumber=%n" -T "genre=%m" %s
TOC of the extracted CD
Track | Start | Length | Start sector | End sector
---------------------------------------------------------
1 | 0:00.00 | 2:00.17 | 0 | 9016
2 | 2:00.17 | 1:37.53 | 9017 | 16344
3 | 3:37.70 | 2:56.02 | 16345 | 29546
4 | 6:33.72 | 1:02.65 | 29547 | 34261
5 | 7:36.62 | 0:55.35 | 34262 | 38421
6 | 8:32.22 | 4:27.15 | 38422 | 58461
7 | 12:59.37 | 1:01.35 | 58462 | 63071
8 | 14:00.72 | 0:49.10 | 63072 | 66756
9 | 14:50.07 | 0:33.35 | 66757 | 69266
10 | 15:23.42 | 1:38.45 | 69267 | 76661
11 | 17:02.12 | 2:47.35 | 76662 | 89221
12 | 19:49.47 | 2:07.28 | 89222 | 98774
13 | 21:57.00 | 1:40.35 | 98775 | 106309
14 | 23:37.35 | 0:50.60 | 106310 | 110119
15 | 24:28.20 | 1:42.65 | 110120 | 117834
16 | 26:11.10 | 0:41.37 | 117835 | 120946
17 | 26:52.47 | 2:28.68 | 120947 | 132114
18 | 29:21.40 | 0:47.00 | 132115 | 135639
19 | 30:08.40 | 1:31.70 | 135640 | 142534
20 | 31:40.35 | 1:28.65 | 142535 | 149199
21 | 33:09.25 | 0:41.72 | 149200 | 152346
22 | 33:51.22 | 1:35.08 | 152347 | 159479
23 | 35:26.30 | 1:41.02 | 159480 | 167056
24 | 37:07.32 | 1:43.15 | 167057 | 174796
25 | 38:50.47 | 3:26.28 | 174797 | 190274
26 | 42:17.00 | 12:05.07 | 190275 | 244656
27 | 54:22.07 | 5:06.20 | 244657 | 267626
28 | 59:28.27 | 3:32.58 | 267627 | 283584
29 | 63:01.10 | 6:35.72 | 283585 | 313281
30 | 69:37.07 | 7:33.53 | 313282 | 347309
Track 1
Filename C:\EAC Rips\The Longest Journey Original Soundtrack - 2001\01 - Bjorn Arve Lagim - Main Menu.wav
Pre-gap length 0:00:02.00
Peak level 99.8 %
Track quality 100.0 %
Test CRC F9757086
Copy CRC F9757086
Accurately ripped (confidence 5) [F6D5B4FE]
Copy OK
Track 2
Filename C:\EAC Rips\The Longest Journey Original Soundtrack - 2001\02 - Bjorn Arve Lagim - Prologue.wav
Peak level 77.2 %
Track quality 100.0 %
Test CRC 6BC81292
Copy CRC 6BC81292
Accurately ripped (confidence 5) [38D300B9]
Copy OK
Track 3
Filename C:\EAC Rips\The Longest Journey Original Soundtrack - 2001\03 - Bjorn Arve Lagim - Main Titles.wav
Peak level 99.9 %
Track quality 100.0 %
Test CRC DBA2DA55
Copy CRC DBA2DA55
Accurately ripped (confidence 5) [297B6D2A]
Copy OK
Track 4
Filename C:\EAC Rips\The Longest Journey Original Soundtrack - 2001\04 - Bjorn Arve Lagim - Venice.wav
Pre-gap length 0:00:01.77
Peak level 98.8 %
Track quality 100.0 %
Test CRC F6E4710D
Copy CRC F6E4710D
Accurately ripped (confidence 5) [8A892501]
Copy OK
Track 5
Filename C:\EAC Rips\The Longest Journey Original Soundtrack - 2001\05 - Bjorn Arve Lagim - The First Shift.wav
Peak level 98.9 %
Track quality 99.8 %
Test CRC F2506D23
Copy CRC F2506D23
Accurately ripped (confidence 5) [03583B40]
Copy OK
Track 6
Filename C:\EAC Rips\The Longest Journey Original Soundtrack - 2001\06 - Bjorn Arve Lagim - Marcuria and the Northlands.wav
Peak level 100.0 %
Track quality 100.0 %
Test CRC C547F82F
Copy CRC C547F82F
Accurately ripped (confidence 5) [09993B84]
Copy OK
Track 7
Filename C:\EAC Rips\The Longest Journey Original Soundtrack - 2001\07 - Bjorn Arve Lagim - The Gribbler.wav
Peak level 99.8 %
Track quality 100.0 %
Test CRC 47FBC237
Copy CRC 47FBC237
Accurately ripped (confidence 5) [9BABDA0E]
Copy OK
Track 8
Filename C:\EAC Rips\The Longest Journey Original Soundtrack - 2001\08 - Bjorn Arve Lagim - The Subway and Hope Street.wav
Peak level 100.0 %
Track quality 99.7 %
Test CRC F3B85F0F
Copy CRC F3B85F0F
Accurately ripped (confidence 5) [3D06CB35]
Copy OK
Track 9
Filename C:\EAC Rips\The Longest Journey Original Soundtrack - 2001\09 - Bjorn Arve Lagim - The Great Library.wav
Peak level 100.0 %
Track quality 100.0 %
Test CRC 444735C6
Copy CRC 444735C6
Accurately ripped (confidence 5) [60076D57]
Copy OK
Track 10
Filename C:\EAC Rips\The Longest Journey Original Soundtrack - 2001\10 - Bjorn Arve Lagim - Reading Music.wav
Peak level 99.8 %
Track quality 99.8 %
Test CRC 957C1273
Copy CRC 957C1273
Accurately ripped (confidence 5) [EB49381A]
Copy OK
Track 11
Filename C:\EAC Rips\The Longest Journey Original Soundtrack - 2001\11 - Bjorn Arve Lagim - The Gargoyle and the Labyrinth.wav
Peak level 100.0 %
Track quality 100.0 %
Test CRC 0FB53BB1
Copy CRC 0FB53BB1
Accurately ripped (confidence 5) [F16E4BC9]
Copy OK
Track 12
Filename C:\EAC Rips\The Longest Journey Original Soundtrack - 2001\12 - Bjorn Arve Lagim - The Storm and the Sea.wav
Peak level 99.8 %
Track quality 100.0 %
Test CRC 227F5991
Copy CRC 227F5991
Accurately ripped (confidence 5) [53BE3C60]
Copy OK
Track 13
Filename C:\EAC Rips\The Longest Journey Original Soundtrack - 2001\13 - Bjorn Arve Lagim - Alais.wav
Peak level 99.7 %
Track quality 100.0 %
Test CRC 0A7A57CD
Copy CRC 0A7A57CD
Accurately ripped (confidence 5) [22484C51]
Copy OK
Track 14
Filename C:\EAC Rips\The Longest Journey Original Soundtrack - 2001\14 - Bjorn Arve Lagim - Inside the Alatien City.wav
Pre-gap length 0:00:00.01
Peak level 89.1 %
Track quality 99.7 %
Test CRC 8AB816D9
Copy CRC 8AB816D9
Accurately ripped (confidence 5) [5DD4618B]
Copy OK
Track 15
Filename C:\EAC Rips\The Longest Journey Original Soundtrack - 2001\15 - Bjorn Arve Lagim - The Deep and the Old God.wav
Peak level 99.5 %
Track quality 100.0 %
Test CRC 39099363
Copy CRC 39099363
Accurately ripped (confidence 5) [75057CEF]
Copy OK
Track 16
Filename C:\EAC Rips\The Longest Journey Original Soundtrack - 2001\16 - Bjorn Arve Lagim - The House of All Worlds.wav
Peak level 99.7 %
Track quality 99.7 %
Test CRC AB8D63C0
Copy CRC AB8D63C0
Accurately ripped (confidence 5) [EF718599]
Copy OK
Track 17
Filename C:\EAC Rips\The Longest Journey Original Soundtrack - 2001\17 - Bjorn Arve Lagim - Jacob McAllen.wav
Peak level 70.7 %
Track quality 100.0 %
Test CRC 9541CD3B
Copy CRC 9541CD3B
Accurately ripped (confidence 5) [F39DEA82]
Copy OK
Track 18
Filename C:\EAC Rips\The Longest Journey Original Soundtrack - 2001\18 - Bjorn Arve Lagim - Death and Rebirth.wav
Peak level 99.8 %
Track quality 100.0 %
Test CRC C07D8D7C
Copy CRC C07D8D7C
Accurately ripped (confidence 5) [88735D46]
Copy OK
Track 19
Filename C:\EAC Rips\The Longest Journey Original Soundtrack - 2001\19 - Bjorn Arve Lagim - Danger.wav
Peak level 100.0 %
Track quality 100.0 %
Test CRC 4806B63F
Copy CRC 4806B63F
Accurately ripped (confidence 5) [77F649A7]
Copy OK
Track 20
Filename C:\EAC Rips\The Longest Journey Original Soundtrack - 2001\20 - Bjorn Arve Lagim - Into the Wormhole.wav
Peak level 100.0 %
Track quality 100.0 %
Test CRC F4847E5E
Copy CRC F4847E5E
Accurately ripped (confidence 5) [082030E7]
Copy OK
Track 21
Filename C:\EAC Rips\The Longest Journey Original Soundtrack - 2001\21 - Bjorn Arve Lagim - Desolation and Well of Making.wav
Peak level 99.2 %
Track quality 100.0 %
Test CRC D8201003
Copy CRC D8201003
Accurately ripped (confidence 5) [023124D5]
Copy OK
Track 22
Filename C:\EAC Rips\The Longest Journey Original Soundtrack - 2001\22 - Bjorn Arve Lagim - The Ghost House.wav
Peak level 89.1 %
Track quality 100.0 %
Test CRC 6B693489
Copy CRC 6B693489
Accurately ripped (confidence 5) [86705DFD]
Copy OK
Track 23
Filename C:\EAC Rips\The Longest Journey Original Soundtrack - 2001\23 - Bjorn Arve Lagim - The Tower.wav
Peak level 97.7 %
Track quality 100.0 %
Test CRC 36E2A465
Copy CRC 36E2A465
Accurately ripped (confidence 5) [5C9DD484]
Copy OK
Track 24
Filename C:\EAC Rips\The Longest Journey Original Soundtrack - 2001\24 - Bjorn Arve Lagim - Epilogue.wav
Peak level 79.4 %
Track quality 100.0 %
Test CRC FF95D82C
Copy CRC FF95D82C
Accurately ripped (confidence 5) [5A23372F]
Copy OK
Track 25
Filename C:\EAC Rips\The Longest Journey Original Soundtrack - 2001\25 - Bjorn Arve Lagim - End Credits.wav
Peak level 99.9 %
Track quality 100.0 %
Test CRC A433B050
Copy CRC A433B050
Accurately ripped (confidence 5) [8C22CB30]
Copy OK
Track 26
Filename C:\EAC Rips\The Longest Journey Original Soundtrack - 2001\26 - Bjorn Arve Lagim - The Longest Journey Suite.wav
Peak level 98.8 %
Track quality 100.0 %
Test CRC BB1FE806
Copy CRC BB1FE806
Accurately ripped (confidence 5) [8C60B852]
Copy OK
Track 27
Filename C:\EAC Rips\The Longest Journey Original Soundtrack - 2001\27 - Tor Linlokken - Dragon.wav
Peak level 71.1 %
Track quality 100.0 %
Test CRC 47D8095B
Copy CRC 47D8095B
Accurately ripped (confidence 5) [87752A28]
Copy OK
Track 28
Filename C:\EAC Rips\The Longest Journey Original Soundtrack - 2001\28 - Tor Linlokken - Eagle.wav
Peak level 99.8 %
Track quality 100.0 %
Test CRC 005C08AB
Copy CRC 005C08AB
Accurately ripped (confidence 5) [032B697B]
Copy OK
Track 29
Filename C:\EAC Rips\The Longest Journey Original Soundtrack - 2001\29 - Tor Linlokken - Dolphin.wav
Peak level 91.9 %
Track quality 100.0 %
Test CRC 0966D4DE
Copy CRC 0966D4DE
Accurately ripped (confidence 5) [DCDED3DE]
Copy OK
Track 30
Filename C:\EAC Rips\The Longest Journey Original Soundtrack - 2001\30 - Tor Linlokken - Unicorn.wav
Peak level 99.8 %
Track quality 100.0 %
Test CRC 8C04940D
Copy CRC 8C04940D
Accurately ripped (confidence 5) [53127C71]
Copy OK
All tracks accurately ripped
No errors occurred
End of status report
Композитор: Even Johansen
Исполнитель: Magnet
Год выпуска: Apr 17, 2006
Страна-производитель диска: Norway
Издатель (лейбл): Atlantic Records U.K. / Warner Music U.K.
№ Каталога: 2564632775
Продолжительность: 00:18:47

01 Be With You 5:35
02 My Darling Curse 4:27
03 The Pacemaker 5:02
04 Nothing Hurts Now 3:45
 
Exact Audio Copy V0.99 prebeta 4 from 23. January 2008
EAC extraction logfile from 17. May 2008, 13:27
Magnet / Dreamfall - The Longest Journey Soundtrack EP
Used drive : PBDS DVD+-RW DH-16W1S Adapter: 2 ID: 1
Read mode : Secure
Utilize accurate stream : Yes
Defeat audio cache : Yes
Make use of C2 pointers : No
Read offset correction : 6
Overread into Lead-In and Lead-Out : No
Fill up missing offset samples with silence : Yes
Delete leading and trailing silent blocks : No
Null samples used in CRC calculations : Yes
Used interface : Native Win32 interface for Win NT & 2000
Gap handling : Appended to previous track
Used output format : User Defined Encoder
Selected bitrate : 1024 kBit/s
Quality : High
Add ID3 tag : No
Command line compressor : C:\Program Files\Exact Audio Copy\Flac\flac.exe
Additional command line options : -8 -A tukey(0.25) -A gauss(0.1875) -b 4096 -V -T "artist=%a" -T "title=%t" -T "album=%g" -T "date=%y" -T "tracknumber=%n" -T "genre=%m" %s --sector-align
TOC of the extracted CD
Track | Start | Length | Start sector | End sector
---------------------------------------------------------
1 | 0:00.00 | 5:34.42 | 0 | 25091
2 | 5:34.42 | 4:26.52 | 25092 | 45093
3 | 10:01.19 | 5:01.45 | 45094 | 67713
4 | 15:02.64 | 3:44.53 | 67714 | 84566
Track 1
Filename C:\Documents and Settings\Sean\Desktop\Magnet - Dreamfall EP\Magnet - 01 - Be with you.wav
Pre-gap length 0:00:02.00
Peak level 99.8 %
Track quality 100.0 %
Test CRC CCB0BE73
Copy CRC CCB0BE73
Copy OK
Track 2
Filename C:\Documents and Settings\Sean\Desktop\Magnet - Dreamfall EP\Magnet - 02 - My darling curse.wav
Pre-gap length 0:00:00.56
Peak level 99.8 %
Track quality 100.0 %
Test CRC 35C3A1A2
Copy CRC 35C3A1A2
Copy OK
Track 3
Filename C:\Documents and Settings\Sean\Desktop\Magnet - Dreamfall EP\Magnet - 03 - The pacemaker.wav
Pre-gap length 0:00:01.54
Peak level 99.8 %
Track quality 100.0 %
Test CRC 7DDD3137
Copy CRC 7DDD3137
Copy OK
Track 4
Filename C:\Documents and Settings\Sean\Desktop\Magnet - Dreamfall EP\Magnet - 04 - Nothing hurts now.wav
Peak level 99.8 %
Track quality 100.0 %
Test CRC 22CDFF4A
Copy CRC 22CDFF4A
Copy OK
No errors occurred
End of status report
Композиторы: Leon Willett (01-16), а также Simon Poole (17-18), Slipperhero (19), Octavcat (20), Ingvild Hasund (21), Morten Sorlie (22)
Год выпуска: Jun 02, 2006
Страна-производитель диска: Norway
Издатель (лейбл): Funcom
№ Каталога: 11571-1CDA
Продолжительность: 01:08:34

01 Dreamfall Theme 2:40
02 The Hospital Room 2:23
03 Casablanca 3:42
04 Jiva 2:25
05 Reza's Apartment 3:50
06 Northlands Forest 3:13
07 Newport 3:00
08 The Underground City 2:40
09 Marcuria 2:44
10 Meeting April Ryan / April's Theme 2:22
11 Necropolis 1:49
12 Sadir 3:18
13 WATI Corp 6:04
14 The Swamplands 3:15
15 Kian's Theme 2:54
16 Zoe's Theme (Bonus Track) 1:28
17 St. Petersburg 2:00
18 The Factory 1:12
19 Lana & Maud (Edit) 2:09
20 Clay (Edit) 2:37
21 Rush 3:16
22 Faith 9:32
 
Exact Audio Copy V0.99 prebeta 4 from 23. January 2008
EAC extraction logfile from 4. July 2008, 22:59
Various / Dreamfall The Longest Journey Original Soundtrack
Used drive : HL-DT-STDVDRAM GSA-H42L Adapter: 0 ID: 0
Read mode : Secure
Utilize accurate stream : Yes
Defeat audio cache : Yes
Make use of C2 pointers : No
Read offset correction : 667
Overread into Lead-In and Lead-Out : No
Fill up missing offset samples with silence : Yes
Delete leading and trailing silent blocks : No
Null samples used in CRC calculations : Yes
Used interface : Native Win32 interface for Win NT & 2000
Gap handling : Appended to previous track
Used output format : User Defined Encoder
Selected bitrate : 768 kBit/s
Quality : High
Add ID3 tag : No
Command line compressor : C:\Program Files\Exact Audio Copy\FLAC\FLAC.EXE
Additional command line options : -V -8 -T "artist=%a" -T "title=%t" -T "album=%g" -T "date=%y" -T "tracknumber=%n" -T "genre=%m" %s
TOC of the extracted CD
Track | Start | Length | Start sector | End sector
---------------------------------------------------------
1 | 0:00.00 | 2:39.51 | 0 | 11975
2 | 2:39.51 | 2:23.12 | 11976 | 22712
3 | 5:02.63 | 3:41.38 | 22713 | 39325
4 | 8:44.26 | 2:25.09 | 39326 | 50209
5 | 11:09.35 | 3:49.39 | 50210 | 67423
6 | 14:58.74 | 3:13.15 | 67424 | 81913
7 | 18:12.14 | 2:59.55 | 81914 | 95393
8 | 21:11.69 | 2:40.24 | 95394 | 107417
9 | 23:52.18 | 2:44.05 | 107418 | 119722
10 | 26:36.23 | 2:22.31 | 119723 | 130403
11 | 28:58.54 | 1:49.27 | 130404 | 138605
12 | 30:48.06 | 3:17.57 | 138606 | 153437
13 | 34:05.63 | 6:04.06 | 153438 | 180743
14 | 40:09.69 | 3:15.12 | 180744 | 195380
15 | 43:25.06 | 2:54.17 | 195381 | 208447
16 | 46:19.23 | 1:28.35 | 208448 | 215082
17 | 47:47.58 | 1:59.72 | 215083 | 224079
18 | 49:47.55 | 1:12.30 | 224080 | 229509
19 | 51:00.10 | 2:09.06 | 229510 | 239190
20 | 53:09.16 | 2:36.65 | 239191 | 250955
21 | 55:46.06 | 3:16.17 | 250956 | 265672
22 | 59:02.23 | 9:31.67 | 265673 | 308564
Track 1
Filename C:\EAC Rips\Dreamfall The Longest Journey Original Soundtrack - 2006\01 - Leon Willett - Dreamfall Theme.wav
Pre-gap length 0:00:02.00
Peak level 97.7 %
Track quality 100.0 %
Test CRC C97C228E
Copy CRC C97C228E
Accurately ripped (confidence 3) [021A8B80]
Copy OK
Track 2
Filename C:\EAC Rips\Dreamfall The Longest Journey Original Soundtrack - 2006\02 - Leon Willett - The Hospital Room.wav
Peak level 49.7 %
Track quality 100.0 %
Test CRC BFC152F0
Copy CRC BFC152F0
Accurately ripped (confidence 3) [C4E6B6FE]
Copy OK
Track 3
Filename C:\EAC Rips\Dreamfall The Longest Journey Original Soundtrack - 2006\03 - Leon Willett - Casablanca.wav
Peak level 86.8 %
Track quality 99.9 %
Test CRC 99ABDA3C
Copy CRC 99ABDA3C
Accurately ripped (confidence 3) [ECE2A662]
Copy OK
Track 4
Filename C:\EAC Rips\Dreamfall The Longest Journey Original Soundtrack - 2006\04 - Leon Willett - Jiva.wav
Peak level 97.7 %
Track quality 99.9 %
Test CRC CE441CC6
Copy CRC CE441CC6
Accurately ripped (confidence 3) [0A8B1A26]
Copy OK
Track 5
Filename C:\EAC Rips\Dreamfall The Longest Journey Original Soundtrack - 2006\05 - Leon Willett - Reza's Apartment.wav
Peak level 97.7 %
Track quality 100.0 %
Test CRC A912E40A
Copy CRC A912E40A
Accurately ripped (confidence 3) [101D9AE3]
Copy OK
Track 6
Filename C:\EAC Rips\Dreamfall The Longest Journey Original Soundtrack - 2006\06 - Leon Willett - Northlands Forest.wav
Peak level 97.7 %
Track quality 100.0 %
Test CRC DD7BC38A
Copy CRC DD7BC38A
Accurately ripped (confidence 3) [4B347246]
Copy OK
Track 7
Filename C:\EAC Rips\Dreamfall The Longest Journey Original Soundtrack - 2006\07 - Leon Willett - Newport.wav
Peak level 97.7 %
Track quality 100.0 %
Test CRC D9282B04
Copy CRC D9282B04
Accurately ripped (confidence 3) [8FE71119]
Copy OK
Track 8
Filename C:\EAC Rips\Dreamfall The Longest Journey Original Soundtrack - 2006\08 - Leon Willett - The Underground City.wav
Peak level 97.7 %
Track quality 100.0 %
Test CRC 796A0F4F
Copy CRC 796A0F4F
Accurately ripped (confidence 3) [D637AEED]
Copy OK
Track 9
Filename C:\EAC Rips\Dreamfall The Longest Journey Original Soundtrack - 2006\09 - Leon Willett - Marcuria.wav
Peak level 97.7 %
Track quality 100.0 %
Test CRC 4CEEAECB
Copy CRC 4CEEAECB
Accurately ripped (confidence 3) [573E2B81]
Copy OK
Track 10
Filename C:\EAC Rips\Dreamfall The Longest Journey Original Soundtrack - 2006\10 - Leon Willett - Meeting April Ryan,April's Theme.wav
Peak level 38.9 %
Track quality 100.0 %
Test CRC B80048B4
Copy CRC B80048B4
Accurately ripped (confidence 3) [E8D15ADA]
Copy OK
Track 11
Filename C:\EAC Rips\Dreamfall The Longest Journey Original Soundtrack - 2006\11 - Leon Willett - Necropolis.wav
Peak level 97.7 %
Track quality 100.0 %
Test CRC E81C85EA
Copy CRC E81C85EA
Accurately ripped (confidence 3) [DD0E1707]
Copy OK
Track 12
Filename C:\EAC Rips\Dreamfall The Longest Journey Original Soundtrack - 2006\12 - Leon Willett - Sadir.wav
Peak level 97.7 %
Track quality 100.0 %
Test CRC 2D64C9BE
Copy CRC 2D64C9BE
Accurately ripped (confidence 3) [68AF9111]
Copy OK
Track 13
Filename C:\EAC Rips\Dreamfall The Longest Journey Original Soundtrack - 2006\13 - Leon Willett - WATI Corp.wav
Peak level 97.7 %
Track quality 100.0 %
Test CRC B109F0E5
Copy CRC B109F0E5
Accurately ripped (confidence 3) [65F2DCCF]
Copy OK
Track 14
Filename C:\EAC Rips\Dreamfall The Longest Journey Original Soundtrack - 2006\14 - Leon Willett - The Swamplands.wav
Peak level 97.7 %
Track quality 100.0 %
Test CRC B6FB06F1
Copy CRC B6FB06F1
Accurately ripped (confidence 3) [316F7D2E]
Copy OK
Track 15
Filename C:\EAC Rips\Dreamfall The Longest Journey Original Soundtrack - 2006\15 - Leon Willett - Kian's Theme.wav
Peak level 97.7 %
Track quality 100.0 %
Test CRC 81DA38D5
Copy CRC 81DA38D5
Accurately ripped (confidence 3) [58F90338]
Copy OK
Track 16
Filename C:\EAC Rips\Dreamfall The Longest Journey Original Soundtrack - 2006\16 - Leon Willett - Zoe's Theme (bonus track).wav
Peak level 97.7 %
Track quality 100.0 %
Test CRC D878C5BB
Copy CRC D878C5BB
Accurately ripped (confidence 3) [64853055]
Copy OK
Track 17
Filename C:\EAC Rips\Dreamfall The Longest Journey Original Soundtrack - 2006\17 - Simon Poole - St. Petersburg.wav
Peak level 70.2 %
Track quality 100.0 %
Test CRC 6DED00A5
Copy CRC 6DED00A5
Accurately ripped (confidence 3) [F2E75EBB]
Copy OK
Track 18
Filename C:\EAC Rips\Dreamfall The Longest Journey Original Soundtrack - 2006\18 - Simon Poole - The Factory.wav
Peak level 78.9 %
Track quality 99.8 %
Test CRC 5B7FBCB2
Copy CRC 5B7FBCB2
Accurately ripped (confidence 3) [6216215E]
Copy OK
Track 19
Filename C:\EAC Rips\Dreamfall The Longest Journey Original Soundtrack - 2006\19 - Slipperhero - Lana & Maud (edit).wav
Peak level 74.7 %
Track quality 100.0 %
Test CRC 0E5167A5
Copy CRC 0E5167A5
Accurately ripped (confidence 3) [AFB16A40]
Copy OK
Track 20
Filename C:\EAC Rips\Dreamfall The Longest Journey Original Soundtrack - 2006\20 - Octavcat - Clay (edit).wav
Peak level 73.0 %
Track quality 100.0 %
Test CRC C61D8B7D
Copy CRC C61D8B7D
Accurately ripped (confidence 3) [7E9F2F20]
Copy OK
Track 21
Filename C:\EAC Rips\Dreamfall The Longest Journey Original Soundtrack - 2006\21 - Ingvild Hasund - Rush.wav
Peak level 74.2 %
Track quality 99.9 %
Test CRC BDF9B1E4
Copy CRC BDF9B1E4
Accurately ripped (confidence 3) [5B0A7ABB]
Copy OK
Track 22
Filename C:\EAC Rips\Dreamfall The Longest Journey Original Soundtrack - 2006\22 - Morten Sorlie - Faith.wav
Peak level 86.7 %
Track quality 100.0 %
Test CRC 2806F0E5
Copy CRC 2806F0E5
Accurately ripped (confidence 3) [88158B03]
Copy OK
All tracks accurately ripped
No errors occurred
End of status report
Композитор: Simon Poole
Год выпуска: Jul 07, 2016
Издатель (лейбл): Simon Poole (distributed by Bandcamp)
№ Каталога: N/A
Продолжительность: 01:53:51

Разрядность: 24/44,1 (1-14); 16/44,1 (15-48)

01. House of All Worlds (02:27)
02. Reborn (02:02)
03. Prologue (02:59)
04. Return to the Hospital Room (02:16)
05. Storytime (01:18)
06. Storytime Conversations (06:38)
07. The Azadi (01:37)
08. A Song for Kian (01:13)
09. Friar's Keep (04:28)
10. Therapy (02:12)
11. Europolis (03:26)
12. Saga (01:58)
13. Announcement Trailer (02:43)
14. A Room with a View (01:55)
15. Rebels (01:35)
16. Fever dreams (02:17)
17. The Enclave (02:34)
18. Marcuria by Night (03:43)
19. The Raid (00:46)
20. Abnaxus (01:37)
21. Propast Blowback (05:22)
22. Realms (01:13)
23. Through the Looking Glass (00:42)
24. Southwards (01:56)
25. The Yaga (04:27)
26. Attack on the Enclave (02:03)
27. Revelations (01:16)
28. The Purple Mountains (02:49)
29. Bird on a Search (01:15)
30. The Void (02:20)
31. A farewell to Wonkers (01:42)
32. The Prophet (02:14)
33. Morning in Marcuria (01:52)
34. The Dream Vortex (03:20)
35. Mumbai Underground (05:37)
36. The Ceremony Begins (01:11)
37. Breaking Point (01:03)
38. Night Falls on Marcuria (03:43)
39. The Undreaming Is Unchained (02:17)
40. Shifts (00:53)
41. Dreaming Shards (03:08)
42. The Longest Journey Home (02:24)
43. Rebel-rousing (02:28)
44. Payback (01:01)
45. Dreaming and Undreaming (01:30)
46. Rush Redux (02:32)
47. Journey's End (02:23)
48. End Titles (01:26)
 
foobar2000 1.3.9 / Замер динамического диапазона (DR) 1.1.1
Дата отчёта: 2016-10-19 04:08:34
--------------------------------------------------------------------------------
Анализ: Simon Poole / Dreamfall Chapters
--------------------------------------------------------------------------------
DR Пики RMS Продолжительность трека
--------------------------------------------------------------------------------
DR15 -7.46 дБ -30.26 дБ 2:27 01-House of All Worlds
DR11 -0.30 дБ -15.06 дБ 2:02 02-Reborn
DR11 -2.29 дБ -20.16 дБ 2:59 03-Prologue
DR10 -2.55 дБ -17.01 дБ 2:16 04-Return to the Hospital Room
DR9 -7.57 дБ -21.23 дБ 1:18 05-Storytime
DR13 -4.69 дБ -23.11 дБ 6:38 06-Storytime Conversations
DR10 -2.30 дБ -17.00 дБ 1:37 07-The Azadi
DR12 -4.45 дБ -21.85 дБ 1:13 08-A Song for Kian
DR11 -0.60 дБ -17.55 дБ 4:28 09-Friar's Keep
DR10 -8.57 дБ -24.10 дБ 2:12 10-Therapy
DR12 -1.44 дБ -17.51 дБ 3:26 11-Europolis
DR12 -4.58 дБ -19.41 дБ 1:58 12-Saga
DR8 -0.44 дБ -13.24 дБ 2:43 13-Announcement Trailer
--------------------------------------------------------------------------------
Количество треков: 13
Реальные значения DR: DR11
Частота: 44100 Гц
Каналов: 2
Разрядность: 24
Битрейт: 746 кбит/с
Кодек: FLAC
================================================================================
--------------------------------------------------------------------------------
Анализ: Simon Poole / Dreamfall Chapters
--------------------------------------------------------------------------------
DR Пики RMS Продолжительность трека
--------------------------------------------------------------------------------
DR11 -8.18 дБ -23.76 дБ 1:55 14-A Room with a View
DR10 -1.15 дБ -15.59 дБ 1:35 15-Rebels
DR14 -3.67 дБ -23.46 дБ 2:17 16-Fever dreams
DR15 -3.21 дБ -24.38 дБ 2:34 17-The Enclave
DR12 -7.56 дБ -23.89 дБ 3:43 18-Marcuria by Night
DR10 -3.83 дБ -17.29 дБ 0:46 19-The Raid
DR11 -14.80 дБ -31.18 дБ 1:37 20-Abnaxus
DR13 -0.20 дБ -16.76 дБ 5:22 21-Propast Blowback
DR11 -2.84 дБ -20.87 дБ 1:13 22-Realms
DR10 -3.81 дБ -21.67 дБ 0:42 23-Through the Looking Glass
DR14 -0.46 дБ -19.14 дБ 1:56 24-Southwards
DR12 -0.20 дБ -16.74 дБ 4:27 25-The Yaga
DR12 -3.61 дБ -18.54 дБ 2:03 26-Attack on the Enclave
DR11 -0.20 дБ -16.15 дБ 1:16 27-Revelations
DR11 -11.57 дБ -28.38 дБ 2:49 28-The Purple Mountains
DR12 -0.66 дБ -17.56 дБ 1:15 29-Bird on a Search
DR13 -2.75 дБ -22.38 дБ 2:20 30-The Void
DR12 -9.11 дБ -27.29 дБ 1:42 31-A farewell to Wonkers
DR14 -0.20 дБ -19.01 дБ 2:14 32-The Prophet
DR14 -1.08 дБ -20.82 дБ 1:52 33-Morning in Marcuria
DR12 -0.51 дБ -16.52 дБ 3:20 34-The Dream Vortex
DR16 -1.20 дБ -19.46 дБ 5:37 35-Mumbai Underground
DR11 -0.20 дБ -15.29 дБ 1:11 36-The Ceremony Begins
DR15 -0.20 дБ -20.87 дБ 1:03 37-Breaking Point
DR12 -6.71 дБ -22.96 дБ 3:43 38-Night Falls on Marcuria
DR13 -0.20 дБ -16.24 дБ 2:17 39-The Undreaming Is Unchained
DR13 -1.62 дБ -22.64 дБ 0:53 40-Shifts
DR10 -12.49 дБ -24.91 дБ 3:08 41-Dreaming Shards
DR13 -9.42 дБ -25.35 дБ 2:24 42-The Longest Journey Home
DR12 -1.10 дБ -19.52 дБ 2:28 43-Rebel-rousing
DR10 -0.20 дБ -21.04 дБ 1:01 44-Payback
DR12 -0.20 дБ -16.47 дБ 1:30 45-Dreaming and Undreaming
DR9 -6.25 дБ -19.16 дБ 2:32 46-Rush Redux
DR14 -9.46 дБ -28.64 дБ 2:23 47-Journey's End
DR13 -4.15 дБ -23.02 дБ 1:26 48-End Titles
--------------------------------------------------------------------------------
Количество треков: 35
Реальные значения DR: DR12
Частота: 44100 Гц
Каналов: 2
Разрядность: 16
Битрейт: 653 кбит/с
Кодек: FLAC
================================================================================

info [Профиль]  [ЛС] 

Hobbit38

Пол: Пол:Муж

Стаж: 4 года 7 месяцев

Сообщений: 761

Предупреждений: 1

Россия
Рейтинг

post 16-Фев-2018 14:30 (спустя 1 месяц 29 дней) [-]0[+]

[Цитировать] 

Обновление:
  • Замена на image+.cue.
info [Профиль]  [ЛС] 

post 22-Фев-2018 00:00 (спустя 5 дней) [-]0[+]

Топик был перенесен из форума Саундтреки к играм (lossless) в форум Архив (Саундтреки)

The Buzzhorn
 
Показать сообщения:    
Ответить на тему

Текущее время: 13-Дек 00:06

Часовой пояс: GMT + 4



Вы не можете начинать темы
Вы не можете отвечать на сообщения
Вы не можете редактировать свои сообщения
Вы не можете удалять свои сообщения
Вы не можете голосовать в опросах
Вы не можете прикреплять файлы к сообщениям
Вы не можете скачивать файлы