Ошибка

Орган геноцида / Gyakusatsu Kikan [Movie] [2017] [приключения, фантастика, психологическое] [BDRip] [1080p] [Субтитры (JAP)]

Ответить на тему
 
Автор Сообщение

anoningen

Стаж: 4 года 8 месяцев

Сообщений: 584

Самоа
Рейтинг

post 14-Дек-2017 21:38 2[+]

[Цитировать] 

Орган геноцида
Genocidal Organ
Gyakusatsu Kikan | 虐殺器官

Год выпуска:
2017 г.
Тип: Полнометражный фильм
Жанр: приключения, фантастика, психологическое
Режиссер: Мурасэ Сюко
Автор оригинала: Ито Кэйкаку
Студия:
Продолжительность: 115 мин.
Русские субтитры: ASS, внешним файлом
Переводчик: Ивашков Егор

Описание: Разразилась война с террором. Буквально за день Сараево было уничтожено самодельным ядерным устройством. Ведущие демократические государства превращаются в государства тотального надзора и развивающийся мир захлебывается под волной геноцида. Похоже, за разрушением мировой системы стоит таинственный американец Джон Пол. На агента разведки Клэвиса Шепхерда возложена задача выследить в руинах цивилизации Джона Пола и найти истинное сердце тьмы — орган геноцида.
Автор рипа: Ohys-Raws
Качество: BDRip
Формат видео: MPEG-4
Видео: AVC, 8 бит, 1920x1080; 23.976 кадра/сек; 4425 Кбит/сек, (16:9)
Аудио: FLAC, 48,0 КГц, переменный ~1368 Кбит/сек, 2 канала
Общее
Уникальный идентификатор : 204322349537003527239716850572642695961 (0x99B70D99CD64687F9993121398233B19)
Полное имя : G:\Anime\Gyakusatsu Kikan\[Ohys-Raws] Gyakusatsu Kikan (BD 1920x1080 x264 FLAC).mkv
Формат : Matroska
Версия формата : Version 2
Размер файла : 4,64 Гбайт
Продолжительность : 1 ч. 54 м.
Режим общего битрейта : Переменный
Общий поток : 5794 Кбит/сек
Дата кодирования : UTC 2017-10-28 06:51:44
Программа кодирования : mkvmerge v8.3.0 ('Over the Horizon') 32bit
Библиотека кодирования : libebml v1.3.1 + libmatroska v1.4.2

Видео
Идентификатор : 1
Формат : AVC
Формат/Информация : Advanced Video Codec
Профиль формата : Main@L4.1
Параметр CABAC формата : Да
Параметр ReFrames формата : 4 кадра
Идентификатор кодека : V_MPEG4/ISO/AVC
Продолжительность : 1 ч. 54 м.
Битрейт : 4425 Кбит/сек
Ширина : 1920 пикселей
Высота : 1080 пикселей
Соотношение сторон : 16:9
Режим частоты кадров : Постоянный
Частота кадров : 23,976 (24000/1001) кадра/сек
Цветовое пространство : YUV
Субдискретизация насыщенности : 4:2:0
Битовая глубина : 8 бит
Тип развёртки : Прогрессивная
Бит/(Пиксели*Кадры) : 0.089
Размер потока : 3,54 Гбайт (76%)
Библиотека кодирования : x264 core 152 r2851+58 429492e t_mod_Custom [8-bit@all X86_64]
Настройки программы : cabac=1 / ref=3 / deblock=1:0:0 / analyse=0x1:0x131 / me=umh / subme=9 / psy=1 / fade_compensate=0.00 / psy_rd=1.00:0.00 / mixed_ref=1 / me_range=32 / chroma_me=1 / trellis=1 / 8x8dct=0 / cqm=0 / deadzone=21,11 / fast_pskip=1 / chroma_qp_offset=-2 / threads=18 / lookahead_threads=1 / sliced_threads=0 / nr=0 / decimate=1 / interlaced=0 / bluray_compat=0 / constrained_intra=0 / fgo=0 / bframes=3 / b_pyramid=2 / b_adapt=1 / b_bias=0 / direct=1 / weightb=1 / open_gop=0 / weightp=2 / keyint=240 / keyint_min=1 / scenecut=40 / intra_refresh=0 / rc_lookahead=40 / rc=crf / mbtree=1 / crf=18.0000 / qcomp=0.60 / qpmin=0:0:0 / qpmax=69:69:69 / qpstep=4 / ip_ratio=1.40 / aq=1:1.00 / aq-sensitivity=10.00 / aq-factor=1.00:1.00:1.00 / aq2=0 / aq3=0
Default : Да
Forced : Нет

Аудио
Идентификатор : 2
Формат : FLAC
Формат/Информация : Free Lossless Audio Codec
Идентификатор кодека : A_FLAC
Продолжительность : 1 ч. 54 м.
Вид битрейта : Переменный
Битрейт : 1368 Кбит/сек
Каналы : 2 канала
Расположение каналов : Front: L R
Частота : 48,0 КГц
Частота кадров : 11,719 кадров/сек (4096 spf)
Битовая глубина : 24 бит
Размер потока : 1,09 Гбайт (24%)
Библиотека кодирования : libFLAC 1.3.0 (UTC 2013-05-26)
Язык : Japanese
Default : Да
Forced : Нет
info [Профиль]  [ЛС] 

klimancev

Пол: Пол:Муж

Стаж: 5 лет

Сообщений: 12

Россия
Рейтинг

post 15-Дек-2017 18:13 (спустя 20 часов) [-]0[+]

[Цитировать] 

и где раздающий?
info [Профиль]  [ЛС] 

БАБА МАША

Пол: Пол:Муж

Стаж: 7 лет 9 месяцев

Сообщений: 45

Россия
Рейтинг

post 15-Дек-2017 18:34 (спустя 20 минут) [-]-2[+]

[Цитировать] 

а перевод ожидается?хотябы любительский
info [Профиль]  [ЛС] 

Ashwannam

Пол: Пол:Муж

Стаж: 4 года 3 месяца

Сообщений: 2

СССР
Рейтинг

post 15-Дек-2017 18:43 (спустя 9 минут) [-]-1[+]

[Цитировать] 

Поддайте огня, товарищи! Совсем не тянет..
info [Профиль]  [ЛС] 

minimalzka

Пол: Пол:Муж

Стаж: 5 лет 2 месяца

Сообщений: 324

Россия
Рейтинг

post 15-Дек-2017 18:50 (спустя 6 минут) [-]0[+]

[Цитировать] 

Дикретный источник =))))))))))

_________________
info [Профиль]  [ЛС] 

anoningen

Стаж: 4 года 8 месяцев

Сообщений: 584

Самоа
Рейтинг

post 15-Дек-2017 23:31 (спустя 4 часа) [-]0[+]

[Цитировать] 

klimancev
Раздающий был на работе kolob_102 теперь пришёл и раздаёт kolob_118
БАБА МАША
Не только ожидается, но и уже имеется в раздаче в виде субтитров, а если интересует озвучка, то она существует как минимум за авторством группы AniStar где-то на просторах интернета.
info [Профиль]  [ЛС] 
Показать сообщения:    
Ответить на тему

Текущее время: 17-Янв 19:04

Часовой пояс: GMT + 4



Вы не можете начинать темы
Вы не можете отвечать на сообщения
Вы не можете редактировать свои сообщения
Вы не можете удалять свои сообщения
Вы не можете голосовать в опросах
Вы не можете прикреплять файлы к сообщениям
Вы не можете скачивать файлы