Ошибка

Стань легендой! Бигфут Младший / The Son of Bigfoot (Жереми Дегрусон, Бен Стассен) [2017, мультфильм, фэнтези, комедия, семейный, BDRip 720p]

Ответить на тему
 
Автор Сообщение

BZzz

Пол: Пол:Муж

Стаж: 6 лет 2 месяца

Сообщений: 3947

Россия
Рейтинг

post 14-Дек-2017 01:17 0[+]

[Цитировать] 

Стань легендой! Бигфут Младший / The Son of Bigfoot
-




Год выпуска: 2017
Страна: Франция , Бельгия
Жанр: мультфильм, фэнтези, комедия, семейный
Продолжительность: 01:32:15
Перевод: Профессиональный (дублированный)[цифровая лицензия iTunes]

Режиссер: Жереми Дегрусон, Бен Стассен

В ролях: Синда Адамс☆Cinda Adams (Secretary / Waitress, озвучка), Джордж Бэббит☆George Babbit (Truck Driver, озвучка), Лайла Берзиньш☆Laila Berzins (Weecha / 911 Operator, озвучка), Джои Камен☆Joey Camen (Principal Jones, озвучка), Джефф Дусетте☆Jeff Doucette (Fat Dan / Tim / Tech Support Operator, озвучка), Дэвид Эпштейн☆David Epstein (Charlie, озвучка), Паппи Фолкнер☆Pappy Faulkner (Adam, озвучка), Сэнди Фокс☆Sandy Fox (Tina, озвучка), Кайл Хеберт☆Kyle Hebert (Simpson, озвучка), Мариев Херингтон☆Marieve Herington (Shelly, озвучка)


Описание: Обычный подросток по имени Адам отправляется на поиски своего давно пропавшего отца и попадает в приключение мифических масштабов. Его мир переворачивается вверх дном, когда оказывается, что в нем течет кровь последних легендарных хранителей леса — бигфутов. Теперь ему открыты такие способности как суперскорость, живительное прикосновение и возможность понимать язык животных.

Бюджет: $30 000 000
Сборы в России: $2 301 326



Качество: BDRip 720p
Формат: MKV
Видео кодек: AVC
Аудио кодек: AC3
Видео: 1280x720 (16:9), 23.976 fps, High@L4.1, 4 319 Kbps
Аудио #1: Rus AC3, 384 Kbps, 48.0 KHz, 6 ch
Аудио #2: Eng DTS, 1 510 Kbps, 48.0 KHz, 6 ch
General
Unique ID : 246676561381839330384594508087240902711 (0xB9942D7822C0635FBAD9440EDB574837)
Complete name : BeegFoot.2017.D.BDRip.720p.mkv
Format : Matroska
Format version : Version 2
File size : 4.00 GiB
Duration : 1h 32mn
Overall bit rate : 6 214 Kbps
Encoded date : UTC 2017-12-13 19:22:45
Writing application : mkvmerge v8.3.0 ('Over the Horizon') 64bit
Writing library : libebml v1.3.1 + libmatroska v1.4.2

Video
ID : 1
Format : AVC
Format/Info : Advanced Video Codec
Format profile : High@L4.1
Format settings, CABAC : Yes
Format settings, ReFrames : 5 frames
Codec ID : V_MPEG4/ISO/AVC
Duration : 1h 32mn
Bit rate : 4 319 Kbps
Width : 1 280 pixels
Height : 720 pixels
Display aspect ratio : 16:9
Frame rate mode : Constant
Frame rate : 23.976 fps
Color space : YUV
Chroma subsampling : 4:2:0
Bit depth : 8 bits
Scan type : Progressive
Bits/(Pixel*Frame) : 0.195
Stream size : 2.70 GiB (68%)
Writing library : x264 core 148 r2744 b97ae06
Encoding settings : cabac=1 / ref=5 / deblock=1:0:0 / analyse=0x3:0x113 / me=hex / subme=8 / psy=1 / psy_rd=1.00:0.00 / mixed_ref=1 / me_range=16 / chroma_me=1 / trellis=2 / 8x8dct=1 / cqm=0 / deadzone=21,11 / fast_pskip=1 / chroma_qp_offset=-2 / threads=12 / lookahead_threads=2 / sliced_threads=0 / nr=0 / decimate=1 / interlaced=0 / bluray_compat=0 / constrained_intra=0 / bframes=3 / b_pyramid=2 / b_adapt=1 / b_bias=0 / direct=3 / weightb=1 / open_gop=0 / weightp=2 / keyint=240 / keyint_min=23 / scenecut=40 / intra_refresh=0 / rc_lookahead=50 / rc=2pass / mbtree=1 / bitrate=4319 / ratetol=1.0 / qcomp=0.60 / qpmin=0 / qpmax=69 / qpstep=4 / cplxblur=20.0 / qblur=0.5 / vbv_maxrate=62500 / vbv_bufsize=78125 / nal_hrd=none / filler=0 / ip_ratio=1.40 / aq=1:1.00
Default : Yes
Forced : No

Audio #1
ID : 2
Format : AC-3
Format/Info : Audio Coding 3
Mode extension : CM (complete main)
Format settings, Endianness : Big
Codec ID : A_AC3
Duration : 1h 32mn
Bit rate mode : Constant
Bit rate : 384 Kbps
Channel(s) : 6 channels
Channel positions : Front: L C R, Side: L R, LFE
Sampling rate : 48.0 KHz
Bit depth : 16 bits
Compression mode : Lossy
Stream size : 253 MiB (6%)
Language : Russian
Default : Yes
Forced : No

Audio #2
ID : 3
Format : DTS
Format/Info : Digital Theater Systems
Codec ID : A_DTS
Duration : 1h 32mn
Bit rate mode : Constant
Bit rate : 1 510 Kbps
Channel(s) : 6 channels
Channel positions : Front: L C R, Side: L R, LFE
Sampling rate : 48.0 KHz
Bit depth : 24 bits
Compression mode : Lossy
Stream size : 996 MiB (24%)
Language : English
Default : No
Forced : No

Menu
00:00:00.000 : en:00:00:00.000
00:07:24.194 : en:00:07:24.194
00:14:53.768 : en:00:14:53.768
00:22:11.789 : en:00:22:11.789
00:30:27.492 : en:00:30:27.492
00:39:25.613 : en:00:39:25.613
00:48:17.269 : en:00:48:17.269
00:55:43.674 : en:00:55:43.674
01:02:39.130 : en:01:02:39.130
01:11:40.213 : en:01:11:40.213
01:20:37.082 : en:01:20:37.082
01:27:56.521 : en:01:27:56.521
info [Профиль]  [ЛС] 
Показать сообщения:    
Ответить на тему

Текущее время: 16-Янв 15:18

Часовой пояс: GMT + 4



Вы не можете начинать темы
Вы не можете отвечать на сообщения
Вы не можете редактировать свои сообщения
Вы не можете удалять свои сообщения
Вы не можете голосовать в опросах
Вы не можете прикреплять файлы к сообщениям
Вы не можете скачивать файлы