Ошибка

Маленький вампир / The Little Vampire (Рихард Клаус, Карстен Килерих) [2017, мультфильм, ужасы, фэнтези, комедия, приключения, семейный, WEB-DL 1080p]

Ответить на тему
 
Автор Сообщение

BZzz

Пол: Пол:Муж

Стаж: 6 лет 2 месяца

Сообщений: 3947

Россия
Рейтинг

post 10-Дек-2017 17:18 0[+]

[Цитировать] 

Маленький вампир / The Little Vampire
«Путешествие с дружеским укусом!»




Год выпуска: 2017
Страна: Нидерланды , Германия , Дания , Великобритания
Жанр: мультфильм, ужасы, фэнтези, комедия, приключения, семейный
Продолжительность: 01:22:02
Перевод: Профессиональный (дублированный)[цифровая лицензия iTunes]

Режиссер: Рихард Клаус, Карстен Килерих

В ролях: Расмус Хардайкер☆Rasmus Hardiker (Rudolph Sackville-Bagg / Gregory Sackville-Bagg, озвучка), Эми Сэвилл☆Amy Saville (Tony Thompson, озвучка), Джим Картер☆Jim Carter (Rookery, озвучка), Джозеф Клоска☆Joseph Kloska (Maney, озвучка), Фиби Гиврон-Тейлор☆Phoebe Givron-Taylor (Anna Sackville-Bagg, озвучка), Тим Пиготт-Смит☆Tim Pigott-Smith (Frederick Sackville-Bagg, озвучка), Элис Крайдж☆Alice Krige (Freda Sackville-Bagg, озвучка), Джулия Родс☆Julia Rhodes (Dottie Thompson, озвучка), Кевин Отто☆Kevin Otto (Bob Thompson, озвучка), Дайан Уилсон☆Diane Wilson (Emma / Aunt Ashley, озвучка)


Описание: Это история о маленьком вампире Рудольфе — тринадцатилетнем мальчике, чью семью преследует злостный охотник на вампиров. Однажды Рудольф встречает обычного мальчика, Тони, своего сверстника. Тони без ума от старинных замков и страшных историй про вампиров, поэтому он не раздумывая предлагает Рудольфу свою помощь. Теперь эту парочку ждут весёлые и невероятные приключения и противостояние с охотником на вампиров.

Бюджет: $10 000 000
Сборы в России: $793 948



Качество: WEB-DL 1080p
Формат: MKV
Видео кодек: AVC
Аудио кодек: AC3
Видео: 1920x808 (2.40:1), 24.000 fps, High@L4.0, 4 449 Kbps
Аудио #1: AC3, 384 Kbps, 48.0 KHz, 6 ch

» Джим Картер и Элис Крайдж озвучивают тех же героев, которых играли в одноимённом фильме Ули Эделя 2000 года.
General
Unique ID : 230854484404570910991993789810771618499 (0xADACF4D8AAE2572AB91CB1373F4DEAC3)
Complete name : Malenkiy.Vampir.2017.D.WEB-DL.1080p.mkv
Format : Matroska
Format version : Version 2
File size : 2.83 GiB
Duration : 1h 22mn
Overall bit rate : 4 931 Kbps
Movie name : Rustorrents
Encoded date : UTC 2017-12-10 09:00:46
Writing application : mkvmerge v7.8.0 ('River Man') 32bit built on Apr 3 2015 12:11:22
Writing library : libebml v1.3.1 + libmatroska v1.4.2

Video
ID : 1
Format : AVC
Format/Info : Advanced Video Codec
Format profile : High@L4.0
Format settings, CABAC : Yes
Format settings, ReFrames : 5 frames
Codec ID : V_MPEG4/ISO/AVC
Duration : 1h 22mn
Bit rate : 4 449 Kbps
Width : 1 920 pixels
Height : 808 pixels
Display aspect ratio : 2.40:1
Frame rate mode : Constant
Frame rate : 24.000 fps
Color space : YUV
Chroma subsampling : 4:2:0
Bit depth : 8 bits
Scan type : Progressive
Bits/(Pixel*Frame) : 0.119
Stream size : 2.55 GiB (90%)
Language : English
Default : Yes
Forced : No
Color primaries : BT.709
Transfer characteristics : BT.709
Matrix coefficients : BT.709

Audio
ID : 2
Format : AC-3
Format/Info : Audio Coding 3
Mode extension : CM (complete main)
Format settings, Endianness : Big
Codec ID : A_AC3
Duration : 1h 22mn
Bit rate mode : Constant
Bit rate : 384 Kbps
Channel(s) : 6 channels
Channel positions : Front: L C R, Side: L R, LFE
Sampling rate : 48.0 KHz
Bit depth : 16 bits
Compression mode : Lossy
Stream size : 225 MiB (8%)
Title : iTunes
Language : Russian
Default : Yes
Forced : Yes

Menu
00:00:00.000 : en:Глава 1
00:06:28.416 : en:Глава 2
00:12:53.957 : en:Глава 3
00:19:29.373 : en:Глава 4
00:25:47.413 : en:Глава 5
00:32:50.703 : en:Глава 6
00:39:08.911 : en:Глава 7
00:43:46.161 : en:Глава 8
00:49:47.077 : en:Глава 9
00:57:08.243 : en:Глава 10
01:00:46.284 : en:Глава 11
01:07:20.659 : en:Глава 12
01:13:07.283 : en:Глава 13
info [Профиль]  [ЛС] 

iaiagoda

Пол: Пол:Муж

Стаж: 1 год 10 месяцев

Сообщений: 12

Россия
Рейтинг

post 10-Дек-2017 20:17 (спустя 2 часа 58 минут) [-]0[+]

[Цитировать] 

мультфильм, ужасы, фэнтези, комедия, приключения, семейный - Какой слово лишнее?

_________________
Кто здесь?
info [Профиль]  [ЛС] 

DENZEL519

Пол: Пол:Муж

Стаж: 6 лет 6 месяцев

Сообщений: 1391

СССР
Рейтинг

post 10-Дек-2017 22:57 (спустя 2 часа 40 минут) [-]7[+]

[Цитировать] 

iaiagoda писал(а):

мультфильм, ужасы, фэнтези, комедия, приключения, семейный - Какой слово лишнее?
Слово какой, так как нужно писать какое kolob_107
info [Профиль]  [ЛС] 

Shliapnik

Пол: Пол:Муж

Стаж: 8 лет 3 месяца

Сообщений: 17

Россия
Рейтинг

post 11-Дек-2017 05:32 (спустя 6 часов) [-]3[+]

[Цитировать] 

Вот сколько раз ему говорили, не играть с едой kolob_107
info [Профиль]  [ЛС] 

iaiagoda

Пол: Пол:Муж

Стаж: 1 год 10 месяцев

Сообщений: 12

Россия
Рейтинг

post 11-Дек-2017 17:30 (спустя 11 часов) [-]0[+]

[Цитировать] 

DENZEL519 писал(а):

iaiagoda писал(а):

мультфильм, ужасы, фэнтези, комедия, приключения, семейный - Какой слово лишнее?
Слово какой, так как нужно писать какое kolob_107
Вопрос просто иначе хотел задать.. сразу же подзатыльник kolob_122

_________________
Кто здесь?
info [Профиль]  [ЛС] 

Sagara17

Пол: Пол:Муж

Стаж: 7 лет 4 месяца

Сообщений: 9

Россия
Рейтинг

post 12-Дек-2017 19:30 (спустя 1 день 1 час) [-]0[+]

[Цитировать] 

iaiagoda писал(а):

DENZEL519 писал(а):

iaiagoda писал(а):

мультфильм, ужасы, фэнтези, комедия, приключения, семейный - Какой слово лишнее?
Слово какой, так как нужно писать какое kolob_107
Вопрос просто иначе хотел задать.. сразу же подзатыльник kolob_122
Так и выспитываем.
info [Профиль]  [ЛС] 

tarh_tarahych

Стаж: 5 лет 8 месяцев

Сообщений: 10

Рейтинг

post 13-Дек-2017 06:31 (спустя 11 часов) [-]0[+]

[Цитировать] 

очередная зомбовка детской психики о том что только не традиционные хорошо пусть и зло, а вот нормальные это точно отстой и не чего быть в им, стань фриком (похлеще поди заблокируют нетрадиционные модераторы))
info [Профиль]  [ЛС] 

Пир

Пол: Пол:Муж

Стаж: 6 лет 2 месяца

Сообщений: 44

Россия
Рейтинг

post 15-Дек-2017 01:30 (спустя 1 день 18 часов) [-]0[+]

[Цитировать] 

Есть же фильм такой... Семья вампиров, летающие коровы, вампиреныш в сундуке...
info [Профиль]  [ЛС] 
Показать сообщения:    
Ответить на тему

Текущее время: 16-Янв 15:29

Часовой пояс: GMT + 4



Вы не можете начинать темы
Вы не можете отвечать на сообщения
Вы не можете редактировать свои сообщения
Вы не можете удалять свои сообщения
Вы не можете голосовать в опросах
Вы не можете прикреплять файлы к сообщениям
Вы не можете скачивать файлы