Ошибка

Танцор диско / Disco Dancer (Баббар Субхаш) [1982, мюзикл, драма, мелодрама, DVDRip] DUB

Ответить на тему
 
Автор Сообщение

DENZEL519

Пол: Пол:Муж

Стаж: 6 лет 5 месяцев

Сообщений: 1140

СССР
Рейтинг

post 06-Дек-2017 08:54 2[+]

[Цитировать] 

Танцор диско / Disco Dancer
-

Год выпуска: 1982
Страна: Индия
Жанр: мюзикл, драма, мелодрама
Продолжительность: 02:14:16
Перевод: Дублированный
Субтитры: Нет
Режиссер: Баббар Субхаш
Сценарий: Др. Рахи Масум Реза, Балрадж Дипак Видж
Продюсер: Баббар Субхаш, Тилотима Б. Субхаш
Оператор: Надим Кхан
Композитор: Баппи Лахири
Художник: Марутирао В. Кейл
Монтаж: Мангеш Шаван, Шийам Гуптэ
В ролях: Митхун Чакраборти (Anil), Ким (Rita Oberoi), Калпана Айер (Nikki Brown), Ом Пури (David Brown), Гита Сиддхарт (Radha), Юсуф Хан (Vasco), Боб Кристо (International Hit-man), Мастер Чхоту (Young Anil), Бейби Пинки (Young Rita), Джанкидас (Stage Show Producer), Амарнатх Махержи (Ghulam Nabi - Stage Show Producer), Чандрашекхар (Mayor Khandelwal)



Описание: Вечный сюжет о Золушке: восхождение из ничего к вершинам славы. Джимми — бедный ребенок, выступает с дядей на улицах, зарабатывая на кусок хлеба. Однако, мирное существование семьи нарушает инцидент в доме одного богача. После этого Джимми и его мать вынуждены покинуть родной город. Проходят годы. Джимми своим трудом и талантом добивается славы. Встречает он и свою любовь. И надо же случиться, чтобы его девушка оказалась дочерью богача, оскорбившего Джимми и его мать много лет назад…


Качество: DVDRip
Формат: AVI
Видео кодек: XviD
Аудио кодек: AC3
Видео: 704x512 (1.375:1), 25.000 fps, XviD, 1 970 Kbps
Аудио: Аудио #1: AC3, 192 Kbps, 48.0 KHz, 2 ch [Rus]


Код:

General
Complete name                            : Tanzor.Disco.DVDRip.Lesnik125.avi
Format                                   : AVI
Format/Info                              : Audio Video Interleave
Format profile                           : OpenDML
File size                                : 2.04 GiB
Duration                                 : 2h 14mn
Overall bit rate                         : 2 175 Kbps
Movie name                               : Танцор Диско / Disco Dancer
Director                                 : SC Kosmos
Genre                                    : Action/Drama
Writing application                      : VirtualDubMod 1.5.10.2 (build 2540/release)
Original source form/Name                : Film
Copyright                                : 2010-05-03
Comment                                  : Rip by Lesnik125

Video
ID                                       : 0
Format                                   : MPEG-4 Visual
Format profile                           : Advanced Simple@L5
Format settings, BVOP                    : 1
Format settings, QPel                    : No
Format settings, GMC                     : No warppoints
Format settings, Matrix                  : Custom
Codec ID                                 : XVID
Codec ID/Hint                            : XviD
Duration                                 : 2h 14mn
Bit rate                                 : 1 970 Kbps
Width                                    : 704 pixels
Height                                   : 512 pixels
Display aspect ratio                     : 1.375
Frame rate                               : 25.000 fps
Color space                              : YUV
Chroma subsampling                       : 4:2:0
Bit depth                                : 8 bits
Scan type                                : Progressive
Compression mode                         : Lossy
Bits/(Pixel*Frame)                       : 0.219
Stream size                              : 1.85 GiB (91%)
Writing library                          : XviD 1.2.1 (UTC 2008-12-04)

Audio
ID                                       : 1
Format                                   : AC-3
Format/Info                              : Audio Coding 3
Mode extension                           : CM (complete main)
Format settings, Endianness              : Big
Codec ID                                 : 2000
Duration                                 : 2h 14mn
Bit rate mode                            : Constant
Bit rate                                 : 192 Kbps
Channel(s)                               : 2 channels
Channel positions                        : Front: L R
Sampling rate                            : 48.0 KHz
Bit depth                                : 16 bits
Compression mode                         : Lossy
Delay relative to video                  : 260ms
Stream size                              : 184 MiB (9%)
Alignment                                : Split accross interleaves
Interleave, duration                     : 40 ms (1.00 video frame)
Interleave, preload duration             : 500 ms

» Фильм занимает 8-е место по посещаемости среди зарубежных лент в советском кинопрокате.

Зрители: СССР 60.9 млн
Премьера (мир): 10 декабря 1982



© Оформление by DENZEL519 for http://tapochek.net


info [Профиль]  [ЛС] 

PhantomX3

Стаж: 8 лет 2 месяца

Сообщений: 185

Рейтинг

post 06-Дек-2017 09:57 (спустя 1 час 3 минуты) [-]14[+]

[Цитировать] 

джимми джимми джимми ача ача ача
info [Профиль]  [ЛС] 

DENZEL519

Пол: Пол:Муж

Стаж: 6 лет 5 месяцев

Сообщений: 1140

СССР
Рейтинг

post 06-Дек-2017 09:59 (спустя 1 минута) [-]0[+]

[Цитировать] 

PhantomX3
Он самый)) kolob_136

_________________
▶ ▷ Правила, основные инструкции, советы, FAQ ◁ ◀

▶ ▷ Неблагодарность убивает энтузиазм! Нажми 'Спасибо' или [+] ◁ ◀
info [Профиль]  [ЛС] 

SVENBASIC

Стаж: 4 года 9 месяцев

Сообщений: 2

Рейтинг

post 06-Дек-2017 12:29 (спустя 2 часа 30 минут) [-]-7[+]

[Цитировать] 

Как можно было такому фильму поставить 7.2 на Кинопоиске kolob_102
info [Профиль]  [ЛС] 

DENZEL519

Пол: Пол:Муж

Стаж: 6 лет 5 месяцев

Сообщений: 1140

СССР
Рейтинг

post 06-Дек-2017 12:43 (спустя 14 минут) [-]0[+]

[Цитировать] 

SVENBASIC
Мало или много?

_________________
▶ ▷ Правила, основные инструкции, советы, FAQ ◁ ◀

▶ ▷ Неблагодарность убивает энтузиазм! Нажми 'Спасибо' или [+] ◁ ◀
info [Профиль]  [ЛС] 

after_midnight

Пол: Пол:Муж

Стаж: 3 года 9 месяцев

Сообщений: 4

Россия
Рейтинг

post 06-Дек-2017 14:52 (спустя 2 часа 8 минут) [-]-11[+]

[Цитировать] 

серьёзно? а зачем это вообще выкладывать?

_________________
The value of life can be measured by how many times your soul has been deeply stirred.(c) SOICHIRO HONDA
info [Профиль]  [ЛС] 

altairr

Стаж: 7 лет 2 месяца

Сообщений: 59

Рейтинг

post 06-Дек-2017 15:51 (спустя 59 минут) [-]1[+]

[Цитировать] 

В детстве моя мать очень часто смотрела этот фильм. Для полной картины не хватает фильма "Зита и Гита"
info [Профиль]  [ЛС] 

sansanka

Пол: Пол:Муж

Стаж: 4 года 8 месяцев

Сообщений: 112

Россия
Рейтинг

post 06-Дек-2017 15:58 (спустя 6 минут) [-]0[+]

[Цитировать] 

оОооо шедевр!)

_________________
нет
info [Профиль]  [ЛС] 

Снежный барс

Пол: Пол:Муж

Стаж: 8 лет 7 месяцев

Сообщений: 373

Непал
Рейтинг

post 06-Дек-2017 19:17 (спустя 3 часа) [-]0[+]

[Цитировать] 

В 1985 году, емнис, норот на этот фильм ходил по несколько раз. Особенно подростки) Это был хит)
М-да, физиономия у Митхуна щас такая, что ему самому теперь впору играть бандитов kolob_123
info [Профиль]  [ЛС] 

goggi

Пол: Пол:Муж

Стаж: 4 года 11 месяцев

Сообщений: 84

Рейтинг

post 06-Дек-2017 21:48 (спустя 2 часа 31 минута) [-]0[+]

[Цитировать] 

Блюрея не будет?
info [Профиль]  [ЛС] 

DENZEL519

Пол: Пол:Муж

Стаж: 6 лет 5 месяцев

Сообщений: 1140

СССР
Рейтинг

post 06-Дек-2017 23:42 (спустя 1 час 53 минуты) [-]0[+]

[Цитировать] 

goggi
Не существует(

_________________
▶ ▷ Правила, основные инструкции, советы, FAQ ◁ ◀

▶ ▷ Неблагодарность убивает энтузиазм! Нажми 'Спасибо' или [+] ◁ ◀
info [Профиль]  [ЛС] 

vadimca555

Пол: Пол:Муж

Стаж: 5 лет 1 месяц

Сообщений: 153

Россия
Рейтинг

post 07-Дек-2017 00:12 (спустя 30 минут) [-]0[+]

[Цитировать] 

goggi
Какой блюрей в то время?а сейчас этим фильмом никто не будет заморачиваться,это ж не терминатор 2))

_________________
Мать:Asus maximus 7 gen
Проц:4790к
Видео:Zotac 1080ti fe
БП:Corsair RM 750x
Оп.память:Kingston ddr3 4x4gb 2400mgz
HDD:
1)SSD120GB-система
2)SSD240GB-игры
3)HDD1TB-файлопомойка
Охлад:проц и карта на воде.остужается на MORA360 4X180FAN
info [Профиль]  [ЛС] 
Показать сообщения:    
Ответить на тему

Текущее время: 11-Дек 19:26

Часовой пояс: GMT + 4



Вы не можете начинать темы
Вы не можете отвечать на сообщения
Вы не можете редактировать свои сообщения
Вы не можете удалять свои сообщения
Вы не можете голосовать в опросах
Вы не можете прикреплять файлы к сообщениям
Вы не можете скачивать файлы