Ошибка

Месть яйца / Manieggs: Revenge of the Hard Egg (Zoltán Miklósy) [2014, мультфильм, WEB-DLRip] [Официальный]

Ответить на тему
 
Автор Сообщение

DENZEL519

Пол: Пол:Муж

Стаж: 6 лет 5 месяцев

Сообщений: 1143

СССР
Рейтинг

post 24-Ноя-2017 01:42 0[+]

[Цитировать] 

Месть яйца / Manieggs: Revenge of the Hard Egg
-

Год выпуска: 2014
Страна: Венгрия
Жанр: мультфильм
Продолжительность: 01:30:20
Перевод: Профессиональный многоголосый [Официальный] - Мультфильм рассчитан на взрослую аудиторию!
Субтитры: Нет
Режиссер: Zoltán Miklósy
Сценарий: Zoltán Miklósy
Продюсер: Mihály Erdélyi, Attila Herkó, Zoltán Miklósy
Композитор: Matyas Milkovics
Художник: Antal Tamási
Монтаж: Attila Herkó
В ролях: Titanilla Bogdányi (The Salmonella Hospital Dial Tone / Secretary, озвучка), Имре Чуя (Crambo, озвучка), Габор Чёре (Harry, озвучка), Габор Форгач (Ringmaster / Junkie Cop, озвучка), Имре Йожа (Yi Chang, озвучка), Йожеф Керекеш (Bank Manager / The President's Speech Therapist / Clan Member, озвучка), Акош Кёсеги (Johnny Cupido, озвучка), Жольт Ласло , Тамаш Варга (Danny, озвучка)



Описание: Это история о заключенном, которого только что выпустили из тюрьмы. Он провел там две недели за преступление, которого он не совершал, и теперь хочет отомстить. Фильм показывает зрителю оживленные приключения с участием клана Китайский Дракон, нелегальные драки в клетках, ограбление банка и тысячи других волнительных моментов. Но в конце случается такой сюжетный поворот, который будет держать в напряжении даже самых искушенных фанатов боевиков.


Качество: WEB-DLRip
Формат: AVI
Видео кодек: XviD
Аудио кодек: AC3
Видео: 720x400 (16:9), 25.000 fps, XviD, 1 965 Kbps
Аудио: Аудио #1: AC3, 192 Kbps, 48.0 KHz, 2 ch [Rus]


Код:

General
Complete name                            : Manieggs.Revenge.of.the.Hard.Egg.2014.XviD.MegaPeer.avi
Format                                   : AVI
Format/Info                              : Audio Video Interleave
File size                                : 1.37 GiB
Duration                                 : 1h 30mn
Overall bit rate                         : 2 165 Kbps

Video
ID                                       : 0
Format                                   : MPEG-4 Visual
Format profile                           : Advanced Simple@L5
Format settings, BVOP                    : 1
Format settings, QPel                    : No
Format settings, GMC                     : No warppoints
Format settings, Matrix                  : Custom
Codec ID                                 : XVID
Codec ID/Hint                            : XviD
Duration                                 : 1h 30mn
Bit rate                                 : 1 965 Kbps
Width                                    : 720 pixels
Height                                   : 400 pixels
Display aspect ratio                     : 16:9
Frame rate                               : 25.000 fps
Color space                              : YUV
Chroma subsampling                       : 4:2:0
Bit depth                                : 8 bits
Scan type                                : Progressive
Compression mode                         : Lossy
Bits/(Pixel*Frame)                       : 0.273
Stream size                              : 1.24 GiB (91%)
Writing library                          : XviD 73

Audio
ID                                       : 1
Format                                   : AC-3
Format/Info                              : Audio Coding 3
Mode extension                           : CM (complete main)
Format settings, Endianness              : Big
Codec ID                                 : 2000
Duration                                 : 1h 30mn
Bit rate mode                            : Constant
Bit rate                                 : 192 Kbps
Channel(s)                               : 2 channels
Channel positions                        : Front: L R
Sampling rate                            : 48.0 KHz
Bit depth                                : 16 bits
Compression mode                         : Lossy
Stream size                              : 124 MiB (9%)
Alignment                                : Aligned on interleaves
Interleave, duration                     : 64 ms (1.60 video frames)
Interleave, preload duration             : 192 ms

Премьера (мир): 9 июня 2014



© Оформление by DENZEL519 for http://tapochek.net


info [Профиль]  [ЛС] 

grey77ru

Пол: Пол:Муж

Стаж: 5 лет 10 месяцев

Сообщений: 51

Россия
Рейтинг

post 24-Ноя-2017 02:12 (спустя 30 минут) [-]0[+]

[Цитировать] 

Это что, венгерский заменитель лего?
info [Профиль]  [ЛС] 

Shakaaho

Пол: Пол:Муж

Стаж: 3 года 5 месяцев

Сообщений: 1144

Россия
Рейтинг

post 24-Ноя-2017 04:58 (спустя 2 часа 45 минут) [-]-12[+]

[Цитировать] 

Кто такое смотрит? не понимаю.

_________________
info [Профиль]  [ЛС] 

DENZEL519

Пол: Пол:Муж

Стаж: 6 лет 5 месяцев

Сообщений: 1143

СССР
Рейтинг

post 24-Ноя-2017 05:35 (спустя 37 минут) [-]18[+]

[Цитировать] 

Shakaaho
У всех вкусы разные, так что такой вопрос просто не уместен.

PS Такой же вопрос можно задать по поводу аниме, кто такое смотрит? Да такой вопрос можно задать про что угодно. Просто если вы такое не смотрите, то это не означает и что другие не смотрят.

_________________
▶ ▷ Правила, основные инструкции, советы, FAQ ◁ ◀

▶ ▷ Неблагодарность убивает энтузиазм! Нажми 'Спасибо' или [+] ◁ ◀
info [Профиль]  [ЛС] 

Kipax

Пол: Пол:Муж

Стаж: 6 лет 5 месяцев

Сообщений: 27

Россия
Рейтинг

post 25-Ноя-2017 08:04 (спустя 1 день 2 часа) [-]0[+]

[Цитировать] 

Отличный мульт, но не для малых детей!
info [Профиль]  [ЛС] 
Показать сообщения:    
Ответить на тему

Текущее время: 12-Дек 19:50

Часовой пояс: GMT + 4



Вы не можете начинать темы
Вы не можете отвечать на сообщения
Вы не можете редактировать свои сообщения
Вы не можете удалять свои сообщения
Вы не можете голосовать в опросах
Вы не можете прикреплять файлы к сообщениям
Вы не можете скачивать файлы