Ошибка

Adobe Premire Pro. Продвинутый уровень (2014) PCRec

Ответить на тему
 
Автор Сообщение

SkBars

Пол: Пол:Муж

Стаж: 8 лет 3 месяца

Сообщений: 126

Россия
Рейтинг

post 22-Ноя-2017 12:29 2[+]

[Цитировать] 

Adobe Premire Pro. Продвинутый уровень (2014) PCRec

Год выпуска: 2014
Производитель: Дмитрий Ларионов
Сайт производителя: profileschool.ru
Автор: Дмитрий Ларионов
Продолжительность: 19:30:33
Тип раздаваемого материала: Видеоурок
Язык: Русский
Описание:

Это онлайн курс Дмитрия Ларионова, являющийся продолжением базового курса монтажа в Adobe Premiere Pro CC 2014 и обращен к подготовленной аудитории с опытом работы в Premiere или другой монтажной программе. На курсе вы продолжите "шлифовать" свои профессиональные навыки, такие как мультикамерный монтаж, маскирование нежелательных элементов в кадре, интеграцию с After Effects, подготовку проекта к архивированию и сдаче заказчику. Помимо этого, курс затронет аспекты цветокоррекции отснятого материала, особенности настройки программы. Также, особое внимание в процессе обучения будет уделено работе с видео- и аудиоэффектами. По итогам курса, вы сможете выполнять проекты любой сложности, в частности, будете уметь “выравнивать” цвет и звук на всем протяжении видеоролика, а также научитесь использовать большее количество полезных инструментов из пакета Adobe Creative Cloud на практике. Для успешного прохождения курса потребуется Adobe Premiere Pro СС, версия не ниже 8.0 (CC-2014). Помимо Premiere Pro для некоторых занятий понадобятся: Adobe After Effects, Adobe SpeedGrade, Adobe Prelude, Adobe Media Encoder, Adobe Photoshop. Поэтому, фактически, курс сочетает в себе сразу несколько "мини-курсов": основной блок по Premiere плюс несколько вводных блоков по сопутствующим программам.

ЗАНЯТИЕ 1.

Быстрый обзор интерфейса
Стартовый экран.
Создание проекта.
Простой импорт медиа.
Базовая терминология.

Многокамерный монтаж
Варианты синхронизации камер.
Переключение камер.
Выбор источника звука.
Коррекция синхронизации.
Финализация мультикамеры.

Монтаж для немонтажеров
Обзор Adobe Prelude

ЗАНЯТИЕ 2.

Титры
Расположение текста вдоль кривой.
Работа с векторными объектами.
Интеграция с Photoshop.
Интеграция с After Effects.

Анимация
Ключевые кадры
Режимы интерполяции ключевых кадров.
Создание пресетов анимации.

Настройки Premiere Pro
Синхронизанция настроек.

Консолидация проекта
Использование окна Project Manager.
Удаление неиспользованных клипов.

Оффлайновые медиа
Поиск потеряных медиа-файлов.
Принудительная потеря файлов.
Перепривязка.

ЗАНЯТИЕ 3.

Аудиоэффекты
Повышение и понижение уровня.
Динамические эффекты (компрессор, noise gate).
Эффекты на клипе и на треке.
Устранение шипения.

Видеоэффекты
Применение эффектов к нескольким клипам одновременно.
Создание пресетов.
Стабилизация кадра.
Устранение дефекта Rolling Shutter.
Режимы наложения слоев.
Создание полиэкрана.
Трекинг масок.

ЗАНЯТИЕ 4.

Оценка изображения
Приборы Waveform, Vectorscope.

Цветокоррекция в Premiere Pro
Эффекты для работы с цветом.
Three-Way Color Corrector.
Инструменты Curves.
Video Limiter.

Контроль качества
Эффект Broadcast Safe.
Ограничение уровня звучания.
Обнаружение черных полей в секвенции.

ЗАНЯТИЕ 5.

Цветокоррекция в SpeedGrade
Отправка секвенции в SpeedGrade.
Особенности SpeedGrade.
Технология Lumetri.

Обмен секвенциями с Premiere
Частные случаи с эффектами.

ЗАНЯТИЕ 6.

Экспорт медиа-файлов
Форматы файлов.
Кодеки и контейнеры.
Авто-выгрузка на FTP.
Экспорт для YouTube и Vimeo.

Детальные настройки экспорта
Настройки качества экспорта.
Детальный обзор эффектов при экспорте.

Очередь экспорта
Назначение очереди.
Работа с Adobe Media Encoder.

Экспорт в промежуточные форматы
Список монтажных решений (EDL).
Виды EDL.
Экспорт для цветокоррекции.
Экспорт для озвучания.

ЗАНЯТИЕ 7.

Детальная работа с аудио.
Приемы работы.
Настройки секвенции.
Работа со скоростью.
Базовая анимация.
Теоретический блок: частота кадров

ЗАНЯТИЕ 8.

Функции, упрощающие работу.
Кодеки и контейнеры.
Промежуточные форматы.
Экспорт медиа-файлов.
Очередь экспорта.
Работа с Adobe Media Encoder.
Теоретический блок: размер кадра.
Формат: MP4
Видео кодек: AVC
Аудио кодек: AAC
Видео: 541 Кбит/сек, 1096*684, 16:10, в 15 кадр/сек
Аудио: 126 Кбит/сек, 44,1 КГц, 2 канала
Общее
Полное имя : Дмитрий Ларионов - Adobe Premiere Pro CC - Базовый уровень (2014)
Формат : MPEG-4
Профиль формата : Base Media / Version 2
Идентификатор кодека : mp42 (isom/mp42)
Размер файла : 551 Мбайт
Продолжительность : 2 ч. 22 м.
Режим общего битрейта : Переменный
Общий поток : 541 Кбит/сек
Название фильма : premierebase1
Дата кодирования : UTC 2014-08-21 15:31:01
Дата пометки : UTC 2014-08-21 15:31:01

Видео
Идентификатор : 1
Формат : AVC
Формат/Информация : Advanced Video Codec
Профиль формата : Baseline@L3.1
Настройки формата : 3 Ref Frames
Параметр CABAC формата : Нет
Параметр RefFrames формата : 3 кадра
Параметр GOP формата : M=1, N=75
Идентификатор кодека : avc1
Идентификатор кодека/Информация : Advanced Video Coding
Продолжительность : 2 ч. 22 м.
Битрейт : 413 Кбит/сек
Ширина : 1096 пикселей
Высота : 684 пикселя
Соотношение сторон : 16:10
Режим частоты кадров : Постоянный
Частота кадров : 15,000 кадров/сек
Цветовое пространство : YUV
Субдискретизация насыщенности : 4:2:0
Битовая глубина : 8 бит
Тип развёртки : Прогрессивная
Бит/(Пиксели*Кадры) : 0.037
Размер потока : 421 Мбайт (76%)
Язык : English
Дата кодирования : UTC 2014-08-21 15:31:01
Дата пометки : UTC 2014-08-21 15:31:01
Цветовой диапазон : Limited

Аудио
Идентификатор : 2
Формат : AAC
Формат/Информация : Advanced Audio Codec
Профиль формата : LC
Идентификатор кодека : mp4a-40-2
Продолжительность : 2 ч. 22 м.
Вид битрейта : Переменный
Битрейт : 126 Кбит/сек
Максимальный битрейт : 260 Кбит/сек
Каналы : 2 канала
Расположение каналов : Front: L R
Частота : 44,1 КГц
Частота кадров : 43,066 кадра/сек (1024 SPF)
Метод сжатия : С потерями
Размер потока : 128 Мбайт (23%)
Язык : English
Дата кодирования : UTC 2014-08-21 15:31:01
Дата пометки : UTC 2014-08-21 15:31:01

info [Профиль]  [ЛС] 

post 22-Ноя-2017 20:11 (спустя 7 часов) [-]0[+]

Топик был перенесен из форума Анонсы в форум Обучающие видеоматериалы

Syrax
 
Показать сообщения:    
Ответить на тему

Текущее время: 12-Дек 18:11

Часовой пояс: GMT + 4



Вы не можете начинать темы
Вы не можете отвечать на сообщения
Вы не можете редактировать свои сообщения
Вы не можете удалять свои сообщения
Вы не можете голосовать в опросах
Вы не можете прикреплять файлы к сообщениям
Вы не можете скачивать файлы